#TITLE:Discipline;
#SUBTITLE:;
#ARTIST:Nine Inch Nails;
#TITLETRANSLIT:;
#SUBTITLETRANSLIT:;
#ARTISTTRANSLIT:;
#GENRE:Rock;
#CREDIT:;
#BANNER:discipline-bn.png;
#BACKGROUND:discipline-bg.png;
#LYRICSPATH:;
#CDTITLE:;
#MUSIC:Discipline.ogg;
#OFFSET:-0.020000;
#SAMPLESTART:34.680000;
#SAMPLELENGTH:12.000000;
#SELECTABLE:YES;
#BPMS:0.000000=122.000000
;
#STOPS:
;
#BGCHANGES:;
#KEYSOUNDS:;
#ATTACKS:;

//---------------dance-single - ----------------
#NOTES:
     dance-single:
     :
     Hard:
     7:
     0.426704,0.373874,0.213352,0.000000,0.010160,294.000000,273.000000,21.000000,0.000000,0.000000,0.000000,0.426704,0.373874,0.213352,0.000000,0.010160,294.000000,273.000000,21.000000,0.000000,0.000000,0.000000:
0000
0000
0000
0000
,
0000
0000
0000
0000
,
1000
0100
0010
0001
0000
0100
0001
0100
,
0000
0001
0010
0001
0000
1000
0001
0000
,
0001
0010
0100
1000
0000
0010
1000
0010
,
0000
0100
0010
0100
0000
0001
1000
0000
,
0010
0100
0001
1000
0000
0010
1000
0010
,
0000
0100
0001
0100
0000
0001
1000
0000
,
1000
0001
0100
0010
0000
0100
0001
0100
,
0000
0001
0010
0001
0000
0010
0100
1000
,
0010
0100
0001
0010
0000
0100
1000
0010
,
0000
0100
0001
0010
0000
0001
1000
0010
,
0100
0001
1000
0010
0000
0100
0001
1000
,
0000
0010
1000
0100
0000
0010
0001
1000
,
0100
0010
0100
1000
0000
0001
0010
0100
,
0000
0010
0001
1000
0100
0010
0001
1000
,
0010
0100
0010
1000
0000
0001
0100
0010
,
0000
0100
0001
0010
0000
0100
1000
0010
,
0100
0100
0110
0000
0010
1000
0100
0010
,
0000
0001
1000
0001
0000
0100
0010
1000
,
0100
0010
0001
1000
0000
0001
0010
0100
,
0000
1000
0100
0010
0000
0001
1000
0001
,
0010
0010
0110
0000
0100
1000
0010
0100
,
0000
0001
0010
0100
0000
1000
0001
0010
,
0100
0010
0001
1000
0000
1010
0000
0101
,
0000
0011
0000
1100
0000
0001
1000
0000
,
0001
0001
0001
0000
1100
0000
0101
0000
,
1000
1000
0011
1010
,
0100
0100
0100
0000
1010
0000
0101
0000
,
0010
0000
0001
0000
0010
0000
0001
0000
0010
0000
0001
1000
0000
0000
0010
0000
,
1000
0010
0000
1000
0010
0100
0001
0010
,
0000
0001
1000
0001
0000
0100
0010
0100
,
0001
0010
0001
1000
0000
0100
1000
0001
,
0000
0000
0100
0000
0010
0000
0100
0000
0000
0000
0000
0001
0010
0000
0001
0000
,
1000
1000
1000
0000
0010
0100
0001
1000
,
0000
0010
1000
0010
0000
0100
0010
0100
,
0010
0000
1000
0001
0000
0110
0100
0001
,
0000
0010
0100
1000
0000
0100
1100
0000
,
1000
1000
1010
0000
0100
0001
0010
0100
,
0000
0010
0001
1000
0000
0100
0010
0001
,
1000
0001
0010
0100
0000
1000
0010
0100
,
0000
0001
1000
0010
0000
0100
0001
0010
,
0001
0001
0101
0000
0001
1000
0100
0010
,
0000
0100
1000
0010
0000
0100
0001
1000
,
0010
1000
0100
0010
0000
0011
0000
1100
,
0000
1010
0000
0101
0000
0001
1000
0000
,
1100
0000
0000
0000
;

//---------------dance-single - ----------------
#NOTES:
     dance-single:
     :
     Medium:
     5:
     0.329462,0.303772,0.132075,0.081277,0.000000,227.000000,214.000000,13.000000,8.000000,0.000000,0.000000,0.329462,0.303772,0.132075,0.081277,0.000000,227.000000,214.000000,13.000000,8.000000,0.000000,0.000000:
0000
0000
0000
0000
,
0000
0000
0000
0000
,
0100
0010
0100
0020
0000
1030
0010
0000
,
1000
0000
0100
0000
0000
1000
0100
0000
,
0010
0001
0010
0002
0000
0013
0001
0000
,
0100
0000
0001
0000
0000
0100
0001
0000
,
1000
0010
1000
0020
0000
1030
0010
0000
,
0100
0000
0010
0000
0000
0100
0010
0000
,
0100
0001
0100
0002
0000
0103
0001
0000
,
0010
0000
0001
0000
0000
0010
0001
0000
,
0100
0010
1000
0002
0000
1003
0001
0000
,
0100
0000
0010
0000
0000
0100
0010
0000
,
1000
0100
0010
0002
0000
1003
0001
0000
,
1000
0000
0100
0000
0000
1000
0100
0000
,
1000
0010
0100
0002
0000
0013
0001
0000
,
0100
0000
0010
0000
0000
0100
0010
0000
,
0100
0010
1000
0002
0000
0103
0001
0000
,
0010
0000
0100
0000
0000
0010
0100
0000
,
1000
1000
1000
0000
0001
0000
0011
0000
,
0001
0101
0001
0011
,
0001
0010
0100
1000
0000
0000
1000
0000
,
0000
1000
0001
0000
0000
0000
0000
0000
,
0001
0001
0001
0000
1000
0000
1010
0000
,
1000
1100
1000
1010
,
1000
0010
0100
0001
0000
1000
0000
1000
,
0000
0001
0000
1000
0000
0001
0100
0000
,
0010
0010
0010
0000
0010
0000
0010
0000
,
0010
0010
0010
0010
,
0100
0100
0100
0000
0100
0000
0100
0000
,
0100
1000
0100
1000
0100
0000
0100
0000
,
1000
1000
1000
0001
0000
0100
0000
0001
,
0000
0010
0000
0001
0000
0100
0000
0001
,
0010
0010
0010
0100
0000
1000
0000
0100
,
0000
0010
0000
0100
0000
1000
0000
0100
,
1000
1000
1000
0010
0000
0100
0000
0010
,
0000
0001
0000
0010
0000
0100
0000
0010
,
0100
0100
0100
0001
0000
0010
0000
0100
,
0000
1000
0000
0010
0000
0100
0000
0001
,
0010
0010
0010
0000
0100
0000
1100
0000
,
0100
0101
0100
1100
,
0001
0010
0100
1000
0000
0010
0000
0010
,
0000
1000
0000
0001
0000
0100
0010
0000
,
0100
0100
0100
0000
0010
0000
1010
0000
,
0010
0011
0010
1010
,
1000
0100
0010
0001
0000
0100
0000
0100
,
0000
0010
0000
1000
0000
0010
0100
0000
,
1001
0000
0000
0000
;

//---------------dance-single - ----------------
#NOTES:
     dance-single:
     :
     Easy:
     2:
     0.152394,0.210304,0.000000,0.000000,0.000000,105.000000,105.000000,0.000000,0.000000,0.000000,0.000000,0.152394,0.210304,0.000000,0.000000,0.000000,105.000000,105.000000,0.000000,0.000000,0.000000,0.000000:
0000
0000
0000
0000
,
0000
0000
0000
0000
,
0001
0010
0000
0010
,
0000
0000
0000
0000
,
0100
1000
0000
1000
,
0000
0000
0000
0000
,
0010
0001
0000
0001
,
0000
0000
0000
0000
,
1000
0100
0000
0100
,
0000
0000
0000
1000
,
1000
0001
0000
0010
,
0000
0001
0000
0100
,
0010
0000
1000
0000
,
0001
0010
0000
0100
,
0000
0100
0000
0010
,
0000
0100
0000
0001
,
1000
0000
0010
0000
,
0100
0000
0000
0001
,
1000
1000
0010
0010
,
0000
0010
0000
0000
,
0001
0000
0000
0010
,
0000
1000
0000
0000
,
1000
0000
0000
0010
,
0000
0000
0000
1000
,
0001
0000
0100
0000
,
0010
0000
0000
0000
,
0010
0010
1000
0001
,
1000
0001
1000
0001
,
0100
0100
0001
1000
,
0001
1000
0001
1000
,
0001
0001
0010
0000
,
0100
0000
1000
0000
,
1000
1000
0000
0100
,
0000
0001
0000
0100
,
1000
0010
0100
0001
,
0100
0010
1000
0001
,
1000
0100
0010
0001
,
1000
0001
0100
0010
,
0100
0001
0000
0001
,
0000
0000
0000
0100
,
0010
0000
1000
0000
,
0001
0000
0100
0000
,
1000
0100
0000
0001
,
0000
0000
0000
1000
,
0100
0010
0000
0001
,
0000
1000
0000
0010
,
0100
0000
0000
0000
;

//---------------dance-single - ----------------
#NOTES:
     dance-single:
     :
     Beginner:
     1:
     0.085631,0.116835,0.030479,0.000000,0.000000,59.000000,56.000000,3.000000,0.000000,0.000000,0.000000,0.085631,0.116835,0.030479,0.000000,0.000000,59.000000,56.000000,3.000000,0.000000,0.000000,0.000000:
0000
0000
0000
0000
,
0000
0000
0000
0000
,
1000
0000
0000
0010
,
0000
0000
0000
0000
,
0100
0000
0000
0010
,
0000
0000
0000
0000
,
0100
0000
0000
0001
,
0000
0000
0000
0000
,
0001
0000
0000
0010
,
0000
0000
0000
0000
,
0001
0001
0000
0000
,
0000
0000
0000
0000
,
0010
0010
0000
0000
,
0000
0000
0000
0000
,
1000
1000
0000
0000
,
0000
0000
0000
0000
,
0100
0000
0100
0000
,
0000
0000
0000
0000
,
0010
0010
0000
0001
,
0000
0000
0000
0000
,
1001
0000
0000
0100
,
0000
0000
0000
0000
,
1000
1000
0000
0001
,
0000
0000
0000
0000
,
0100
0000
0010
0000
,
1000
0000
0000
0000
,
1000
1000
1000
0000
,
0000
0000
0000
0000
,
0001
0001
0001
0000
,
0000
0010
0000
0000
,
0100
0000
0000
0000
,
1000
0000
0000
0000
,
0010
0000
0000
0000
,
0100
0000
1000
0000
,
0001
0000
0000
0000
,
0010
0000
0000
0000
,
0001
0000
0000
0000
,
0110
0000
0000
0000
,
1000
1000
0000
0010
,
0000
0000
0000
0000
,
0100
0100
0000
0001
,
0000
0000
0000
0000
,
0010
0010
0000
0100
,
0000
0000
0000
0000
,
1000
1000
0000
0001
,
0000
0000
0000
0000
,
0110
0000
0000
0000
;

//---------------dance-double - ----------------
#NOTES:
     dance-double:
     :
     Easy:
     2:
     0.143686,0.210304,0.010160,0.020319,0.000000,99.000000,98.000000,1.000000,2.000000,0.000000,0.000000,0.143686,0.210304,0.010160,0.020319,0.000000,99.000000,98.000000,1.000000,2.000000,0.000000,0.000000:
00000000
00000000
00000000
00000000
,
00000000
00000000
00000000
00000000
,
10000000
01000000
00000000
00100000
,
00000000
00100000
00000000
00000000
,
00010000
00000100
00000000
00001000
,
00000000
00001000
00000000
00000000
,
00000010
00000100
00000000
00000001
,
00000000
00000001
00000000
00000000
,
00000010
00000100
00000000
00010000
,
00000000
00010000
00000000
00000000
,
00001000
00001000
00000000
00100000
,
00000000
00100000
00000000
01000000
,
10000000
00000000
00000000
10000000
,
00000000
00000000
10000000
01000000
,
00100000
00010000
00000000
00000000
,
00001000
00000100
00000000
00000010
,
00000001
00000000
00000000
00000001
,
00000000
00000000
00000000
00000001
,
00000100
00000100
00000000
00000010
,
00000000
00000000
00000000
00010000
,
00001000
00001000
00000000
00000000
,
00000000
00000000
00000000
00100000
,
01000000
01000000
00000000
10000000
,
00000000
00000000
00000000
00010000
,
00100000
01000000
00000000
00100000
,
00010000
00001000
00000000
00000100
,
00001000
00001000
00000000
00000000
,
00000000
00000000
00000000
00000010
,
00000100
00000001
00000000
00000000
,
00000000
00000000
00000000
00000000
,
00001000
00000100
00010000
00001000
,
00010000
00000000
00000000
00000000
,
00001000
00100000
00010000
01000000
,
00010000
10000000
10000000
01000000
,
00100000
00010000
00000000
00001000
,
00000000
00010000
00000000
00000100
,
00000000
00001000
00000000
00000100
,
00000010
00000100
00000000
00000010
,
00000001
00000100
00000000
00000020
,
00000000
00000000
00000030
00001000
,
00000100
00000000
00000000
00010000
,
00001000
00100000
00000000
01000000
,
10000000
01000000
00000000
20000000
,
00000000
00000000
30000000
00100000
,
01000000
00010000
00000000
00100000
,
00010000
01000000
00010000
00000000
,
00011000
00000000
00000000
00000000
;

//---------------dance-double - ----------------
#NOTES:
     dance-double:
     :
     Medium:
     6:
     0.341073,0.348602,0.253990,0.172713,0.000000,235.000000,210.000000,25.000000,17.000000,0.000000,0.000000,0.341073,0.348602,0.253990,0.172713,0.000000,235.000000,210.000000,25.000000,17.000000,0.000000,0.000000:
00000000
00000000
00000000
00000000
,
00000000
00000000
00000000
00000000
,
01000000
00010000
01000000
00010000
01000000
00000000
01010000
00000000
,
00001000
00011000
01000000
01010000
,
00001000
00010000
00001000
00010000
00001000
00000000
00011000
00000000
,
00000100
00010100
00001000
00011000
,
00000010
00000100
00000010
00000100
00000010
00000000
00000110
00000000
,
00001000
00001001
00000010
00000110
,
00001000
00000100
00001000
00000100
00001000
00000000
00001100
00000000
,
00010000
00011000
00001000
00001100
,
00000010
00001000
00000100
00000000
00010000
00000000
00010000
00000000
,
00001000
00010000
00100000
00000000
01000000
00000000
01000000
00010000
,
10000000
00000000
00100000
01000000
00000000
01000000
00100000
00000000
,
10000000
00010000
00000000
00010000
10000000
00000000
00100000
00000000
,
01000000
00010000
00100000
00000000
00010000
00000000
00001000
00000000
,
00000100
00001000
00000010
00000000
00000100
00000001
00000100
00000000
,
00000010
00000000
00001000
00000100
00000000
00000100
00001000
00000000
,
00000001
00000010
00000000
00000010
00000100
00000000
00011000
00000000
,
00100000
01000000
00100000
00000000
00010000
00000000
01010000
00000000
,
10000000
00000000
10000000
00000000
00100000
01000000
00010000
01000000
,
00100000
00000000
01000000
00010000
01000000
00000000
00001000
00010000
,
00001000
00010000
00001000
00000010
,
00000100
00000001
00000100
00000000
00000001
00000000
00000011
00000000
,
00000100
00000000
00001000
00000000
00000100
00010000
00001000
00000000
,
00011000
00000000
00100000
00010000
00000000
02000000
00000000
23000000
,
00000000
32000000
00000000
03010000
00000000
00100000
00001000
00000000
,
00010000
00001000
00011000
00000000
00000100
00000000
00000100
00000000
,
00000100
00000100
00000100
00000100
,
00000010
00000001
00000011
00000000
00001000
00000000
00001000
00000000
,
00001000
00000000
00001000
00000000
00001000
00000000
00000000
00001000
,
00000100
00010000
00001000
00000000
00000000
00001000
00000000
00100000
,
00000000
00010000
00000000
10000000
00000000
01000000
00000000
00000000
,
10000000
00010000
10010000
00000000
00000000
00100000
00000000
01000000
,
00000000
00001000
00000000
00010000
00000000
00000100
00000000
00000000
,
00000001
00000100
00001000
00000000
00000000
00000010
00000100
00000000
,
00000000
00000001
00000010
00000000
00000000
00000100
00001000
00000000
,
00001010
00000000
00000010
00000100
00000000
00000002
00000000
00000023
,
00000000
00002030
00000000
00023000
00000000
00130000
10000000
00000000
,
01000000
00100000
01100000
00000000
00000000
00000000
00010000
00100000
,
00001000
00010000
00000000
00000000
00000000
00000010
00001000
00000000
,
00001001
00000000
00000110
00000000
00001000
00000200
00000000
00002300
,
00000000
00023000
00000000
00032000
00000000
00003200
00010000
00000300
,
00001000
00010000
00011000
00000000
00000000
00000000
00100000
00010000
,
01000000
00100000
00000000
00000000
10000000
00000000
01000000
00000000
,
01100000
00000000
00010000
20000000
00000000
32000000
00000000
03020000
,
00000000
00032000
00000000
00003020
00000000
00000031
00000001
00000000
;

//---------------dance-double - ----------------
#NOTES:
     dance-double:
     :
     Hard:
     7:
     0.380260,0.395082,0.274309,0.345427,0.010160,262.000000,235.000000,27.000000,34.000000,0.000000,0.000000,0.380260,0.395082,0.274309,0.345427,0.010160,262.000000,235.000000,27.000000,34.000000,0.000000,0.000000:
// measure 0
00000000
00000000
00000000
00000000
,  // measure 1
00000000
00000000
00000000
00000000
,  // measure 2
00000100
00001000
00010000
00001000
00000000
00000100
00000020
00000000
,  // measure 3
00000030
00001000
00000200
00000000
00000300
00000100
00020000
00000000
,  // measure 4
00031000
00100000
00010000
00001000
00000000
00010000
00200000
00000000
,  // measure 5
00300000
01000000
20000000
00000000
30000000
10000000
00200000
00000000
,  // measure 6
00310000
00001000
00000100
00000002
00000000
00000013
00000200
00000000
,  // measure 7
00000300
00010000
00002000
00000000
00003000
00100000
00020000
00000000
,  // measure 8
01030000
00001000
00010000
00100000
00000000
00010000
00002000
00000000
,  // measure 9
00003000
01000000
00020000
00000000
00030000
10000000
00100000
01000000
,  // measure 10
00010000
00100000
00110000
00000000
00001000
00010000
00001000
00000000
,  // measure 11
00010000
00000100
00000010
00000001
00000000
00000100
00000010
00002000
,  // measure 12
00000000
00000000
00000000
00000100
00000000
00000000
00010000
00000000
,  // measure 13
00000000
00003100
00000000
00000000
00000110
00000000
00000001
00000100
,  // measure 14
00001000
00010000
00100000
00000000
10000000
01000000
10000000
00000000
,  // measure 15
00100000
01000000
00010000
00000000
00001000
00000010
00000100
00002000
,  // measure 16
00000000
00000000
00000000
00010000
00000000
00000000
00000100
00000000
,  // measure 17
00000000
00013000
00000000
00000000
00000000
00100000
00010000
10000000
,  // measure 18
01000000
01000000
01100000
00000000
00010000
00010000
00110000
00000000
,  // measure 19
00100000
00010000
00001000
00000010
00000000
00000100
00000001
00000100
,  // measure 20
00000101
00000000
00000010
00001000
00001100
00000000
00000100
00010000
,  // measure 21
00001000
00100000
01000000
10000000
00000000
00100000
10000000
01000000
,  // measure 22
00100000
00100000
00110000
00000000
00001000
00001000
00011000
00000000
,  // measure 23
00010000
00000100
00000010
00000000
00000001
00000100
00000010
00000000
,  // measure 24
00000101
00000000
00001000
00000200
00000000
00020300
00000000
00032000
,  // measure 25
00000000
00003020
00000000
00002030
00000000
00013000
00100000
00000000
,  // measure 26
10000000
10000000
10000000
00000000
00110000
00000000
00011000
00000000
,  // measure 27
01010000
00000000
11000000
00000000
00100000
00000000
01000000
00010000
,  // measure 28
00001000
00001000
00001000
00000000
00110000
00000000
00011000
00000000
,  // measure 29
00001000
00000000
00000010
00000000
00000000
00000000
00000101
00000000
00000000
00000000
00000001
00001000
00000000
00000000
00000010
00000000
,  // measure 30
00000100
00000100
00000100
00010000
00000000
00011000
00000000
01100000
,  // measure 31
00000000
11000000
00000000
00010000
00000000
10000000
00000000
01000000
,  // measure 32
00010000
00010000
00010000
01000000
00000000
10100000
00000000
01010000
,  // measure 33
00000000
00000000
00011000
00000000
00000000
00000000
00000110
00000000
00000000
00000000
00000100
00000001
00000000
00000000
00000001
00000000
,  // measure 34
00000010
00000100
00001000
00000000
00000100
00010000
00100000
00000000
,  // measure 35
01000000
10000000
00010000
00000000
00100000
00001000
00100000
00000000
,  // measure 36
00110000
00000000
01000000
20000000
00000000
32000000
00000000
03020000
,  // measure 37
00000000
00032000
00000000
00003020
00000000
00000031
00001000
00000100
,  // measure 38
00010000
00010000
00011000
00000000
00000010
00001000
00000100
00000010
,  // measure 39
00000000
00000001
00000100
00001000
00000000
00010000
01000000
10000000
,  // measure 40
00100000
00000000
01000000
00200000
00000000
00320000
00000000
00032000
,  // measure 41
00000000
00023000
00000000
00230000
00000000
00310000
01000000
00100000
,  // measure 42
01000000
01000000
01010000
00000000
00001000
00010000
00000010
00000100
,  // measure 43
00000000
00001000
00010000
00001000
00000100
00000010
00000001
00000000
,  // measure 44
00001100
00000000
00000010
00020000
00000000
00032000
00000000
00003200
,  // measure 45
00000000
00002300
00000000
00023000
00000000
00031000
00010000
00000000
;
