#TITLE:Discipline;
#SUBTITLE:(Binary Audio Remix);
#ARTIST:Nine Inch Nails;
#TITLETRANSLIT:;
#SUBTITLETRANSLIT:;
#ARTISTTRANSLIT:;
#GENRE:Techno;
#CREDIT:;
#BANNER:disciplinebinaryaudioremix-bn.png;
#BACKGROUND:disciplinebinaryaudioremix-bg.png;
#LYRICSPATH:;
#CDTITLE:;
#MUSIC:Discipline (Binary Audio Remix).ogg;
#OFFSET:-1.044000;
#SAMPLESTART:39.650002;
#SAMPLELENGTH:12.000000;
#SELECTABLE:YES;
#BPMS:0.000000=122.000000
;
#STOPS:
;
#BGCHANGES:;
#KEYSOUNDS:;
#ATTACKS:;

//---------------dance-single - ----------------
#NOTES:
     dance-single:
     :
     Challenge:
     8:
     0.478953,0.487661,0.193033,0.162554,0.187953,330.000000,311.000000,19.000000,16.000000,0.000000,0.000000,0.478953,0.487661,0.193033,0.162554,0.187953,330.000000,311.000000,19.000000,16.000000,0.000000,0.000000:
0000
0000
0000
0000
,
0000
0000
0000
0000
,
0002
0020
0000
0033
0200
2000
0000
3300
,
1000
0000
0001
0000
0100
0000
0001
1000
0000
0010
1000
0000
0100
0000
0000
0000
,
0100
1000
0010
0100
0001
0010
1000
0010
,
0001
0100
0010
1000
0000
0001
0100
0201
,
0000
0000
1000
1000
0000
0001
0001
0000
,
1000
1000
0000
0001
0301
0000
1001
0000
,
0010
0001
1000
0001
0000
0001
0010
0001
,
0100
0010
1000
0100
0000
0010
0001
0021
,
0000
0000
1000
1000
0000
0001
0001
0000
,
1000
1000
0000
0001
0031
0000
1001
0000
,
0001
0100
0010
1000
0100
1000
0000
0010
,
0100
1000
1000
0000
0010
1000
0100
1200
,
0000
0000
0001
0001
0000
1000
1300
0000
,
0100
1000
0010
0100
0000
0000
1001
0000
,
0010
0001
1000
0100
0010
0001
0010
0000
,
0001
0100
0010
1000
0001
0100
1001
0000
,
0001
0000
0100
0000
0010
0000
0000
1000
0000
0000
0100
0000
1000
0000
0100
0000
,
1000
0000
0010
0000
0100
0000
0001
0010
0000
0000
0010
0000
0001
0000
1000
0000
,
0010
1000
1100
0000
0010
0001
0101
0000
,
0010
0000
1000
0000
0100
0000
0010
0001
0000
0000
0010
0000
0001
0000
0010
0000
,
0011
0000
0100
1000
1010
0000
0010
0100
,
0001
0000
0010
0000
0001
0000
1000
0100
0000
0000
1000
0000
0100
0000
0010
0000
,
0100
1000
1100
0000
0100
0010
0011
0000
,
0001
0000
1000
0000
0010
0000
0100
0010
0000
0000
0100
0000
0001
0000
0000
0000
,
0002
0000
0013
0200
0000
1300
0000
1001
,
0000
0020
0000
0230
0000
0301
1000
0000
,
0010
0000
1000
0000
0100
0000
0000
1000
0000
0000
0010
0000
0100
0000
0000
0000
,
0001
0000
0010
0000
0100
0000
0000
0010
0000
0000
0001
0000
1000
0000
0100
0000
,
1000
0000
0010
0000
0100
0000
0000
0001
0000
0000
0010
0000
1000
0000
0000
0000
,
0010
0000
0001
0000
0100
0000
0000
0010
0000
0000
0100
0000
0001
0000
1000
0000
,
0010
0000
1000
0100
0000
0000
1000
0000
0010
0000
1000
0100
0000
0000
0100
0000
,
0010
0000
0001
0100
0000
0000
0001
0000
0010
0000
0001
0100
0000
0000
0100
0000
,
0010
0000
0100
0001
0000
0000
0100
0000
0010
0000
0100
0001
0000
0000
1000
0000
,
0100
0000
0010
0001
0000
0000
0010
0000
0100
0000
0010
0001
0000
0000
0010
0000
,
0100
0000
1000
0001
0000
0000
1000
0000
0100
0000
1000
0001
0000
0000
1000
0000
,
0100
0000
0010
0001
0000
0000
0010
0000
0100
0000
0010
0000
0001
0000
1000
0000
,
2001
0000
3100
0020
0000
0031
0000
1001
,
0000
2000
0000
3010
0000
0100
0010
1000
,
0001
0000
0010
0000
0100
0000
1000
0010
0000
1000
0010
0000
0100
0000
0001
0000
,
0000
0000
0001
0000
0100
0000
0010
1000
0000
0010
1000
0000
0001
0000
1000
0000
,
0100
0000
0010
0001
0010
0000
0100
0000
0000
0000
1000
0000
0000
0000
1001
0000
,
0001
0000
0100
0010
0000
0100
0010
0000
1000
0000
0001
0000
1001
0000
0000
0000
,
1000
0000
0100
1000
0000
0100
1000
0000
0001
0000
0010
0000
0100
0000
1000
0000
,
0010
0000
0100
0001
0100
0000
0010
0000
0100
0000
0010
0000
1000
0000
0000
0000
,
1000
0000
0100
0010
0000
0100
0010
0000
0100
0000
0001
0010
0000
0001
0020
0000
,
0000
0000
0031
1000
0001
0000
2000
0000
0000
0000
3010
0000
0010
0000
0000
0000
,
1001
0000
0000
0000
;

//---------------dance-double - ----------------
#NOTES:
     dance-double:
     :
     Challenge:
     8:
     0.494918,0.536427,0.274309,0.162554,0.182873,341.000000,314.000000,27.000000,16.000000,0.000000,0.000000,0.494918,0.536427,0.274309,0.162554,0.182873,341.000000,314.000000,27.000000,16.000000,0.000000,0.000000:
// measure 0
00000000
00000000
00000000
00000000
,  // measure 1
00000000
00000000
00000000
00000000
,  // measure 2
00000002
00000020
00000000
00000033
00002000
00020000
00000000
00033000
,  // measure 3
00100000
10000000
01000000
00100000
00000000
00100000
00001000
00010000
,  // measure 4
00001000
00000000
00000100
00000000
00001000
00000000
00000000
00100000
00010000
00000000
00100000
00000000
01000000
00000000
00000000
00000000
,  // measure 5
11000000
01000000
00100000
00010000
00000000
00001000
00000010
00001000
,  // measure 6
00020000
00000000
00031000
00000200
00000000
00000301
00000020
00000000
,  // measure 7
00000130
00002000
00000000
00003100
00020000
00000000
00031000
01000000
,  // measure 8
00100000
00000000
10000000
00000000
01000000
00000000
00000000
10000000
00100000
00000000
10000000
00000000
00010000
00000000
00000000
00000000
,  // measure 9
00010000
00000000
01000000
00000000
00001000
00000000
00010000
00001000
00000000
00000000
00010000
00000000
00000010
00000000
00000100
00000000
,  // measure 10
00002000
00000000
00003100
00000002
00000000
00000013
00002000
00000000
,  // measure 11
00013000
00000000
00200000
00000000
00000000
00000000
10300000
00000000
00010000
00000000
01000000
00010000
01000000
00000000
00000000
00000000
,  // measure 12
00110000
00000000
00100000
00000000
00001000
00000000
00000100
00000000
00000000
00000000
00000001
00000000
00001000
00000000
00000100
00001000
,  // measure 13
00000000
00000010
00000010
00000000
00000100
00000001
00001000
00001010
,  // measure 14
00000000
00000000
00010000
00011000
00000000
00100000
00110000
00000000
,  // measure 15
01000000
00000000
10000000
00000000
01000000
00000000
00100000
00010000
00000000
00000000
00100000
00000000
00001000
00000000
00010000
00000000
,  // measure 16
00000010
00000000
00001000
00000000
00000100
00000000
00001000
00000010
00000000
00000000
00001000
00000000
00000001
00000000
00000000
00000000
,  // measure 17
00000100
00000010
00000100
00000010
00001000
00000100
00010000
00000000
,  // measure 18
00011000
00000000
00001000
00000000
00100000
00000000
01000000
10000000
00000000
00000000
10000000
00000000
00010000
00000000
01000000
00000000
,  // measure 19
00200000
00000000
02000000
00000000
03300000
00000000
00010000
10000000
00000000
00000000
00010000
00000000
00100000
00000000
00010000
00000000
,  // measure 20
01000000
00001000
01001000
00000000
00010000
00010000
00010000
00000000
,  // measure 21
00000100
00000100
00000100
00000000
00001000
00000010
00000100
00000001
,  // measure 22
00000101
00000000
00000010
00000010
00000010
00000000
00010000
00010000
,  // measure 23
00010000
00000000
00000000
00000000
00100000
00000000
10000000
00100000
00000000
00000000
01000000
00000000
00010000
00000000
00100000
00000000
,  // measure 24
01000000
10000000
11000000
00000000
01000000
01000000
01000000
00000000
,  // measure 25
00001000
00001000
00001000
00000100
00000000
00000001
00001000
00000000
,  // measure 26
00001020
00000000
00010030
00010000
00000000
00011000
00000000
00110000
,  // measure 27
00000000
01000000
10000000
01000000
00000000
00010000
00010000
00000000
,  // measure 28
00100000
00000000
00001000
00000000
00100000
00000000
00010000
00001000
00000000
00000000
00010000
00000000
00100000
00000000
00000000
00000000
,  // measure 29
01000000
00000000
10000000
00000000
01000000
00000000
00010000
01000000
00000000
00000000
10000000
00000000
00010000
00000000
00100000
00000000
,  // measure 30
00001000
00000000
00010000
00000000
00100000
00000000
00010000
00001000
00000000
00000000
00010000
00000000
00000100
00000000
00000000
00000000
,  // measure 31
00001000
00000000
00000010
00000000
00000001
00000000
00000010
00001000
00000000
00000000
00000001
00000000
00000100
00000000
00000010
00000000
,  // measure 32
00001000
00000000
00001000
00000000
00001100
00000000
00000000
00000000
00010000
00000000
00001000
00010000
00000000
00000000
00000000
00000000
,  // measure 33
00100000
00000000
00010000
00100000
00000000
00000000
10010000
00000000
00000000
00000000
10000000
00000000
01000000
00000000
01000000
00000000
,  // measure 34
11000000
00000000
00000000
00000000
00100000
00000000
00010000
00000000
00000000
00000000
00100000
00001000
00000000
00000000
00010000
00000000
,  // measure 35
00000100
00000000
00001000
00000100
00000000
00000000
00001001
00000000
00000000
00000000
00000100
00000000
00000001
00000000
00000010
00000000
,  // measure 36
00000001
00000000
00000001
00000000
00000011
00000000
00000000
00000000
00000100
00000000
00000001
00000100
00000000
00000000
00000010
00000000
,  // measure 37
00001000
00000000
00000100
00001000
00000000
00000000
00000000
00000000
00010000
00000000
00001000
00000000
01000000
00000000
00000000
00000000
,  // measure 38
01100000
00000000
00001000
00010000
00000000
00000110
00000000
00000101
,  // measure 39
00000000
00001100
00000000
00011000
00000000
00100000
10000000
00100000
,  // measure 40
00010000
00000000
01000000
00100000
00000000
00100000
01000000
00000000
00010000
00000000
10000000
00000000
00010000
00000000
00000000
00000000
,  // measure 41
00100000
00010000
00100000
00000000
00001000
00000000
00010000
00001000
00000000
00000000
00010000
00000000
00011000
00000000
00000000
00000000
,  // measure 42
00000010
00000000
00000100
00000000
00000001
00000000
00000010
00000100
00000000
00000100
00000010
00000000
00000001
00000000
00001000
00000000
,  // measure 43
00000100
00000000
00000010
00000000
00001000
00000000
00000010
00000001
00000000
00000001
00000100
00000000
00000010
00000000
00001000
00000000
,  // measure 44
00000100
00000000
00010000
00000000
00001000
00000000
01000000
00010000
00000000
00010000
01000000
00000000
00100000
00000000
00000000
00000000
,  // measure 45
10000000
01000000
10000000
00000000
00100000
00000000
01000000
00100000
00000000
00000000
01000000
00000000
01010000
00000000
00000000
00000000
,  // measure 46
10000000
00100000
10000000
00000000
00010000
00000000
01000000
00001000
01000000
00000000
00001000
00000000
00010000
00000000
00010010
00000000
,  // measure 47
00000000
00000000
00000100
00000001
00000100
00000000
00000101
00000000
00000000
00000000
00001010
00000000
00001000
00000000
00010000
00001000
,  // measure 48
00100000
00000000
00000000
00000000
;
