#TITLE:Destroyer;
#SUBTITLE:;
#ARTIST:xKore;
#TITLETRANSLIT:;
#SUBTITLETRANSLIT:;
#ARTISTTRANSLIT:;
#GENRE:Drum'n'Bass;
#CREDIT:;
#BANNER:destroyer-bn.png;
#BACKGROUND:destroyer-bg.png;
#LYRICSPATH:;
#CDTITLE:;
#MUSIC:Destroyer.mp3;
#OFFSET:-5.690000;
#SAMPLESTART:33.889999;
#SAMPLELENGTH:12.000000;
#SELECTABLE:YES;
#BPMS:0.000000=170.020004
,80.000000=340.040009
,208.000000=170.020004
,216.000000=340.040009
,232.000000=170.020004
,240.000000=340.040009
,256.000000=170.020004
,288.000000=340.040009
;
#STOPS:
;
#BGCHANGES:;
#KEYSOUNDS:;
#ATTACKS:;

//---------------dance-single - ----------------
#NOTES:
     dance-single:
     :
     Medium:
     9:
     0.654725,1.011817,0.248768,0.220064,0.186576,479.000000,453.000000,26.000000,23.000000,0.000000,0.000000,0.654725,1.011817,0.248768,0.220064,0.186576,479.000000,453.000000,26.000000,23.000000,0.000000,0.000000:
0010
0000
0000
0010
0100
0000
0001
0000
1000
0000
0001
0000
0000
0000
0000
0000
,
0000
0000
0000
0000
0000
0000
0000
0000
0000
0000
0000
0000
0100
0010
0100
0000
,
0001
0000
0000
0001
1000
0000
0010
0000
1000
0000
0100
0000
0010
0000
0001
0000
,
1000
0000
0000
1000
0010
0000
0100
0000
0010
0000
1000
0000
0001
0000
0001
0000
,
0101
0000
0000
0000
0001
1000
0001
1000
0001
0000
0000
0000
1000
0000
0000
0000
,
1100
0000
0000
0000
0000
0000
0000
0000
0020
0000
0000
0000
1030
0100
1000
0000
,
0001
0010
0001
0010
0001
0000
0000
0000
2000
0000
0000
0000
3020
0000
0000
0000
,
0230
0000
0000
0000
0301
0000
0010
0000
0001
0000
0000
0000
1000
0100
1000
0100
,
1000
0000
0000
0000
0001
0010
0001
0010
0001
0000
0000
0000
0000
0000
0010
0000
,
0100
1000
2000
3000
,
0002
0000
0000
0100
0103
0000
0010
0100
,
0020
0000
1030
0001
0200
0000
0310
0010
,
1000
0000
0000
1000
0100
0000
1000
0000
0100
0000
0100
0000
1000
0001
1000
0000
,
0010
0000
0000
0010
0001
0000
0010
0000
0001
0000
0001
0000
0100
0010
0100
0000
,
0001
0000
0000
0001
0100
0000
0001
0000
0100
0000
0100
0000
0001
1000
0001
0000
,
0010
0000
0000
0010
1000
0000
0010
0000
1000
0000
0001
0000
1000
0000
0001
0000
,
1000
0100
1000
0100
0010
0001
0010
0001
,
0100
0010
0100
0010
1000
0100
1000
0100
,
0010
0001
0010
0001
0100
0010
0100
0010
,
0100
0000
0000
0001
0000
0000
1000
0000
0010
0000
0100
0000
0001
0000
0000
0000
,
0010
0000
0100
0100
,
0000
0000
1100
0000
,
0010
0100
0000
0100
0001
0000
0001
1000
,
0000
1000
0001
0000
0001
0010
0001
0010
,
0001
0000
0100
0001
,
0000
0000
1001
0000
,
0100
0010
0100
0010
0100
0010
0100
0000
,
2100
0000
0001
3001
,
0100
0000
0001
0001
,
0000
0000
0110
0000
,
1000
0100
0000
0100
0010
0000
0010
0001
,
0000
0001
1000
0000
2002
0000
3003
0000
,
0020
0000
0230
0000
,
2300
0000
3001
0001
,
0100
0000
0010
0000
,
1002
0000
0000
0013
,
0010
0000
0100
0100
,
0000
0000
1100
0000
,
1000
0010
0000
0010
0100
0000
0100
0001
,
0000
0001
0010
0000
0010
0000
0100
0000
,
1000
0000
0001
0001
,
0000
0000
0101
0000
,
0200
0000
0000
0000
,
0310
1000
0010
1000
0020
0000
0000
0000
,
1030
0000
0100
0010
,
0000
0000
0011
0000
,
0001
0000
0000
0100
0000
0000
0010
0000
,
0000
1000
0000
0000
0001
0010
0100
0000
,
1000
0000
0010
0010
,
0000
0000
0110
0000
,
0100
0000
0000
0001
0000
0000
0100
0010
,
0100
0010
0100
0010
0100
0010
0100
0000
,
0001
0000
0000
0100
0001
0000
1000
0000
0010
0000
1000
0000
1100
0000
0000
0000
,
0110
0000
0000
0010
0100
0000
1000
0000
0001
0000
0100
0000
0001
0010
0001
0010
,
0001
0000
0100
0100
,
0000
0000
1020
0000
,
0031
0000
0100
0010
0100
0010
0100
0000
,
0002
0000
1000
1003
,
1000
0000
0000
0010
1000
0000
0001
0000
0100
0000
0001
0000
0011
0000
0000
0000
,
0110
0000
0100
0100
0100
0000
0011
0000
,
1000
0000
0100
0100
,
0000
0000
2000
0000
,
3001
0000
1000
0000
0001
0000
1000
0000
0000
0000
0000
0000
,
0010
0000
0010
0010
,
0010
0000
0000
0010
0100
0000
0001
0000
0100
0000
0001
0000
0000
0000
0000
0000
,
1000
0000
0010
0000
0100
0001
0000
0010
0100
0000
0000
0000
1000
0000
1000
0000
,
0001
0000
0000
0100
0001
0000
1000
0000
0010
0000
0100
0000
0000
0000
0000
0000
,
0010
0000
0000
0100
0010
0000
1000
0000
0100
0000
0010
0000
0001
1000
0001
0000
,
0100
0000
0000
0001
0010
0000
0001
0000
1000
0000
0010
0000
0000
0000
0100
0000
,
0010
1000
0100
0000
0010
0001
0100
0001
,
1000
0010
0100
0010
1000
0001
0100
0010
,
0100
0000
0001
0000
0110
0000
0000
0000
0100
0001
0100
0001
0100
0000
0001
0000
,
0010
0000
1000
1000
,
0000
0000
0101
0000
,
0010
0000
0000
0100
0000
0000
0010
0000
,
0000
0001
0000
0000
1000
0001
1000
0000
,
0010
0000
0100
0100
,
0000
0000
1001
0000
,
0020
0000
0000
0000
,
0130
0000
0010
0000
0100
0000
0010
0000
0000
0010
0000
0000
,
1000
0000
0001
0001
,
0000
0000
0101
0000
,
0100
0000
0000
0010
0000
0000
1000
0000
,
0000
0001
0000
0000
1000
0010
1000
0010
,
1000
0000
0000
0000
0100
0010
0000
0010
,
0001
0000
0001
1000
0000
1000
0010
0000
,
0001
0000
0100
0001
1000
0000
0001
0000
,
0100
0000
0000
1000
0000
0000
0100
0000
,
0001
0000
0010
0010
,
0000
0000
0110
0000
,
0100
0000
0000
0001
0000
0000
1000
0000
,
0000
0010
0000
0000
1000
0001
1000
0001
,
0100
0000
0010
0010
,
0000
0000
1001
0000
,
0010
0100
0010
0100
,
0010
1000
0010
1000
0010
0000
0000
0000
,
0100
0000
0100
0100
,
0000
0000
0000
0001
0010
0000
0000
0000
,
0001
0000
0000
0001
0000
0000
1000
0000
,
0000
1000
0000
0000
0010
0100
0010
0100
,
0010
0000
0100
0100
,
0000
0000
0101
0000
,
0001
0000
0000
0100
0000
0000
0010
0000
,
1000
1000
0001
0001
,
2002
0000
0000
0000
,
0000
0000
0000
3003
;

//---------------dance-single - ----------------
#NOTES:
     dance-single:
     :
     Easy:
     7:
     0.453797,0.760656,0.258336,0.401856,0.000000,332.000000,305.000000,27.000000,42.000000,0.000000,0.000000,0.453797,0.760656,0.258336,0.401856,0.000000,332.000000,305.000000,27.000000,42.000000,0.000000,0.000000:
0001
0000
0100
0000
0001
1000
0000
0000
,
0000
0000
0000
0020
,
1030
0000
0100
0000
1000
0001
0000
0000
,
0001
0000
0100
0000
0001
1000
0001
1000
,
0020
0000
0000
0000
1030
0100
0010
0000
,
0011
0000
0000
0000
0001
0000
1000
0001
,
2000
0000
0010
0010
,
3010
0000
0100
0001
1000
0000
0010
0100
,
0002
0000
0003
0000
0100
0000
0001
0010
,
0200
0300
2200
3300
,
2002
0000
3003
0100
0001
0000
1010
0000
,
0020
0000
1030
0001
1000
0000
0010
0100
,
0010
0000
1000
0000
0010
0100
0000
0000
,
0100
0000
0001
0000
0100
0010
0000
0000
,
0010
0000
0100
0000
0010
1000
0000
0000
,
0100
0000
0010
0000
0100
0001
0100
0000
,
0001
0001
1000
1000
,
0010
0010
0100
0100
,
0010
0010
1000
1000
,
0001
0100
0010
1000
0001
0100
0010
0000
,
1000
0000
0100
0010
,
0000
0000
0110
0000
,
0001
0000
0000
0001
0000
0000
0001
0000
,
0000
0001
0000
0000
0002
0000
0000
0000
,
0103
0000
0010
1000
,
0000
0000
1001
0000
,
0220
0000
0000
0330
,
0200
0000
0000
0300
,
0001
0000
0100
0010
,
0000
0000
1001
0000
,
1000
0000
0000
1000
0000
0000
1000
0000
,
0000
1000
0000
0000
2000
0000
0000
0000
,
3010
0000
1100
0000
,
0001
0000
0010
0010
,
0002
0000
0000
0003
,
2001
0000
3010
0100
,
0001
0000
0010
0010
,
0000
0000
1100
0000
,
1000
0000
0000
1000
0000
0000
0010
0000
,
0000
0010
0000
0000
0200
0000
0000
0000
,
0301
0000
0100
0010
,
0000
0000
1001
0000
,
0020
0000
0000
0000
,
0031
1000
0200
0000
,
1300
0000
0001
0010
,
0000
0000
1100
0000
,
0010
0000
0000
0010
0000
0000
0010
0000
,
0000
0010
0000
0000
0020
0000
0000
0000
,
0130
0000
0001
1000
,
0000
0000
0110
0000
,
1000
0000
0000
0001
0000
0000
0100
0000
,
0001
0100
0010
1000
,
1020
0000
0130
0001
1000
0000
0010
0000
,
2200
0000
3300
0000
0201
0000
0310
0100
,
0002
0000
0010
0010
,
0000
0000
0103
0000
,
0020
0000
0030
0000
,
0200
0000
0310
0010
,
0200
0000
0000
0000
0310
1000
0001
0000
,
1200
0000
1300
0100
0020
0000
0000
0000
,
0230
0000
1000
1000
,
0000
0000
0301
0000
,
2000
0000
3000
0000
,
0010
0000
0100
0100
,
0100
0000
0001
1000
0010
0100
0000
0000
,
0010
0000
1000
0100
0001
0000
0100
0000
,
1000
0000
0010
0100
0001
1000
0000
0000
,
0001
0000
0100
0010
1000
0001
0200
0000
,
0301
0000
1000
0100
0010
0001
0000
0000
,
0010
1000
0001
0000
0100
0001
0010
0000
,
0100
1000
0010
0000
0100
0001
1000
0000
,
0010
0100
0001
1000
0010
1000
0001
0100
,
0001
0000
0100
0010
,
0000
0000
1010
0000
,
1000
0000
0000
1000
0000
0000
0100
0000
,
0000
0100
0000
0000
0010
0000
0001
0000
,
0010
0000
0001
1000
,
0000
0000
0110
0000
,
0200
0000
0000
0000
,
0320
0000
1030
1000
,
0001
0000
1000
0100
,
0000
0000
1010
0000
,
0010
0000
0000
0010
0000
0000
0100
0000
,
0000
0100
0000
0000
0001
0000
1000
0000
,
0001
0000
1100
0000
,
0010
0000
0101
0000
,
2000
0000
3000
0000
,
0020
0000
0030
0000
,
0100
0000
0001
1000
,
0000
0000
0011
0000
,
0001
0000
0000
0001
0000
0000
0100
0000
,
0000
0100
0000
0000
0020
0000
0000
0000
,
1030
0000
0100
0010
,
0000
0000
1100
0000
,
0002
0000
0000
0000
,
1003
0100
0010
0000
,
0100
0000
0001
0010
,
0000
0000
0101
0000
,
0100
0000
0000
0010
0000
0000
1000
0000
,
0000
0001
0000
0000
2000
0000
0000
0000
,
3001
0000
1000
0001
,
0000
0000
0110
0000
,
0001
0000
0000
0010
0000
0000
0100
0000
,
1000
0001
1000
0001
,
0020
0000
0000
0000
,
0000
0000
0000
0000
,
0030
0000
0000
0000
;

//---------------dance-single - ----------------
#NOTES:
     dance-single:
     :
     Challenge:
     10:
     0.937664,1.673444,0.574080,0.239200,0.435344,686.000000,626.000000,60.000000,25.000000,0.000000,0.000000,0.937664,1.673444,0.574080,0.239200,0.435344,686.000000,626.000000,60.000000,25.000000,0.000000,0.000000:
1100
0000
0000
0010
1000
0000
0010
0000
0001
0000
0100
0000
0010
0000
1000
0000
,
0001
0000
0100
0000
0010
0000
0001
0000
0010
0000
1000
0000
0001
0100
0010
1000
,
0001
0000
0000
0100
1000
0000
0100
0000
0001
0000
0010
0000
0100
1000
0010
0100
,
0001
0000
0000
0100
0010
0000
0001
0000
0010
0000
1000
0000
0001
0000
0100
0000
,
1000
0100
1000
0100
1000
0000
0000
0000
0101
0000
0000
0000
0100
0000
0010
0000
,
0011
0000
0000
0000
0010
1000
0010
0000
1000
0100
1000
0100
0010
0001
1000
0100
,
1000
0000
0010
0100
0000
0100
0010
0000
0100
0000
0001
0000
0101
0000
0100
0000
,
1100
0000
0000
0000
0100
0000
0001
0000
0012
0000
0000
0000
0103
1000
0100
1000
,
0100
0010
0000
0010
0100
1000
0010
1000
0001
0000
0000
0000
0010
0100
0010
0000
,
1001
0000
0000
0000
1000
0001
1000
0000
0110
0000
0000
0000
1000
0100
0010
0000
,
0012
0000
0000
0000
0000
0000
1000
0000
0013
1000
0001
0100
0001
0010
0100
1000
,
0020
0000
0000
0000
1000
0000
0100
0000
0031
0000
0000
0000
0100
1000
0010
0100
,
0001
0000
0000
0010
0100
0000
1000
0000
0010
0000
0100
0000
0001
0010
0001
0010
,
0001
0000
0000
1000
0100
0000
0010
0000
0100
0000
1000
0000
0010
0100
0010
0100
,
0010
0000
0000
1000
0001
0000
0100
0000
0010
0000
0100
0000
0001
0010
0001
0010
,
0001
0000
0000
1000
0010
0000
0100
0000
0010
0000
1000
0000
0010
0000
1000
0000
,
0010
1000
0010
1000
0010
1000
0010
1000
,
0001
0100
0001
0100
0001
0100
0001
0100
,
0010
0100
0010
0100
0010
0100
0010
0100
,
0110
0000
0000
1010
0000
0000
0010
1000
0001
0100
0001
0000
1000
0001
1000
0000
,
2002
3003
1100
0110
,
0000
0000
0010
0100
0010
0100
0000
0000
,
1000
0100
0000
0100
0010
0000
0010
0001
,
0000
0001
1000
0000
1000
0001
1000
0001
,
1000
0000
0110
0101
,
0100
0010
0000
0010
0100
0000
0000
0000
,
0001
0000
0010
0000
0001
0000
0010
0000
0001
0000
0000
0000
,
2001
0000
0010
3010
,
0100
0000
0011
1001
,
0000
0000
0000
0010
0100
0000
0000
0000
,
0010
1000
0000
1000
0001
0000
0001
0100
,
0000
0100
0010
0000
0010
0100
0010
0100
,
0001
0100
0001
0000
0101
0000
0000
0000
,
1000
0010
1000
0000
1010
0000
0010
0000
,
0100
0000
0010
0000
0100
0000
0010
0000
0100
0000
0000
0000
,
2001
0000
0000
0010
3000
0000
0100
0000
,
1000
0000
1100
0101
,
1000
0001
0000
0001
1000
0000
0000
0000
,
0001
0010
0000
0010
0100
0000
0100
0010
,
0000
0010
0001
0000
0001
1000
0001
1000
,
0001
0000
0011
1010
,
0000
0000
0000
0010
0100
0000
0000
0000
,
0100
0001
1000
0010
1000
0001
0010
0100
,
1000
0001
1000
0001
2000
0000
0000
0000
,
3001
0000
0110
1010
,
0001
1000
0000
1000
0001
0000
0000
0000
,
0001
0100
0000
0010
1000
0000
0010
0100
,
0000
0001
0010
0000
0100
1000
0100
1000
,
0001
0000
1010
0101
,
0000
0000
0000
0001
0010
0000
0000
0000
,
0200
0000
0300
2200
0000
3300
1000
0010
,
0100
0001
0010
0100
1000
0001
1000
0000
,
0001
1000
0001
1000
0001
0000
0000
0000
1010
0000
0000
0000
0011
0000
0010
0000
,
1100
0000
0000
0000
1000
0001
1000
0000
1001
0000
0000
0000
0001
0010
0100
1000
,
0002
0000
1000
0010
,
0000
0010
1003
0000
,
1000
0000
0010
0000
0100
0000
0001
0000
0010
0000
0100
0000
,
1000
0001
1000
0001
0100
0000
0100
0000
,
0010
0100
0010
0100
0010
0000
0000
0000
1001
0000
0000
0000
1000
0010
0100
0000
,
0101
0000
0000
0000
1000
0010
1000
0000
0101
0000
0000
0000
0000
0000
0000
0000
,
0120
0000
0001
1000
,
0000
1000
0130
0000
,
1000
0100
0010
0001
0100
0000
0010
0000
,
1001
0000
0001
0001
,
1000
0000
0000
1000
0010
0000
1000
0000
0001
0000
0100
0000
0010
0000
0100
0000
,
0001
0000
0010
0000
0100
0000
0010
0000
0001
0000
0100
0001
1000
0010
1000
0100
,
0010
0000
0000
0010
1000
0000
0001
0000
0100
0000
0010
0000
0100
0000
0001
0000
,
0010
0000
0000
0010
0100
0000
1000
0000
0010
0000
0100
0000
0010
1000
0001
0100
,
0001
0000
0000
0001
1000
0000
0010
0000
0100
0000
0010
0000
1000
0000
0001
0000
,
1000
0100
0010
0100
1000
0001
0010
0100
,
1000
0010
0100
0001
0100
1000
0100
0001
0010
0100
0010
0001
1000
0010
1000
0001
,
0100
0001
0010
0100
1000
0010
1000
0010
0001
0010
1000
0001
0100
0010
0100
0001
,
1000
0000
0110
1100
,
0010
0100
0000
0100
0010
0000
0000
0000
,
0001
0100
0000
0100
0010
0000
0010
1000
,
0000
1000
0001
0000
0001
0100
0001
0100
,
0001
0000
0101
0110
,
0001
1000
0000
1000
0001
0000
0000
0000
,
1000
0000
0000
0000
0100
0000
0000
0000
0010
0000
0000
0000
0001
0000
0000
0000
0000
0000
1000
0000
0000
0001
0000
0000
,
0100
0010
0100
0001
1000
0000
1000
0000
,
0001
0000
1010
0101
,
0001
1000
0000
1000
0001
0000
0000
0000
,
1000
0010
0000
0010
0100
0000
0100
0010
,
0000
0010
1000
0000
1000
0100
0010
0001
,
0200
0300
0022
0033
,
2020
0000
3030
0000
1000
0001
0010
0000
,
0100
1000
0010
0100
0001
0010
0001
0000
,
1010
0000
0001
0010
0000
0001
1000
0000
,
0010
0000
0101
1100
,
1000
0010
0000
0010
1000
0000
0000
0000
,
0001
0010
0001
0010
0001
0010
0001
0010
,
0100
1000
0100
1000
0100
1000
0001
1000
,
0001
0000
1001
0220
,
0000
0000
0330
0001
0100
0000
0000
0000
,
0001
0010
0001
1000
0010
1000
0100
0010
,
0001
0100
0001
0100
0001
0010
0001
0010
,
0001
0000
1100
0110
,
0000
0000
0000
0001
1000
0000
0000
0000
,
0010
0100
0001
0010
0100
0010
0001
1000
,
0010
0100
0010
1000
0001
0100
0001
1000
,
0010
0000
1100
0022
,
0000
0033
0220
0330
,
1100
0000
0000
0101
0000
0000
0100
0010
,
1000
0010
0100
0001
0010
0100
1000
0001
,
2000
0000
0000
0000
,
0000
0000
0000
0000
,
3000
0000
0000
0000
;

//---------------dance-single - ----------------
#NOTES:
     dance-single:
     :
     Beginner:
     3:
     0.174958,0.405683,0.086112,0.057408,0.000000,128.000000,119.000000,9.000000,6.000000,0.000000,0.000000,0.174958,0.405683,0.086112,0.057408,0.000000,128.000000,119.000000,9.000000,6.000000,0.000000,0.000000:
1000
0000
0010
0000
,
0000
0000
0000
0000
,
0010
0000
0001
0000
,
0100
0000
0010
0000
,
0001
0000
0010
0000
,
0100
0000
1000
0000
,
0001
0000
1000
1000
,
1000
0000
0000
0000
,
0100
0000
0010
0000
,
1000
0000
0001
0000
,
1000
0000
0001
0001
,
0001
0000
0010
0000
,
0100
0000
0000
0000
,
0001
0000
0000
0000
,
1000
0000
0000
0000
,
0010
0000
0100
0000
,
1000
0000
0001
0000
,
1000
0000
0100
0000
,
0001
0000
0100
0000
,
1001
0000
0000
0000
,
0010
0000
0000
0000
,
0000
0000
0000
0000
,
1000
0000
0000
0000
,
0000
0000
0001
0000
,
0001
0000
0000
0000
,
0000
0000
0000
0000
,
0200
0000
0000
0000
,
0300
0000
0000
0000
,
0010
0000
0000
0000
,
0000
0000
0100
0000
,
0100
0000
0000
0000
,
0000
0000
0000
0000
,
0001
0000
0000
0000
,
0000
0000
0000
0000
,
1000
0000
0000
0000
,
0010
0000
0000
0000
,
1000
0000
0000
0000
,
0000
0000
0000
0000
,
0100
0000
0000
0000
,
0000
0000
0010
0000
,
0010
0000
0000
0000
,
0000
0000
0000
0000
,
0001
0000
0000
0000
,
0100
0000
0000
0000
,
0010
0000
0000
0000
,
0000
0000
0100
0000
,
0100
0000
0000
0000
,
0000
0000
0001
0000
,
0001
0000
0000
0000
,
0000
0000
0000
0000
,
1000
0000
0000
0000
,
0000
0000
0000
0000
,
0001
0000
0100
0000
,
0010
0000
1000
0000
,
0001
0000
0000
0000
,
0000
0000
0000
0000
,
2000
0000
3000
0000
,
0010
0000
0000
0000
,
0010
0000
0100
0000
,
0001
0000
1000
0000
,
0010
0000
0000
0000
,
0100
0000
0000
0000
,
1000
0000
0000
0000
,
0001
0000
0000
0000
,
1000
0000
1001
0000
,
0010
0000
0000
0000
,
0010
0000
0110
0000
,
1000
0000
1001
0000
,
0001
0000
1001
0000
,
0010
0000
1000
0000
,
0100
0000
0110
0000
,
0010
0000
0001
0000
,
1000
0000
0000
0000
,
0000
0000
0001
0000
,
0001
0000
0000
0000
,
0000
0000
0100
0000
,
0100
0000
0000
0000
,
0000
0000
0000
0000
,
0010
0000
0000
0000
,
1000
0000
1000
0000
,
1000
0000
0000
0000
,
0000
0000
0010
0000
,
0001
0000
0000
0000
,
0000
0000
0100
0000
,
0100
0000
0000
0000
,
0001
0000
0000
0000
,
1000
0000
0000
0000
,
0010
0000
0000
0000
,
1000
0000
0000
0000
,
0000
0000
0010
0000
,
0010
0000
0000
0000
,
0000
0000
1000
0000
,
1000
0000
0000
0000
,
0000
0000
0000
0000
,
0220
0000
0330
0000
,
0100
0000
0000
0000
,
0010
0000
0000
0000
,
0000
0000
1001
0000
,
0010
0000
0000
0000
,
0000
0000
0001
0000
,
0001
0000
0000
0000
,
0000
0000
0000
0000
,
1000
0000
0000
0000
,
0010
0000
0000
0000
,
2002
0000
0000
0000
,
0000
0000
0000
0000
,
3003
0000
0000
0000
;

//---------------dance-single - ----------------
#NOTES:
     dance-single:
     :
     Hard:
     10:
     0.848819,1.622733,0.468832,0.095680,0.444912,621.000000,572.000000,49.000000,10.000000,0.000000,0.000000,0.848819,1.622733,0.468832,0.095680,0.444912,621.000000,572.000000,49.000000,10.000000,0.000000,0.000000:
// measure 0
0010
0000
0000
0010
0100
0000
0001
0000
0010
0000
0001
0000
1000
0000
0100
0000
,  // measure 1
0010
0000
0001
0000
1000
0000
0010
0000
0100
0000
0010
0000
1000
0001
0100
0010
,  // measure 2
0100
0000
0000
0001
0010
0000
0001
0000
1000
0000
0100
0000
0010
0001
1000
0010
,  // measure 3
0100
0000
0000
0010
1000
0000
0001
0000
0100
0000
0001
0000
0010
0000
0100
0000
,  // measure 4
1100
0000
0000
0000
1000
0001
1000
0001
1000
0000
0000
0000
0110
0000
0000
0000
,  // measure 5
0101
0000
0000
0000
0010
0000
0100
0000
1001
0000
0000
0000
0100
0001
0010
0001
,  // measure 6
0200
0000
0000
0000
0310
1000
0100
0001
,  // measure 7
0100
0000
0000
0000
1000
0000
0001
0000
1100
0000
0000
0000
0001
0010
0100
1000
,  // measure 8
0100
0000
0000
0000
0010
0001
0010
0001
0010
0000
0000
0000
0001
0000
0010
0000
,  // measure 9
1100
0000
0100
0001
1010
0000
0100
0010
,  // measure 10
2001
0000
0000
0010
0010
0000
3001
0000
,  // measure 11
0201
0000
0000
0000
1300
0000
0100
0000
0001
0000
0000
0000
1000
0100
1000
0100
,  // measure 12
0010
0000
0000
0100
1000
0000
0010
0000
0100
0000
0010
0000
1000
0100
0010
0001
,  // measure 13
1000
0000
0000
0010
1000
0000
0010
0000
0001
0000
0100
0000
0001
0010
0100
1000
,  // measure 14
0100
0000
0000
1000
0001
0000
1000
0000
0100
0000
0010
0000
1000
0100
0010
0001
,  // measure 15
0010
0000
0000
0100
0010
0000
0100
0000
0001
0000
0010
0000
0001
0000
0010
0000
,  // measure 16
0100
1000
0100
1000
0100
0010
0100
0010
,  // measure 17
0100
0001
0100
0001
0100
1000
0100
1000
,  // measure 18
0010
0100
0010
0100
0001
0010
0001
0010
,  // measure 19
0011
0000
0000
0110
0000
0000
1100
0000
1000
0001
0100
0010
0100
0000
0001
0000
,  // measure 20
1001
0000
0010
0010
,  // measure 21
0000
0000
0000
1000
0100
0000
0000
0000
,  // measure 22
0010
0000
0010
0001
0000
0001
1000
0000
,  // measure 23
1000
0010
0000
0010
0100
0001
1000
0010
,  // measure 24
1000
0000
0001
0001
,  // measure 25
0000
1000
1010
0000
,  // measure 26
0010
0000
0100
0000
0001
0000
1000
0000
0010
0000
0100
0000
,  // measure 27
0001
0010
0100
1000
0001
0000
1000
0000
,  // measure 28
1100
0000
0010
0010
,  // measure 29
0000
0000
0101
0000
,  // measure 30
0001
0000
0001
0100
0000
0100
1000
0000
,  // measure 31
1000
0100
0000
0100
0001
1000
0001
1000
,  // measure 32
0020
0030
1200
0300
,  // measure 33
0021
0000
1000
1030
,  // measure 34
0010
0000
0001
0000
0100
0000
0010
0000
1000
0000
0001
0000
,  // measure 35
1000
0000
0000
0110
0000
0000
0001
0000
,  // measure 36
0100
0000
0010
0011
,  // measure 37
0000
0000
0000
0100
1000
0000
0000
0000
,  // measure 38
0010
0000
0010
0100
0000
0100
0010
0000
,  // measure 39
0010
1000
0000
1000
0100
0001
0100
0001
,  // measure 40
0100
0000
1000
1100
,  // measure 41
0000
0000
0000
0010
0100
0000
0000
0000
,  // measure 42
0001
0000
0100
0000
0010
0000
1000
0000
0100
0000
0010
0000
,  // measure 43
0001
1000
0001
1000
0020
0000
0000
0000
,  // measure 44
0130
0000
1001
1001
,  // measure 45
0000
0000
0000
0010
0100
0000
0000
0000
,  // measure 46
0100
0000
0100
0001
0000
0001
1000
0000
,  // measure 47
1000
0010
0000
0010
0100
0001
1000
0010
,  // measure 48
1000
0000
0101
1001
,  // measure 49
0000
0000
1100
0000
,  // measure 50
0010
0000
0000
0100
0000
0000
0001
0000
,  // measure 51
1000
0100
0010
0100
1000
0001
0010
0100
,  // measure 52
1000
0000
0000
0010
0100
0001
0010
0001
1000
0000
0000
0000
0010
0100
0001
0000
,  // measure 53
0011
0000
0000
0000
0100
1000
0010
0000
1010
0000
0000
0000
0010
0100
0001
0010
,  // measure 54
0002
0000
1000
0100
,  // measure 55
0000
0100
0013
0000
,  // measure 56
0001
0000
1000
0000
0001
0000
1000
0000
0001
0000
1000
0000
,  // measure 57
0010
0100
0001
0010
0001
1000
0010
0000
,  // measure 58
1010
0000
0000
1000
0001
0010
0001
0100
0010
0000
0000
0000
0100
0010
1000
0000
,  // measure 59
1010
0000
0000
0000
0010
0100
0001
0000
0101
0000
0000
0000
0000
0000
0000
0000
,  // measure 60
2000
0000
0001
0010
,  // measure 61
0000
0010
3100
0000
,  // measure 62
1000
0000
0100
0000
1000
0000
0100
0000
1000
0000
0000
0000
,  // measure 63
1001
0000
0010
0010
,  // measure 64
0110
0000
0000
0100
0001
0000
1000
0000
0010
0000
1000
0000
0100
0000
0010
0000
,  // measure 65
0001
1000
0010
1000
0001
0010
0100
0100
,  // measure 66
0011
0000
0000
0001
1000
0000
0010
0000
1000
0000
0100
0000
0001
0000
0100
0000
,  // measure 67
1100
0000
0000
0010
0100
0000
1000
0000
0100
0000
0001
0000
0010
0100
1000
0001
,  // measure 68
0010
0000
0000
0001
0100
0000
0010
0000
0100
0000
0001
0000
0010
0000
0100
0000
,  // measure 69
1000
0010
1000
0100
0010
0001
0100
0001
,  // measure 70
1000
0010
0100
0001
0010
0001
1000
0010
1000
0100
0010
0100
1000
0010
0100
0001
,  // measure 71
0010
0100
0010
0001
0010
0100
0010
0001
0100
0010
1000
0001
1000
0000
0010
0000
,  // measure 72
0110
0000
1000
1100
,  // measure 73
0000
0000
0000
0010
0001
0000
0000
0000
,  // measure 74
0100
0000
0100
0001
0000
0001
0010
0000
,  // measure 75
0010
0001
0000
0001
1000
0100
1000
0100
,  // measure 76
1000
0000
0001
0001
,  // measure 77
0000
0000
1010
0000
,  // measure 78
0100
0000
0001
0000
1000
0000
0010
0000
1000
0000
0001
0000
,  // measure 79
0100
0001
0010
0100
1000
0000
1000
0000
,  // measure 80
1001
0000
0010
0010
,  // measure 81
0000
0000
0101
0000
,  // measure 82
0100
0000
0100
0010
0000
0010
1000
0000
,  // measure 83
1000
0001
0000
0001
0100
0010
1000
0001
,  // measure 84
1000
0000
0100
0010
0001
0010
0100
0000
,  // measure 85
1000
0010
0100
0010
1000
0000
0001
0000
,  // measure 86
0100
0000
0001
0000
0010
0000
0001
0000
1000
0000
0010
0000
,  // measure 87
0100
0000
0001
1000
0000
0001
1000
0000
,  // measure 88
1010
0000
1000
1000
,  // measure 89
0000
0000
0011
0000
,  // measure 90
0100
0000
0100
0010
0000
0010
0001
0000
,  // measure 91
0001
1000
0000
1000
0010
0100
0001
0010
,  // measure 92
0001
0000
1100
0101
,  // measure 93
0000
0000
0010
0000
,  // measure 94
0100
0000
0010
0000
1000
0000
0001
0000
1000
0000
0010
0000
,  // measure 95
0100
0001
0010
0001
1000
0000
0000
0000
,  // measure 96
1010
0000
0101
1100
,  // measure 97
0000
0000
0000
0010
0100
0000
0000
0000
,  // measure 98
0100
0000
0010
1000
0000
0001
0100
0000
,  // measure 99
0001
0010
0000
0001
1000
0010
0100
0001
,  // measure 100
0010
0000
1001
1001
,  // measure 101
0000
0000
0000
0100
0001
0000
0000
0000
,  // measure 102
0100
0000
0000
0010
0000
0000
1000
0000
,  // measure 103
0001
0010
0100
1000
0010
1000
0100
0010
,  // measure 104
0002
0000
0000
0000
,  // measure 105
0000
0000
0000
0000
,  // measure 106
0003
0000
0000
0000
;
