#TITLE:Dance Apocalyptic;
#SUBTITLE:;
#ARTIST:Janelle MonĂ¡e;
#TITLETRANSLIT:;
#SUBTITLETRANSLIT:;
#ARTISTTRANSLIT:;
#GENRE:R&B;
#CREDIT:;
#BANNER:danceapocalyptic-bn.png;
#BACKGROUND:danceapocalyptic-bg.png;
#LYRICSPATH:;
#CDTITLE:;
#MUSIC:Dance Apocalyptic.ogg;
#OFFSET:-1.310000;
#SAMPLESTART:33.899998;
#SAMPLELENGTH:12.000000;
#SELECTABLE:YES;
#BPMS:0.000000=205.979996
;
#STOPS:
;
#BGCHANGES:;
#KEYSOUNDS:;
#ATTACKS:;

//---------------dance-single - ----------------
#NOTES:
     dance-single:
     :
     Hard:
     8:
     0.516032,0.707561,0.373330,0.484320,0.403600,358.000000,321.000000,37.000000,48.000000,0.000000,0.000000,0.516032,0.707561,0.373330,0.484320,0.403600,358.000000,321.000000,37.000000,48.000000,0.000000,0.000000:
// measure 0
0000
0000
0000
0000
,  // measure 1
0000
0000
0000
0000
,  // measure 2
0000
0000
0000
0000
,  // measure 3
0000
0000
0000
0000
0000
0000
0000
0000
0000
1000
0000
0100
,  // measure 4
2000
0010
0100
0010
,  // measure 5
0001
0001
3001
1100
,  // measure 6
0002
0000
0010
0000
0000
0100
0000
0000
0000
0000
0000
0000
,  // measure 7
1000
1000
1003
0101
,  // measure 8
0010
0000
0100
0010
0000
0100
0010
0000
0000
1000
0000
0000
,  // measure 9
0001
0000
1000
0001
0000
1000
0001
0000
0000
0100
0000
0000
,  // measure 10
0020
2030
3002
0203
,  // measure 11
0310
0000
0000
1001
0000
0000
0000
0000
0000
0100
0000
0010
,  // measure 12
0200
0001
0010
0001
,  // measure 13
1000
1000
1300
1001
,  // measure 14
0020
0000
0100
0000
0000
0001
0000
0000
0000
0000
0000
0000
,  // measure 15
1000
1000
1030
1010
,  // measure 16
1000
0000
0100
1000
0000
0100
1000
0000
0000
0001
0000
0000
,  // measure 17
0010
0000
0001
0010
0000
0001
0010
0000
0000
0001
0000
0000
,  // measure 18
2000
3200
0320
0032
,  // measure 19
1003
0000
0000
0000
0000
0000
0020
0000
0000
0130
0000
0010
,  // measure 20
0100
0000
0010
0100
0000
0010
0100
0000
0001
1000
0000
0010
,  // measure 21
0100
0001
0101
1000
,  // measure 22
0002
1003
2000
3001
,  // measure 23
0200
0302
2003
3020
,  // measure 24
0130
0000
0001
0100
0000
0010
0100
0000
0001
0100
0000
0000
,  // measure 25
0010
1010
0010
0100
,  // measure 26
0020
0000
0000
0000
0000
1000
0000
0000
1030
0000
0000
0000
,  // measure 27
0001
1000
0010
0110
,  // measure 28
2000
3001
0002
1003
,  // measure 29
0100
0000
0000
0010
0000
0000
0011
0000
0000
0010
0000
0001
,  // measure 30
1000
0000
0000
0100
0000
1000
0001
0000
0000
0010
0000
0001
,  // measure 31
1000
0100
0100
0100
,  // measure 32
1100
0000
0000
0001
0000
0100
0000
0000
0000
0000
0000
0000
,  // measure 33
0101
0000
0000
1000
0000
0100
0000
0000
0000
0000
0000
0000
,  // measure 34
0110
0000
0000
1000
0000
0010
0000
0000
0000
0000
0000
0010
,  // measure 35
1000
0000
0001
0100
0000
0010
1000
0000
0000
0001
0000
0000
,  // measure 36
0020
0031
0002
0013
,  // measure 37
0001
0000
0000
0100
0000
0000
0101
0000
0000
0010
0000
1000
,  // measure 38
0001
0000
0100
0010
0000
1000
0001
0000
0100
0010
0000
0000
,  // measure 39
1000
0001
0001
0001
,  // measure 40
1010
0000
0000
0001
0000
0010
0000
0000
0000
0000
0000
0000
,  // measure 41
0011
0000
0000
1000
0000
0010
0000
0000
0000
0000
0000
0000
,  // measure 42
0110
0000
0000
0001
0000
0100
0000
0000
0000
0000
0000
0010
,  // measure 43
0100
0000
0001
1000
0000
0010
0100
0000
0000
0001
0000
0000
,  // measure 44
1010
0000
0000
0001
0000
0010
0000
0000
0000
0000
0000
0000
,  // measure 45
0011
0000
0000
1000
0000
0010
0000
0000
0000
0000
0000
0000
,  // measure 46
1001
0000
0000
0010
0000
1001
0000
0000
0000
0000
0000
1000
,  // measure 47
0100
0000
0010
0001
0000
1000
0100
0000
0000
0010
0000
0000
,  // measure 48
0002
1000
0000
1003
,  // measure 49
0020
0100
0000
0130
,  // measure 50
0200
0001
0000
0301
,  // measure 51
2000
0010
0000
3010
,  // measure 52
2000
0100
0000
3100
,  // measure 53
0020
0001
0000
0031
,  // measure 54
0200
0000
0000
0000
0000
0010
0000
0000
0310
0000
0000
0000
,  // measure 55
1000
0001
1000
0001
1000
0001
1000
0001
1000
0001
0000
0000
,  // measure 56
1000
0000
0010
1000
0000
0010
1000
0000
0000
0000
0000
0100
,  // measure 57
0010
0000
0100
0010
0000
0000
1100
0000
0000
0010
0000
0000
,  // measure 58
0100
0000
0001
0100
0000
0001
0100
0000
0000
0000
0000
0010
,  // measure 59
0100
0000
0010
0100
0000
0000
0011
0000
0000
0100
0000
0000
,  // measure 60
0010
0000
0100
0010
0000
0100
0010
0000
0000
1000
0000
0000
,  // measure 61
1100
0001
0101
1000
,  // measure 62
1010
0110
0101
1001
,  // measure 63
0020
0100
0100
0130
,  // measure 64
0002
0023
0230
2300
,  // measure 65
3001
0001
1100
0010
,  // measure 66
2000
3200
0320
0032
,  // measure 67
0013
0010
0101
1000
,  // measure 68
0011
0000
0000
1000
0000
0010
0000
0000
0000
0000
0000
0000
,  // measure 69
1010
0000
0000
0001
0000
0010
0000
0000
0000
0000
0000
0000
,  // measure 70
0110
0000
0000
0001
0000
0100
0000
0000
0000
0000
0000
1000
,  // measure 71
0010
0000
0100
0001
0000
1000
0010
0000
0000
0000
0000
0000
,  // measure 72
0101
0000
0000
1000
0000
0100
0000
0000
0000
0000
0000
0000
,  // measure 73
1100
0000
0000
0001
0000
0100
0000
0000
0000
0000
0000
0000
,  // measure 74
0110
0000
0000
1000
0000
0110
0000
0000
0000
0000
0000
0010
,  // measure 75
0100
0000
0001
1000
0000
0010
0200
0000
0000
0000
0000
0000
,  // measure 76
0302
0000
0000
0000
,  // measure 77
0000
0000
0023
0000
,  // measure 78
0230
0000
2300
0000
,  // measure 79
3020
0000
0000
0230
,  // measure 80
0000
0000
0020
0000
0000
0000
0000
0000
0000
0000
0000
0000
,  // measure 81
0000
0000
0000
0000
,  // measure 82
0000
0000
0330
0000
;

//---------------dance-single - ----------------
#NOTES:
     dance-single:
     :
     Medium:
     6:
     0.367564,0.582698,0.443960,0.131170,0.146305,255.000000,211.000000,44.000000,13.000000,0.000000,0.000000,0.367564,0.582698,0.443960,0.131170,0.146305,255.000000,211.000000,44.000000,13.000000,0.000000,0.000000:
0000
0000
0000
0000
,
0000
0000
0000
0000
,
0000
0000
0000
0000
,
0000
0000
0000
0010
,
0010
1000
0001
0001
,
1000
0100
0010
0010
,
0100
0000
1000
0000
0000
1000
0000
0000
0000
0000
0000
0000
,
0001
0010
0100
0100
,
0010
0000
0001
0000
0000
0001
0000
0000
0000
0000
0000
0000
,
0100
1000
0001
0001
,
0100
1000
0001
0001
,
1000
1001
0000
0000
,
0010
0100
1000
1000
,
0100
0010
0001
0001
,
0100
0000
0010
0000
0000
0010
0000
0000
0000
0000
0000
0000
,
1000
0010
0100
0100
,
0001
0000
1000
0000
0000
1000
0000
0000
0000
0000
0000
0000
,
0100
0010
0001
0001
,
0100
0010
0001
0001
,
1000
0000
0020
0000
,
0130
0101
0100
0101
,
0100
0110
0100
0110
,
0010
1000
0010
1000
,
0020
0000
0000
0000
,
0130
0000
0000
0000
,
0001
1000
0001
1000
,
0010
0000
0000
0000
,
0100
0100
0100
1001
,
0010
1010
0010
1010
,
0010
0110
0010
0110
,
0100
0001
1000
0010
,
0100
0000
0000
0000
,
1001
0000
0000
0000
0000
1001
0000
0000
0000
0000
0000
0000
,
0110
0000
0000
0000
0110
0000
0000
0000
0000
0000
0000
0000
,
1001
0000
0000
0000
1001
0000
0000
0000
0000
0000
0000
0000
,
1000
1000
1000
0000
,
0001
0011
0001
0011
,
0001
0101
0001
0101
,
0001
0100
0010
1000
,
0001
0000
0000
0000
,
1100
0000
0000
0000
0000
1100
0000
0000
0000
0000
0000
0000
,
0011
0000
0000
0000
0011
0000
0000
0000
0000
0000
0000
0000
,
1100
0000
0000
0000
1100
0000
0000
0000
0000
0000
0000
0000
,
0001
1000
0001
1000
,
1010
0000
0000
0000
1010
0000
0000
0000
0000
0000
0000
0000
,
0101
0000
0000
0000
0101
0000
0000
0000
0000
0000
0000
0000
,
1010
0000
0000
0000
1010
0000
0000
0000
0000
0000
0000
0000
,
0010
0100
0010
0100
,
0010
0000
0000
0000
,
0000
0000
0000
1000
,
0100
0000
0000
0000
,
0000
0000
0000
0010
,
0001
0000
0000
0000
,
0000
0000
0000
0100
,
0010
1000
0010
0100
,
0002
0000
0000
0000
,
1003
0000
0100
0000
0000
0100
0000
0000
0000
0000
0000
0000
,
0010
0001
0010
0001
,
0010
0000
0001
0000
0000
0001
0000
0000
0000
0000
0000
0000
,
0001
0100
0001
0100
,
0001
0000
0100
0000
0000
0100
0000
0000
0000
0000
0000
0000
,
0010
1000
0010
1000
,
0100
0010
0100
0010
,
0001
0000
0000
1000
,
0020
1030
0020
0130
,
0020
0031
0020
0130
,
0010
1000
0001
0100
,
0010
0000
0000
0000
,
0110
0000
0000
0000
0110
0000
0000
0000
0000
0000
0000
0000
,
1001
0000
0000
0000
1001
0000
0000
0000
0000
0000
0000
0000
,
0110
0000
0000
0000
0110
0000
0000
0000
0000
0000
0000
0000
,
0010
1000
0001
0000
,
0101
0000
0000
0000
0101
0000
0000
0000
0000
0000
0000
0000
,
1010
0000
0000
0000
1010
0000
0000
0000
0000
0000
0000
0000
,
0101
0000
0000
0000
0101
0000
0000
0000
0000
0000
0000
0000
,
0010
1000
0001
0000
,
0200
0000
0000
0000
,
0000
0000
0302
0000
,
2003
0000
3020
0000
,
0230
0000
0000
0001
,
0002
0000
0000
0000
,
0000
0000
0000
0000
,
0000
0000
0303
0000
;

//---------------dance-single - ----------------
#NOTES:
     dance-single:
     :
     Easy:
     3:
     0.253691,0.374591,0.000000,0.282520,0.075675,176.000000,176.000000,0.000000,28.000000,0.000000,0.000000,0.253691,0.374591,0.000000,0.282520,0.075675,176.000000,176.000000,0.000000,28.000000,0.000000,0.000000:
0000
0000
0000
0000
,
0000
0000
0000
0000
,
0000
0000
0000
0000
,
0000
0000
0000
1000
,
1000
0010
0100
0000
,
1000
1000
1000
0000
,
0001
0010
0100
0000
,
0001
0001
0001
0000
,
0100
0001
1000
0000
,
0100
0100
0100
0010
,
0100
1000
0010
0000
,
0000
0100
0000
0000
,
0010
0100
0001
0000
,
0010
0010
0010
0000
,
0100
1000
0010
0000
,
0100
0100
0100
0000
,
1000
0010
0001
0000
,
0001
0001
0001
0100
,
0010
1000
0001
0100
,
0010
0000
0000
0000
,
2000
0000
3200
0000
,
0320
0000
0000
0001
,
0031
1000
0001
1000
,
0001
0000
0010
0010
,
0010
0000
0000
0000
,
0000
0000
0100
0100
,
0100
0000
0000
0000
,
2000
0010
0010
3010
,
0200
0000
0320
0000
,
2030
0000
0000
0001
,
3001
1000
0001
1000
,
0001
0000
0000
0000
,
0100
0000
0000
0000
0100
0000
0000
0000
0000
0000
0000
0000
,
0010
0000
0000
0000
0010
0000
0000
0000
0000
0000
0000
0000
,
0100
0000
0000
0000
0100
0000
0000
0000
0000
0000
0000
0000
,
0010
0010
0010
0000
,
0002
0000
0203
0000
,
0320
0000
0000
1000
,
1030
0001
1000
0001
,
1000
0000
0000
0000
,
0001
0000
0000
0000
0001
0000
0000
0000
0000
0000
0000
0000
,
0100
0000
0000
0000
0100
0000
0000
0000
0000
0000
0000
0000
,
0001
0000
0000
0000
0001
0000
0000
0000
0000
0000
0000
0000
,
0100
0100
0100
0000
,
0010
0000
0000
0000
0010
0000
0000
0000
0000
0000
0000
0000
,
1000
0000
0000
0000
1000
0000
0000
0000
0000
0000
0000
0000
,
0010
0000
0000
0000
0010
0000
0000
0000
0000
0000
0000
0000
,
1000
1000
1000
0000
,
0200
0000
0000
0000
,
0020
0000
0330
0000
,
0002
0000
0000
0000
,
2000
0000
3003
0000
,
0020
0000
0000
0000
,
0002
0000
0033
0000
,
0002
0000
0000
0000
,
2000
0000
0000
3003
,
0010
0100
1000
0000
,
0010
0010
0010
0000
,
0100
0010
0001
0000
,
0100
0100
0100
0000
,
0001
0100
1000
0000
,
1000
1000
1000
0000
,
1000
0100
0001
0100
,
1000
0000
0000
0000
,
0002
0000
2003
0000
,
3020
0000
0000
0130
,
0100
0010
0100
0010
,
0100
0000
0000
0000
,
0001
0000
0000
0000
0000
0001
0000
0000
0000
0000
0000
0000
,
1000
0000
0000
0000
1000
0000
0000
0000
0000
0000
0000
0000
,
0001
0000
0000
0000
0001
0000
0000
0000
0000
0000
0000
0000
,
1000
1000
1000
0000
,
0010
0000
0000
0000
0010
0000
0000
0000
0000
0000
0000
0000
,
0100
0000
0000
0000
0100
0000
0000
0000
0000
0000
0000
0000
,
0010
0000
0000
0000
0010
0000
0000
0000
0000
0000
0000
0000
,
0100
0100
0200
0000
,
2300
0000
0000
0000
,
0000
0000
3020
0000
,
0230
0000
0302
0000
,
0023
0000
0000
0000
,
0200
0000
0000
0000
,
0000
0000
0000
0000
,
0000
0000
0330
0000
;

//---------------dance-single - ----------------
#NOTES:
     dance-single:
     :
     Beginner:
     1:
     0.112431,0.208106,0.060540,0.080720,0.000000,78.000000,72.000000,6.000000,8.000000,0.000000,0.000000,0.112431,0.208106,0.060540,0.080720,0.000000,78.000000,72.000000,6.000000,8.000000,0.000000,0.000000:
0000
0000
0000
0000
,
0000
0000
0000
0000
,
0000
0000
0000
0000
,
0000
0000
0000
1000
,
1000
0000
0000
0000
,
1000
0000
0000
0000
,
0100
0000
0000
0000
,
0100
0000
0000
0000
,
0001
0000
0000
0000
,
0001
0000
0000
0000
,
0010
0000
0010
0000
,
0000
1001
0000
0000
,
0001
0000
0000
0000
,
0001
0000
0000
0000
,
0010
0000
0000
0000
,
0010
0000
0000
0000
,
1000
0000
0000
0000
,
1000
0000
0000
0000
,
0001
0000
0001
0000
,
0000
0000
0000
0000
,
0200
0000
0000
0300
,
0000
0000
0000
0000
,
0100
0100
0100
0100
,
0000
0000
0000
0000
,
0000
0000
0000
0000
,
0000
1000
0000
0000
,
1000
0000
0000
0000
,
0000
0000
0000
0000
,
0020
0000
0000
0030
,
0000
0000
0000
0000
,
0100
0100
0100
0100
,
0000
0000
0000
0000
,
1000
0000
0000
0000
,
1000
0000
0000
0000
,
1000
0000
0000
0000
,
1001
0000
0000
0000
,
0200
0000
0000
0300
,
0000
0000
0000
0000
,
0001
0001
0001
0001
,
0000
0000
0000
0000
,
0010
0000
0000
0000
,
0010
0000
0000
0000
,
0010
0000
0000
0000
,
0110
0000
0000
0000
,
0001
0000
0000
0000
,
0001
0000
0000
0000
,
0001
0000
0000
0000
,
1001
0000
0000
0000
,
0100
0000
0000
0000
,
0000
0000
0000
0000
,
0010
0000
0000
0000
,
0000
0000
0000
0000
,
1000
0000
0000
0000
,
0001
0000
0000
0000
,
0000
0000
0000
0000
,
0000
0000
0000
0000
,
0100
0000
0000
0000
,
0000
0000
0000
0000
,
0010
0000
0000
0000
,
0000
0000
0000
0000
,
0001
0000
0000
0000
,
0000
0000
0000
0000
,
1000
0000
0000
0000
,
0000
0000
0000
0000
,
0002
0000
0000
0003
,
0000
0000
0000
0000
,
0010
0010
0010
0010
,
0000
0000
0000
0000
,
0100
0000
0000
0000
,
0100
0000
0000
0000
,
0100
0000
0000
0000
,
0110
0000
0000
0000
,
1000
0000
0000
0000
,
1000
0000
0000
0000
,
1000
0000
0000
0000
,
1001
0000
0000
0000
,
0020
0000
0030
0000
,
0000
0000
0000
0000
,
0200
0000
0300
0000
,
2000
0000
3000
0000
,
0002
0000
0000
0000
,
0000
0000
0000
0000
,
0000
0000
0003
0000
;
