#TITLE:Csikos Post;
#SUBTITLE:;
#ARTIST:BanYa;
#TITLETRANSLIT:;
#SUBTITLETRANSLIT:;
#ARTISTTRANSLIT:;
#GENRE:Hardcore;
#CREDIT:;
#BANNER:ciskospost-bn.png;
#BACKGROUND:csikospost-bg.jpg;
#LYRICSPATH:;
#CDTITLE:;
#MUSIC:Csikos Post.ogg;
#OFFSET:-0.332000;
#SAMPLESTART:42.980003;
#SAMPLELENGTH:12.000000;
#SELECTABLE:YES;
#BPMS:0.000000=180.000000
;
#STOPS:
;
#BGCHANGES:;
#KEYSOUNDS:;
#ATTACKS:;

//---------------dance-single - ----------------
#NOTES:
     dance-single:
     :
     Hard:
     8:
     0.572377,0.661386,0.358948,0.145519,0.087312,413.000000,376.000000,37.000000,15.000000,0.000000,0.000000,0.572377,0.661386,0.358948,0.145519,0.087312,413.000000,376.000000,37.000000,15.000000,0.000000,0.000000:
0000
0000
0000
0000
,
0000
0000
0000
0000
,
0000
0000
0000
0000
,
0000
0000
0000
0000
,
1001
0100
0001
0000
1001
0100
1000
0000
,
1001
0010
0100
0001
1000
0000
1001
0000
,
2000
0000
3010
0100
1000
0000
1000
0000
,
0001
0100
0001
0000
,
0100
1000
0100
0000
0100
0001
0100
0000
,
0100
1000
0100
0000
0010
0010
0010
0000
,
0200
0000
0301
0010
0100
0000
0010
0000
,
0001
1000
0001
0000
,
0100
0001
1000
0010
1000
0100
0010
0001
,
0100
0000
0001
1000
0010
0000
1001
0000
,
0100
0001
0000
0000
0001
0000
0000
0000
0101
0000
0000
0000
0000
0000
0000
0000
,
0100
1000
0000
0000
1000
0000
0000
0000
1100
0000
0000
0000
0000
0000
0000
0000
,
0001
1000
0000
0000
1000
0000
0100
0000
0010
0000
0001
0000
1000
0000
0000
0000
,
1000
0001
0000
0000
0001
0000
0010
0000
0100
0000
1000
0000
0001
0000
0000
0000
,
0010
0001
0000
0000
0001
0000
0000
0000
0011
0000
0000
0000
0000
0000
0000
0000
,
0010
1000
0000
0000
1000
0000
0000
0000
1010
0000
0000
0000
0000
0000
0000
0000
,
0010
1000
0100
0000
0100
0010
0001
0100
,
0001
0010
0100
1000
0001
0000
0101
0000
,
1001
0100
1000
0000
1001
0100
0001
0000
,
1001
0010
0100
0001
1000
0000
1001
0000
,
0200
0000
0301
1000
0010
0000
1000
0000
,
0100
0001
0010
0000
,
0010
1000
0010
0000
0010
0001
0010
0000
,
0010
1000
0010
0000
0100
0100
0100
0000
,
0002
0000
1003
0100
0001
0000
0100
0000
,
1000
0010
0001
0000
,
0100
0001
1000
0100
1000
0001
0010
0100
,
0010
0000
0001
1000
0100
0000
0011
0000
,
1000
0100
0000
0000
0100
0000
0000
0000
1100
0000
0000
0000
0000
0000
0000
0000
,
0001
0100
0000
0000
0100
0000
0000
0000
0101
0000
0000
0000
0000
0000
0000
0000
,
0100
0010
0000
0000
0010
0000
1000
0000
0001
0000
0100
0000
0010
0000
0000
0000
,
0010
0100
0000
0000
0100
0000
0001
0000
1000
0000
0010
0000
0100
0000
0000
0000
,
0001
0010
0000
0000
0010
0000
0000
0000
0011
0000
0000
0000
0000
0000
0000
0000
,
1000
0010
0000
0000
0010
0000
0000
0000
1010
0000
0000
0000
0000
0000
0000
0000
,
0001
0100
0010
0000
1000
0100
0010
0100
,
1000
0001
0010
0100
1000
0000
0011
0000
,
1200
0000
0000
0300
,
1020
0000
0000
0030
,
1002
0000
0000
0003
,
0021
0000
0000
0030
,
2100
0000
0000
3000
,
0201
0000
0000
0300
,
0120
0000
2030
0000
,
3001
1000
0001
1001
,
0001
0010
0001
0000
0001
0100
0001
0000
,
0001
0010
0100
1000
0001
0000
0001
0000
,
0100
0010
0100
0000
0100
1000
0100
0000
,
0100
0010
0001
1000
0010
0000
0010
0000
,
0010
0100
0010
0000
0010
0001
0010
0000
,
0010
0100
1000
0001
1000
0000
1000
0000
,
1000
0100
0010
0100
1000
0010
0100
0001
,
0100
0001
0010
0001
0100
0010
1000
0001
,
1000
0100
1000
0010
1000
0100
0001
0100
,
1000
0010
1000
0100
0020
0000
0000
0000
,
0031
0010
0001
0100
0001
0010
1000
0010
,
0001
0100
0001
0010
0002
0000
0000
0000
,
0103
0010
0100
1000
0100
0001
0010
0001
,
0100
0010
0100
1000
0200
0000
0000
0000
,
0310
1000
0100
0010
0001
0000
1001
0000
,
0010
0100
0001
1000
0010
0000
0110
0000
,
0010
1000
0000
0000
1000
0000
0000
0000
1010
0000
0000
0000
0000
0000
0000
0000
,
0010
0001
0000
0000
0001
0000
0000
0000
0011
0000
0000
0000
0000
0000
0000
0000
,
0100
0001
0000
0000
0001
0000
0100
0000
0010
0000
1000
0000
0100
0000
0000
0000
,
0100
1000
0000
0000
1000
0000
0010
0000
0100
0000
0001
0000
0010
0000
0000
0000
,
0100
0001
0000
0000
0001
0000
0000
0000
0101
0000
0000
0000
0000
0000
0000
0000
,
0100
1000
0000
0000
1000
0000
0000
0000
1100
0000
0000
0000
0000
0000
0000
0000
,
0010
1000
0100
0000
0010
0001
0100
0010
,
1000
0100
0001
0100
1000
0000
0110
0000
,
0100
0001
0010
0000
0010
0100
1000
0010
,
0100
0001
0010
1000
0010
0000
1001
0000
,
0100
1000
0100
0000
0001
0010
0001
1000
,
0100
0010
0001
1000
0100
0000
1010
0000
;

//---------------dance-single - ----------------
#NOTES:
     dance-single:
     :
     Medium:
     6:
     0.421313,0.454021,0.223130,0.232831,0.000000,304.000000,281.000000,23.000000,24.000000,0.000000,0.000000,0.421313,0.454021,0.223130,0.232831,0.000000,304.000000,281.000000,23.000000,24.000000,0.000000,0.000000:
0010
0010
0001
0001
,
0100
0010
0100
0010
0110
0000
1000
0000
,
0200
0000
1300
0100
1000
0000
0001
0000
,
1000
0100
0001
0000
,
0010
1000
0010
1000
,
0010
0000
0001
0000
0100
0001
0010
0000
,
0002
0000
1003
0001
1000
0000
0001
0000
,
1000
0010
0001
0000
,
0100
0001
0100
0001
0100
0000
0010
0000
,
1000
0000
0100
1000
0100
0000
1000
0000
,
0001
0001
0101
0000
,
1000
1000
1100
0000
,
0020
0130
0001
1000
,
0200
1300
0010
0100
,
0010
0010
1010
0000
,
0100
0100
0101
0000
,
0001
0010
0001
0000
1000
0000
0100
0000
,
1000
0010
1000
0000
0001
0000
0100
0000
,
0010
0010
1000
1000
,
0100
1000
0100
1000
1100
0000
0010
0000
,
0200
0000
1300
0010
1000
0000
0100
0000
,
1000
0010
0001
0000
,
0100
0001
0100
0001
,
1000
0000
0010
0000
1000
0010
0100
0000
,
0020
0000
1030
0001
1000
0000
0001
0000
,
1000
0100
0001
0000
,
0001
1000
0001
1000
0001
0000
0100
0000
,
0010
0000
0100
0001
1000
0000
0010
0000
,
1000
1000
1100
0000
,
0001
0001
0101
0000
,
0200
0301
0010
0001
,
2000
3100
0010
0001
,
0010
0010
0011
0000
,
0010
0010
1010
0000
,
0100
0001
0100
0000
0010
0000
1000
0000
,
0001
0010
0001
0000
1000
0000
0100
0000
,
0020
0000
0000
0030
,
0002
0000
0000
0003
,
0200
0000
0000
0300
,
0020
0000
0000
0030
,
2000
0000
0000
3000
,
0200
0000
0000
0300
,
2000
0000
3002
0000
,
0103
0010
1000
0010
,
0100
0001
0010
0100
,
0010
0000
0001
0000
1000
0100
1100
0000
,
1000
0001
0100
0010
,
0100
0000
0001
0000
0010
0001
0011
0000
,
1000
0001
0100
0010
,
1000
0000
0100
0000
0010
0100
0110
0000
,
1000
0100
0002
0000
,
0013
1000
0020
0000
,
0031
0100
0001
0000
0001
0010
0001
0000
,
1000
0100
0010
0000
,
0100
1100
0010
0110
,
0001
1000
0200
0000
,
0310
0001
0010
0000
0010
0100
0010
0000
,
0001
1000
0200
0000
,
1300
1010
0002
0000
,
0103
0101
2000
0000
,
3001
0001
0101
0000
,
1000
1000
1010
0000
,
0010
0000
1000
0100
1000
0000
0010
0000
,
0100
0000
0001
0010
0001
0000
0100
0000
,
0010
0010
1010
0000
,
0100
0100
0101
0000
,
0002
0000
1003
0000
0100
1000
0100
0010
,
0100
0100
0100
1001
,
0010
0000
0100
0000
0010
0001
0010
0100
,
0010
0010
0010
1001
,
0100
1000
0100
0000
0010
0001
1000
0001
,
0010
0001
1000
0200
,
0300
0000
0000
0000
;

//---------------dance-single - ----------------
#NOTES:
     dance-single:
     :
     Easy:
     4:
     0.345089,0.477668,0.155221,0.291039,0.000000,249.000000,233.000000,16.000000,30.000000,0.000000,0.000000,0.345089,0.477668,0.155221,0.291039,0.000000,249.000000,233.000000,16.000000,30.000000,0.000000,0.000000:
// measure 0
0000
0000
0000
0000
,  // measure 1
0000
0000
0000
0000
,  // measure 2
0000
0000
0000
0000
,  // measure 3
0000
0000
0000
0000
,  // measure 4
0110
0000
0101
0000
,  // measure 5
1010
1001
1010
1001
,  // measure 6
0010
0100
0001
0010
,  // measure 7
0100
0100
1000
0000
,  // measure 8
0002
1003
2000
3001
,  // measure 9
0002
1003
0010
0000
,  // measure 10
0100
0001
1000
0010
,  // measure 11
1000
1000
0100
0000
,  // measure 12
0001
0010
0100
1000
,  // measure 13
0001
0100
0001
1000
,  // measure 14
0001
0001
0001
0000
,  // measure 15
1000
1000
1000
0000
,  // measure 16
0020
1030
0100
1000
,  // measure 17
0020
0031
0100
0001
,  // measure 18
0100
0100
0100
0000
,  // measure 19
0010
0010
0010
0000
,  // measure 20
0100
0001
0010
0100
,  // measure 21
0001
1000
0010
1000
,  // measure 22
1010
0000
0110
0000
,  // measure 23
0101
1001
0101
1001
,  // measure 24
0100
0001
0010
0100
,  // measure 25
1000
1000
0001
0000
,  // measure 26
0200
0301
0002
0103
,  // measure 27
0200
0301
1000
0000
,  // measure 28
0020
1030
0100
0010
,  // measure 29
1000
1000
0010
0000
,  // measure 30
0100
0001
0010
0001
,  // measure 31
0100
0010
1000
0001
,  // measure 32
1000
1000
1000
0000
,  // measure 33
0010
0010
0010
0000
,  // measure 34
2000
3001
0010
0100
,  // measure 35
0020
0031
1000
0001
,  // measure 36
0100
0100
0100
0000
,  // measure 37
0001
0001
0001
0000
,  // measure 38
0010
0100
0010
0001
,  // measure 39
1000
0100
0001
0100
,  // measure 40
2000
0000
0000
3000
,  // measure 41
0020
0000
0000
0030
,  // measure 42
0002
0000
0000
0003
,  // measure 43
2000
0000
0000
3000
,  // measure 44
0020
0000
0000
0030
,  // measure 45
0200
0000
0000
0300
,  // measure 46
0020
0000
0032
0000
,  // measure 47
0103
0001
0010
0010
,  // measure 48
0001
1000
0001
1000
,  // measure 49
0001
1000
0020
0000
,  // measure 50
1030
0100
1000
0100
,  // measure 51
1000
0100
2000
0000
,  // measure 52
3001
0010
0001
0010
,  // measure 53
0001
0010
0002
0000
,  // measure 54
0103
0010
1000
0000
,  // measure 55
0010
0100
0001
0000
,  // measure 56
0100
0001
0100
0001
,  // measure 57
0100
0001
0200
0000
,  // measure 58
0310
0100
0010
0100
,  // measure 59
0010
0100
0020
0000
,  // measure 60
1030
0001
1000
0001
,  // measure 61
1000
0001
2000
0000
,  // measure 62
3010
1000
0100
0000
,  // measure 63
0001
0100
1000
0000
,  // measure 64
0001
0001
0011
0000
,  // measure 65
1000
1000
1010
0000
,  // measure 66
0020
0130
0001
0100
,  // measure 67
0020
1030
0100
1000
,  // measure 68
0100
0100
1100
0000
,  // measure 69
0010
0010
0011
0000
,  // measure 70
0002
0003
0001
0100
,  // measure 71
0010
1000
0100
0100
,  // measure 72
2000
3000
0010
0100
,  // measure 73
0001
0010
0001
0001
,  // measure 74
0020
0030
0100
0010
,  // measure 75
0001
1000
0100
0010
;

//---------------dance-single - ----------------
#NOTES:
     dance-single:
     :
     Beginner:
     2:
     0.142748,0.330693,0.058208,0.000000,0.000000,103.000000,97.000000,6.000000,0.000000,0.000000,0.000000,0.142748,0.330693,0.058208,0.000000,0.000000,103.000000,97.000000,6.000000,0.000000,0.000000,0.000000:
0000
0000
0000
0000
,
0000
0000
0000
0000
,
0000
0000
0000
0000
,
0000
0000
0000
0000
,
1001
0000
1001
0000
,
1000
1000
1000
1000
,
1000
0000
0000
0000
,
0000
0000
0000
0000
,
0010
0000
0010
0000
,
0010
0000
0010
0000
,
0001
0000
0000
0000
,
0000
0000
0000
0000
,
0100
0000
0000
0000
,
0000
0000
0000
0000
,
0001
0001
0001
0000
,
1000
1000
1000
0000
,
0100
0000
0000
0000
,
1000
0000
0000
0000
,
0010
0010
0010
0000
,
0100
0100
0100
0000
,
0001
0000
0000
0000
,
0000
0000
0000
0000
,
1001
0000
1001
0000
,
1001
0000
0000
0010
,
0010
0000
0000
0000
,
0000
0000
0000
0000
,
0001
0000
0001
0000
,
0001
0000
0001
0000
,
1000
0000
0000
0000
,
0000
0000
0000
0000
,
0010
0000
0000
0000
,
0000
0000
0000
0000
,
0100
0100
0100
0000
,
0001
0001
0001
0000
,
1000
0000
0000
0000
,
0010
0000
0000
0000
,
1000
1000
1000
0000
,
0010
0010
0010
0000
,
0100
0000
0000
0000
,
0000
0000
0000
0001
,
0001
0000
0000
0000
,
1000
0000
0000
0000
,
0010
0000
0000
0000
,
0001
0000
0000
0000
,
0100
0000
0000
0000
,
0010
0000
0000
0000
,
0100
0000
0100
0000
,
0100
0000
0000
0000
,
0010
0000
0000
0000
,
0000
0000
0000
0000
,
1000
0000
0000
0000
,
0000
0000
0000
0000
,
0100
0000
0000
0000
,
0000
0000
0000
0000
,
0010
0000
0000
0000
,
0001
0000
0000
0000
,
1000
0000
0000
0000
,
0000
0000
0000
0000
,
0001
0000
0000
0000
,
0000
0000
0000
0000
,
0100
0000
0000
0000
,
0000
0000
0000
0000
,
0010
0000
0000
0000
,
1000
0000
0000
0000
,
0001
0001
0001
0000
,
1000
1000
1000
0000
,
0100
0000
0000
0000
,
0001
0000
0000
0000
,
0100
0100
0100
0000
,
0010
0010
0010
0000
,
1000
0000
0001
0000
,
0000
0000
0000
0100
,
0100
0000
0001
0000
,
0000
0000
0000
1000
,
1000
0000
0010
0000
,
0000
0000
0000
0110
;

//---------------dance-single - ----------------
#NOTES:
     dance-single:
     :
     Challenge:
     9:
     0.676319,0.624642,0.339545,0.000000,0.358948,488.000000,453.000000,35.000000,0.000000,0.000000,0.000000,0.676319,0.624642,0.339545,0.000000,0.358948,488.000000,453.000000,35.000000,0.000000,0.000000,0.000000:
0000
0000
0000
0000
,
0000
0000
0000
0000
,
0000
0000
0000
0000
,
0000
0000
0000
0000
,
0001
0001
0001
0000
1000
1000
1000
0000
,
0101
0000
0000
0000
1100
0000
0000
0000
0010
0000
0000
0000
1100
0000
0000
0010
,
1000
0000
0000
0100
1000
0000
1000
0000
0100
0000
0000
1000
0100
0000
0000
0010
,
0001
0000
0000
1000
0001
0000
0000
0100
0010
0000
0000
0000
0000
0000
0000
0000
,
0100
0001
0000
0000
0100
0000
0000
0000
0100
1000
0000
0000
0100
0000
0000
0000
,
0100
0010
0000
0000
0100
0000
0000
0000
1000
0000
1000
0000
1000
0000
0000
0010
,
0100
0000
0000
0010
1000
0000
1000
0000
0001
0000
0000
0010
0001
0000
0000
0100
,
0010
0000
0000
0001
0010
0000
0000
1000
0001
0000
0000
0000
0000
0000
0000
0000
,
0100
0001
1000
0100
0010
0001
1000
0010
,
1000
0000
0101
0001
0100
0000
1000
0000
,
1000
0100
0000
0000
1000
0100
0000
0000
1100
0000
0000
0000
0000
0000
0000
0000
,
0010
0001
0000
0000
0010
0001
0000
0000
0011
0000
0000
0000
0000
0000
0000
0100
,
0010
0000
0000
0000
0010
0000
1000
0000
0001
0000
1000
0000
0001
0000
0000
0100
,
0010
0000
0010
0100
0001
0100
0001
1000
,
0010
1000
0000
0000
0010
1000
0000
0000
1010
0000
0000
0000
0000
0000
0000
0000
,
0010
0001
0000
0000
0010
0001
0000
0000
0011
0000
0000
0000
0000
0000
0000
0000
,
0100
0000
0001
0000
1000
0000
0000
0000
0100
0000
0000
0100
1000
0000
0000
1000
,
0100
1000
0010
0100
0001
0000
1100
0000
,
0001
0001
0001
0000
1000
1000
1000
0000
,
1010
0000
0000
0000
0011
0000
0000
0000
0100
0000
0000
0000
0011
0000
0000
0100
,
0001
0000
0000
0000
1000
0000
0010
0000
1000
0000
0000
0100
0010
0000
0000
0001
,
1000
0000
0000
0100
0010
0000
0000
1000
0010
0000
0000
0000
0000
0000
0000
0000
,
0001
0010
0000
0000
0001
0000
0000
0000
0001
0100
0000
0000
0001
0000
0000
0000
,
0001
1000
0000
0000
0001
0000
0000
0000
1000
0000
1000
0000
1000
0000
0000
0100
,
1000
0000
0000
0000
0010
0000
1000
0000
0001
0000
0000
0100
0001
0000
0000
1000
,
0010
0000
0000
0001
0010
0000
0000
1000
0001
0000
0000
0000
0000
0000
0000
0000
,
0100
1000
0010
0001
0010
1000
0001
0010
,
0100
0000
0010
0001
0010
0000
1100
0000
,
0010
1000
0000
0000
0010
1000
0000
0000
1010
0000
0000
0000
0000
0000
0000
0000
,
0010
0001
0000
0000
0010
0001
0000
0000
0011
0000
0000
0000
0000
0000
0000
0100
,
0001
0000
0000
0000
1000
0000
0010
0000
1000
0000
0010
0000
1000
0000
0000
0100
,
1000
0000
0001
0010
0001
0010
0100
0000
,
1000
0100
0000
0000
1000
0100
0000
0000
1100
0000
0000
0000
0000
0000
0000
0000
,
0001
0100
0000
0000
0001
0100
0000
0000
0101
0000
0000
0000
0000
0000
0000
0000
,
0010
0000
0001
0000
0010
0000
0000
0000
0001
0000
0000
0001
0100
0000
0000
0100
,
0001
0100
0010
1000
0100
0000
1001
0000
,
1010
1000
0100
1000
0001
0000
0000
0000
,
0101
0001
1000
0001
0100
0000
0000
0000
,
1010
1000
0100
0010
0001
0000
0000
0000
,
0101
0001
0100
0010
1000
0000
0000
0000
,
0110
0010
1000
0001
0100
0000
0000
0000
,
1001
0001
0100
0001
1000
0000
0000
0000
,
1010
1000
0100
0000
0011
0001
0100
0000
,
1001
0000
1010
0000
0100
0100
0100
1000
,
0010
0000
0001
0000
0010
0000
0000
0000
1000
0000
0000
0001
1000
0000
0000
0000
,
0100
0100
0100
0000
0010
0001
1000
0100
,
0001
0000
0001
0000
0001
0000
0000
0000
0100
0000
0000
1000
0100
0000
0000
0000
,
1000
1000
1000
0000
0010
1000
0100
0010
,
0100
0000
1000
0000
0100
0000
0000
0000
0010
0000
0000
0001
0010
0000
0000
0000
,
0001
0100
0010
0000
1000
0001
0100
0010
,
0001
0010
0001
0000
0010
1000
0100
0010
,
1000
0010
1000
0000
0010
0001
0100
0010
,
1000
0100
1000
0010
1000
0100
1000
0010
,
1000
0000
0100
0000
0010
0000
0001
0000
0100
0000
0000
0100
0001
0000
0000
0001
,
0010
0100
0010
0001
0010
0100
0010
0001
,
0010
0000
0100
0000
1000
0000
0100
0000
0010
0000
0000
0010
0001
0000
0000
0001
,
1000
0100
1000
0010
1000
0100
1000
0010
,
1000
0000
0100
0000
0010
0000
0001
0000
0100
0000
0000
0100
0010
0000
0000
0010
,
1000
0100
0001
0000
0001
0100
1000
0100
,
0001
0010
1000
0000
1000
0010
0001
0010
,
1000
0010
0000
0000
1000
0010
0000
0000
1010
0000
0000
0000
0000
0000
0000
0000
,
0001
0010
0000
0000
0001
0010
0000
0000
0011
0000
0000
0000
0000
0000
0000
0100
,
0010
0000
0000
0000
1000
0000
0100
0000
1000
0000
0100
0000
0001
0000
0000
0010
,
0001
0000
0001
0100
0001
0100
1000
0010
,
1000
0010
0000
0000
1000
0010
0000
0000
1010
0000
0000
0000
0000
0000
0000
0000
,
0001
0010
0000
0000
0001
0010
0000
0000
0011
0000
0000
0000
0000
0000
0000
0000
,
0001
0100
0101
0000
1000
0010
1000
0100
,
0010
0000
0001
0000
1000
0000
0010
0000
1000
0000
0000
0001
0100
0000
0000
0000
,
0010
1000
1010
0000
0001
0100
0010
1000
,
0100
0000
0010
0000
0001
0000
1000
0000
0010
0000
0000
1000
0010
0000
0000
0000
,
1000
0100
1100
0000
0010
0001
1000
0100
,
0010
0000
0001
0000
0100
0000
0010
0000
1000
0000
0000
1000
0100
0000
0000
0000
;
