#TITLE:Confusion;
#SUBTITLE:;
#ARTIST:Tess;
#TITLETRANSLIT:;
#SUBTITLETRANSLIT:;
#ARTISTTRANSLIT:;
#GENRE:Dance;
#CREDIT:;
#BANNER:confusion-bn.png;
#BACKGROUND:confusion-bg.png;
#LYRICSPATH:;
#CDTITLE:;
#MUSIC:Confusion.ogg;
#OFFSET:-0.895000;
#SAMPLESTART:63.465000;
#SAMPLELENGTH:12.000000;
#SELECTABLE:YES;
#BPMS:0.000000=138.000000
;
#STOPS:
;
#BGCHANGES:;
#KEYSOUNDS:;
#ATTACKS:;

//---------------dance-single - ----------------
#NOTES:
     dance-single:
     :
     Hard:
     9:
     0.625885,0.726950,0.061562,0.061562,1.056822,427.000000,421.000000,6.000000,6.000000,0.000000,0.000000,0.625885,0.726950,0.061562,0.061562,1.056822,427.000000,421.000000,6.000000,6.000000,0.000000,0.000000:
// measure 0
0000
0000
0000
0000
,  // measure 1
0000
0000
0000
0000
,  // measure 2
0000
0000
0000
0000
,  // measure 3
1000
0100
1000
0100
0010
0001
0010
0001
1000
0100
1000
0100
0010
0001
0010
0000
,  // measure 4
0001
0000
0000
0000
1000
0000
0000
0000
0001
0000
0000
0100
0010
0000
0100
0000
,  // measure 5
1000
0000
0000
0000
0001
0000
0000
0000
1000
0000
0000
0010
0100
0000
0010
0000
,  // measure 6
0001
0000
0000
0000
0100
0000
0000
0000
0001
0000
0000
1000
0100
0000
1000
0000
,  // measure 7
0010
0000
0000
0000
1000
0000
0000
0000
0010
0100
0000
0010
0100
0000
0000
0000
,  // measure 8
0001
0010
0000
0010
0000
0001
0000
0010
0000
0010
0000
0001
0010
0000
0001
0000
,  // measure 9
1000
0100
0000
0100
0000
1000
0000
0100
0000
0100
0000
1000
0100
0000
0010
0000
,  // measure 10
0100
0010
0000
0010
0000
0100
0000
0010
0000
0010
0000
0100
0010
0000
0001
0000
,  // measure 11
1000
0100
0000
0010
0000
0001
0000
0000
1000
0100
0000
0010
0000
0001
0000
0000
,  // measure 12
0010
1000
0000
1000
0000
0010
0000
1000
0000
1000
0000
0010
1000
0000
0010
0000
,  // measure 13
0100
0001
0000
0001
0000
0100
0000
0001
0000
0001
0000
0100
0001
0000
0100
0000
,  // measure 14
0001
1000
0000
1000
0000
0001
0000
1000
0000
1000
0000
0001
1000
0000
0001
0000
,  // measure 15
1000
0010
0000
0100
0000
0001
0000
0000
1000
0010
0000
0100
0000
0001
0000
0000
,  // measure 16
0010
0100
0000
0100
0000
0100
1000
0000
0010
0000
0100
0000
0001
0000
0000
0000
,  // measure 17
0100
0001
0000
0001
0000
0001
1000
0000
0010
0000
1000
0000
0100
0000
0000
0000
,  // measure 18
1000
0010
0000
0010
0000
0010
0100
0000
0010
0000
1000
0000
0001
0000
0000
0000
,  // measure 19
1001
0000
0100
0010
0100
0000
0010
1000
0010
0000
1000
0100
1000
0000
0100
1000
,  // measure 20
0100
0000
1000
0000
0001
0000
0100
0010
0000
0000
1000
0000
0001
0000
0100
0010
,  // measure 21
0000
0000
1000
0000
0001
0000
0100
0010
0000
0000
1000
0000
0001
0000
1100
0000
,  // measure 22
0000
0000
0010
0000
1000
0000
0100
0010
0000
0000
0010
0000
1000
0000
0100
0010
,  // measure 23
0000
0000
0010
0000
1000
0000
0100
0010
0000
0000
0010
0000
0001
0000
0110
0000
,  // measure 24
0000
0000
1000
0000
0001
0000
0100
0010
0000
0000
0001
0000
0001
0000
0100
0010
,  // measure 25
0000
0000
0001
0000
0001
0000
0100
0010
0000
0000
0001
0000
1000
0000
0101
0000
,  // measure 26
0000
0000
1000
0000
1000
0000
0100
0010
0000
0000
0001
0000
0001
0000
0200
0000
,  // measure 27
0020
0000
0000
0000
0000
0000
0000
0000
0330
0000
1000
0100
1000
0000
0001
0000
,  // measure 28
0000
0000
1000
0000
0001
0000
0100
0010
0000
0010
0100
0000
0001
0000
0000
0010
,  // measure 29
0000
0000
0100
0000
1000
0000
0010
0100
0000
0100
0010
0000
1000
0000
0100
0000
,  // measure 30
0000
0000
0010
0000
0001
0000
1000
0100
0000
0100
1000
0000
0001
0000
0000
1000
,  // measure 31
0000
0000
0010
0000
0100
0000
0010
1000
0000
1000
0010
0000
1000
0000
0001
0000
,  // measure 32
0000
0000
0100
0000
1000
0000
0100
1000
0000
1000
0100
0000
0001
0000
0000
0100
,  // measure 33
0000
0000
0001
0000
1000
0000
0010
0100
0000
0100
0010
0000
1000
0000
0001
0000
,  // measure 34
0000
0000
1000
0000
0001
0000
0010
0100
0000
0100
0010
0000
0001
0000
1000
0000
,  // measure 35
1200
0000
0000
0300
1002
0000
0000
0000
,  // measure 36
0013
0100
0010
0100
0001
1000
0001
1000
0010
0100
0010
0100
0001
1000
0001
1000
,  // measure 37
0100
0010
0000
0010
0000
0100
0000
0010
0000
0010
0000
0100
0010
0000
0100
0000
,  // measure 38
0001
1000
0000
1000
0000
0001
0000
1000
0000
1000
0000
0001
1000
0000
0010
0000
,  // measure 39
0100
0001
0000
0001
0000
0100
0000
0001
0000
0001
0000
0100
0001
0000
1000
0000
,  // measure 40
0001
0010
0000
0100
0000
1000
0000
0000
0001
0010
0000
0100
0000
1000
0000
0000
,  // measure 41
0010
1000
0000
1000
0000
0010
0000
1000
0000
1000
0000
0010
1000
0000
0001
0000
,  // measure 42
0010
0001
0000
0001
0000
0010
0000
0001
0000
0001
0000
0010
0001
0000
1000
0000
,  // measure 43
0100
1000
0000
1000
0000
0100
0000
1000
0000
1000
0000
0100
1000
0000
0001
0000
,  // measure 44
0100
0010
0000
1000
0000
0001
0000
0000
0100
0010
0000
1000
0000
0001
0000
0000
,  // measure 45
1000
0100
0000
0100
0000
0010
0000
0001
0000
0001
0000
0010
0100
0000
1000
0000
,  // measure 46
0010
1000
0000
1000
0000
0001
0000
0100
0000
0100
0000
0001
1000
0000
0010
0000
,  // measure 47
0100
0010
0000
0010
0000
1000
0000
0001
0000
0001
0000
1000
0010
0000
0100
0000
,  // measure 48
0010
1000
0000
0001
0000
0100
0000
0000
0010
1000
0000
0001
0000
0100
0000
0000
,  // measure 49
0001
0100
0000
0100
0000
0010
0000
1000
0000
1000
0000
0010
0100
0000
0001
0000
,  // measure 50
1000
0010
0000
0010
0000
0100
0000
0001
0000
0001
0000
0100
0010
0000
1000
0000
,  // measure 51
0010
1000
0000
1000
0000
0001
0000
0100
0000
0100
0000
0001
1000
0000
0010
0000
,  // measure 52
0100
0001
0000
1000
0000
0010
0000
0000
0100
0001
0000
1000
0000
0010
0000
0000
,  // measure 53
2000
0000
0000
0000
0000
0000
0000
0000
0000
0000
0000
0000
3000
0000
0010
0100
,  // measure 54
0002
0000
0003
0000
;

//---------------dance-single - ----------------
#NOTES:
     dance-single:
     :
     Medium:
     6:
     0.417745,0.447354,0.287291,0.071823,0.000000,285.000000,257.000000,28.000000,7.000000,0.000000,0.000000,0.417745,0.447354,0.287291,0.071823,0.000000,285.000000,257.000000,28.000000,7.000000,0.000000,0.000000:
0000
0000
0000
0000
,
0000
0000
0000
0000
,
0000
0000
0000
0000
,
0010
0100
0001
1000
0010
0100
0010
1000
,
0100
0000
1000
0000
0001
1000
1001
0000
,
0010
0000
0100
0000
0001
0010
0011
0000
,
0010
0000
0100
0000
1000
0100
1100
0000
,
0010
1000
0001
0100
,
0001
0000
1000
0000
0100
0010
0001
1000
,
0100
0000
1000
0000
0010
0100
0001
1000
,
0010
0000
1000
0000
0100
1000
0010
0100
,
0001
1001
0100
1100
,
1000
0000
0010
0000
0100
0001
0010
0001
,
0100
0000
0010
0000
1000
0001
0100
0010
,
1000
0000
0010
0000
0100
0001
1000
0010
,
1000
1010
0001
0011
,
1000
2000
0001
3100
,
0001
0002
1000
0103
,
1000
2000
0001
3100
,
1001
0000
0000
0000
,
0010
0000
0010
0000
0100
1000
0010
0000
,
0010
0000
0010
0000
0100
1000
0010
0000
,
1000
0000
1000
0000
0001
0100
1000
0000
,
1000
0000
1000
0000
0001
0100
1000
0000
,
0100
0000
0100
0000
0010
0001
0100
0000
,
0100
0000
0100
0000
0010
0001
0100
0000
,
0001
0000
0001
0000
0100
0010
0001
0000
,
0001
0000
0000
0000
,
1000
0100
1000
0010
1000
1000
1000
0000
,
0001
0000
1100
0000
,
0001
0010
0001
0100
0001
0001
0001
0000
,
0000
0100
0010
0100
0010
0000
1000
0000
,
0010
0100
0010
1000
0010
0010
0010
0000
,
1000
0000
0110
0000
,
0100
0010
0100
0001
0100
0100
0100
0000
,
1002
0003
2001
3000
,
0001
0010
0100
1000
0001
0010
0100
1000
,
0001
0100
1010
0001
,
1000
0100
0011
1000
,
0010
0100
1001
0010
,
1100
1100
0011
0011
,
0100
0001
1000
0000
0010
0000
1000
1000
,
0100
1000
0010
0000
0100
0000
0001
0001
,
0010
0001
0100
0000
0010
0000
1000
0000
,
0011
0101
0011
0101
,
0010
0100
1000
0000
0010
0100
0001
0000
,
0100
0010
1000
0000
0001
0100
0001
0000
,
1000
0100
0010
0000
0001
0100
0001
0000
,
1001
1001
1010
1010
,
0100
1000
0100
0010
0100
1000
0100
0000
,
1000
0010
1000
0001
1000
0010
1000
0000
,
0001
0010
0001
0100
0001
0010
0001
0000
,
0100
0010
0100
1000
0100
0010
0100
1000
,
0100
0000
0000
0000
,
2200
0000
3300
0000
;

//---------------dance-single - ----------------
#NOTES:
     dance-single:
     :
     Easy:
     4:
     0.303415,0.360140,0.205208,0.123125,0.000000,207.000000,187.000000,20.000000,12.000000,0.000000,0.000000,0.303415,0.360140,0.205208,0.123125,0.000000,207.000000,187.000000,20.000000,12.000000,0.000000,0.000000:
0000
0000
0000
0000
,
0000
0000
0000
0000
,
0000
0000
0000
0000
,
1000
0100
0010
0001
,
0100
0001
0001
0100
,
1000
0010
0010
1000
,
0010
0001
0001
0010
,
1000
0001
1000
0001
,
0100
1000
1000
0100
,
0001
0010
0010
0001
,
0010
1000
1000
0010
,
0001
0100
0001
0100
,
1001
0100
1000
0100
,
1001
0100
0001
0100
,
1001
0010
1000
0010
,
1010
0100
0011
0100
,
0020
0000
1000
0031
,
2000
0000
0001
3100
,
0002
0000
0100
0013
,
0101
0000
0000
0000
,
1000
0100
0010
0100
,
1000
0010
0100
0010
,
1000
1000
0001
0001
,
1000
0001
1000
0001
,
0010
0001
0100
0001
,
0010
0100
1000
0100
,
0010
0010
0100
0100
,
2200
0000
0000
0000
3300
0001
1000
0000
,
0010
0010
1000
0001
,
0202
0303
0100
0000
,
1000
1000
0010
0100
,
0000
0001
1000
0000
,
0010
0010
1000
0001
,
2002
3003
1000
0000
,
0100
0100
1000
0010
,
0200
0000
0302
0000
,
1003
1000
1000
1000
,
0100
1000
1000
0100
,
0001
0100
0100
0001
,
0010
0001
0001
0010
,
1000
0010
1000
0010
,
0100
1000
1000
0100
,
1000
0010
0010
1000
,
0010
0001
0001
0010
,
0001
0100
0001
0100
,
1001
0010
1000
0010
,
1001
0100
0001
0100
,
1001
0010
0001
0010
,
1001
0100
1001
0100
,
0110
1000
0001
1000
,
0110
0001
1000
0001
,
0110
0100
0001
0100
,
0101
0010
0101
0010
,
0200
0000
0000
0300
,
1100
0000
0000
0000
;

//---------------dance-single - ----------------
#NOTES:
     dance-single:
     :
     Beginner:
     1:
     0.093809,0.193922,0.051302,0.030781,0.000000,64.000000,59.000000,5.000000,3.000000,0.000000,0.000000,0.093809,0.193922,0.051302,0.030781,0.000000,64.000000,59.000000,5.000000,3.000000,0.000000,0.000000:
0000
0000
0000
0000
,
0000
0000
0000
0000
,
0000
0000
0000
0000
,
0020
0000
0000
0030
,
0010
0000
0000
0000
,
0100
0000
0000
0000
,
1000
0000
0000
0000
,
0001
0000
0001
0000
,
0001
0000
0000
0000
,
0100
0000
0000
0000
,
0010
0000
0000
0000
,
0100
0000
0100
0000
,
0100
0000
0000
0000
,
0010
0000
0000
0000
,
1000
0000
0000
0000
,
0010
0000
0010
0000
,
0010
0000
0000
0000
,
1000
0000
0000
0000
,
0001
0000
0000
0000
,
0002
0000
0000
0003
,
0001
0000
0000
0000
,
0000
0000
0000
0000
,
0010
0000
0000
0000
,
0000
0000
0000
0000
,
1000
0000
0000
0000
,
0000
0000
0000
0000
,
0100
0000
0010
0000
,
0001
0000
0000
0000
,
1001
0000
0000
0000
,
0000
0000
0000
0000
,
0110
0000
0000
0000
,
0000
1000
0000
0000
,
1001
0000
0000
0000
,
0000
0000
0000
0000
,
0110
0000
0000
0000
,
0001
0000
1000
0000
,
0010
0010
0010
0010
,
0010
0000
0000
0000
,
0100
0000
0000
0000
,
1000
0000
0000
0000
,
0001
0000
0001
0000
,
0001
0000
0000
0000
,
1000
0000
0000
0000
,
0100
0000
0000
0000
,
1000
0000
1000
0000
,
1000
0000
0000
0000
,
0010
0000
0000
0000
,
0100
0000
0000
0000
,
0010
0000
0010
0000
,
0010
0000
0000
0000
,
1000
0000
0000
0000
,
0001
0000
0000
0000
,
0100
0000
0100
0000
,
0200
0000
0300
0000
,
0110
0000
0000
0000
;

//---------------dance-double - ----------------
#NOTES:
     dance-double:
     :
     Easy:
     4:
     0.297552,0.332437,0.194948,0.071823,0.000000,203.000000,184.000000,19.000000,7.000000,0.000000,0.000000,0.297552,0.332437,0.194948,0.071823,0.000000,203.000000,184.000000,19.000000,7.000000,0.000000,0.000000:
00000000
00000000
00000000
00000000
,
00000000
00000000
00000000
00000000
,
00000000
00000000
00000000
00000000
,
10000000
10000000
10000000
10000000
,
10010000
00010000
01000000
00010000
,
10010000
10000000
01000000
10000000
,
10010000
00010000
00100000
00010000
,
00100000
00001000
00010000
00000100
,
00001001
00000001
00000010
00000001
,
00001001
00001000
00000010
00001000
,
00001001
00000001
00000100
00000001
,
00000010
00001000
00000100
00010000
,
00011000
00001000
00100000
00001000
,
00011000
00010000
00000100
00010000
,
00011000
00001000
00010000
00001000
,
00100000
00010000
01000000
00010000
,
00100000
00100000
00001000
00000000
,
00010000
00010000
00001000
00000000
,
00000010
00000010
00000100
00000000
,
00002200
00000000
00003300
00000000
,
00000010
00001000
00000100
00001000
,
00000010
00001000
00000100
00001000
,
00000000
00010000
01000000
00010000
,
00100000
00010000
01000000
00010000
,
00000000
00001000
00100000
00001000
,
00010000
00001000
00100000
00001000
,
00000000
00010000
00100000
01000000
,
20000000
00000000
30000000
00100000
,
02000000
00010000
00010000
03100000
,
00001000
00010000
00001000
00000000
,
00000200
00010000
00010000
00001300
,
00000000
00011000
00000000
00000000
,
00000020
00000100
00000100
00001030
,
00000100
00010000
00001000
00000000
,
01000000
01000000
00010000
00100000
,
10010000
00000000
01100000
00000000
,
01000000
00010000
01000000
00010000
,
00100000
00001000
00010000
00000100
,
00001000
00000010
00000100
00000001
,
00000010
00000100
00010000
00001000
,
01000000
01000000
00010000
00010000
,
00100000
01000000
10000000
00100000
,
01000000
00001000
00010000
00000100
,
00001000
00000010
00000100
00001000
,
00010000
00010000
00001000
00001000
,
00011000
00100000
00010000
00100000
,
00011000
00000100
00001000
00000100
,
00011000
00010000
00001000
00010000
,
00100000
00100000
00010000
00010000
,
10010000
00010000
01000000
00100000
,
01100000
01000000
00001000
00010000
,
00011000
00010000
00000100
00001000
,
00000100
00000100
00000010
00000010
,
00000200
00000000
00000000
00000000
,
00010300
00000000
00000000
00000000
;

//---------------dance-double - ----------------
#NOTES:
     dance-double:
     :
     Medium:
     6:
     0.378169,0.391435,0.246250,0.071823,0.000000,258.000000,234.000000,24.000000,7.000000,0.000000,0.000000,0.378169,0.391435,0.246250,0.071823,0.000000,258.000000,234.000000,24.000000,7.000000,0.000000,0.000000:
00000000
00000000
00000000
00000000
,
00000000
00000000
00000000
00000000
,
00000000
00000000
00000000
00000000
,
01000000
00010000
10000000
00100000
02000000
00000000
00000000
00000000
,
03010000
00100000
00001000
00011000
,
00010000
00000100
00001000
00001010
,
00000100
00010000
00001000
01010000
,
00100000
00100000
00001000
00001000
,
00010000
00000100
00001000
00000000
00000010
00000000
00000100
00000000
,
00000001
00000100
00001000
00000000
00000100
00000000
00000001
00000000
,
00001000
00000100
00010000
00000000
00100000
00000000
01000000
00000000
,
10000000
10000000
00010000
00010000
,
00100000
01000000
00010000
00000000
00001000
00000000
00000010
00000000
,
00000100
00000001
00001000
00000000
00000100
00000000
00001000
00000000
,
00010000
00001000
00010000
00000000
00100000
00000000
01000000
00000000
,
10100000
01000000
00110000
01000000
,
00001000
00000000
00001000
00000000
00010000
00000100
00010000
00000000
,
00000010
00000000
00000010
00000000
00000100
00000001
00000100
00000000
,
00000001
00000000
00000001
00000000
00001000
00000010
00001000
00000100
,
00002000
00000000
00000000
00003000
,
00000100
00010100
00010000
00010100
,
00000100
00010100
00010000
00001000
,
00100000
00110000
00010000
00110000
,
00100000
00110000
00010000
00000010
,
00001000
00001100
00000100
00001100
,
00001000
00001100
00000100
00000010
,
00000001
00000000
00000100
00000000
00000010
00000000
00001000
00000100
,
00020000
00000000
00000000
00000000
00000000
00001000
00031000
00000000
,
00100000
00010000
00100000
01000000
00100000
00010000
00100000
00000000
,
00010000
00000000
00001100
00000000
,
00000001
00000010
00000001
00000100
00000001
00000010
00000001
00000000
,
00000000
00000100
00000010
00000100
00000010
00000000
00010000
00000000
,
00001000
00010000
00001000
00100000
00001000
00010000
00001000
00000000
,
00100000
00000000
01010000
00000000
,
01000000
00010000
01000000
00100000
01000000
00010000
01000000
00000000
,
00002000
00000000
00023000
00000000
,
00030100
00001000
00000100
00001000
00000100
00001000
00000100
00001000
,
00000100
00000010
00000001
00000000
00000100
00000000
00000010
00000000
,
00010000
00001000
00010000
00000000
00001000
00000000
00100000
00000000
,
00010000
01000000
00100000
00000000
10000000
00000000
01000000
00000000
,
00110000
01000000
00110000
01000000
,
00100000
00001000
00010000
00000000
00000100
00000000
00001000
00000000
,
00000010
00000100
00000010
00000000
00000100
00000000
00000001
00000000
,
00001000
00000100
00000010
00000000
00000100
00000000
00001000
00000000
,
00010100
00001000
00010100
00001000
,
00010000
00001000
00100000
00000000
00010000
00000000
01000000
00000000
,
00100000
10000000
00010000
00000000
01000000
00000000
00010000
00000000
,
00100000
01000000
10000000
00000000
01000000
00000000
00100000
00000000
,
10010000
00100000
10010000
00100000
,
00001000
00010000
00000100
00000000
00001000
00000000
00000010
00000000
,
00001000
00000010
00000001
00000000
00000010
00000000
00001000
00000000
,
00000010
00000100
00001000
00000000
00010000
00000000
00100000
00000000
,
00110000
01000000
00110000
01000000
,
00020000
00000000
00000000
00000000
00000000
00000000
00030000
10000000
,
02000000
00000000
03000000
00000000
;

//---------------dance-double - ----------------
#NOTES:
     dance-double:
     :
     Hard:
     9:
     0.615625,0.726950,0.225729,0.123125,0.990130,420.000000,398.000000,22.000000,12.000000,0.000000,0.000000,0.615625,0.726950,0.225729,0.123125,0.990130,420.000000,398.000000,22.000000,12.000000,0.000000,0.000000:
00000000
00000000
00000000
00000000
,
00000000
00000000
00000000
00000000
,
00000000
00000000
00000000
00000000
,
00000001
00000010
00000001
00000010
00000100
00001000
00000100
00001000
00000001
00000010
00000001
00000010
00000100
00001000
00000100
00000000
,
00001000
00000000
00000000
00000000
00000100
00000000
00000000
00000000
00001000
00000000
00000000
00000010
00010000
00000000
00000010
00000000
,
00001000
00000000
00000000
00000000
00100000
00000000
00000000
00000000
00001000
00000000
00000000
01000000
00010000
00000000
01000000
00000000
,
00001000
00000000
00000000
00000000
00010000
00000000
00000000
00000000
00001000
00000000
00000000
00010000
00000100
00000000
00010000
00000000
,
00000100
00001000
00000000
00000100
00000000
00000000
00000000
00000000
00001000
00000010
00000000
00001000
00000000
00000000
00000000
00000000
,
00000010
00000100
00000000
00000100
00000000
00000010
00000000
00000100
00000000
00000100
00000000
00000010
00000100
00000000
00000001
00000000
,
00001000
00000100
00000000
00000100
00000000
00001000
00000000
00000100
00000000
00000100
00000000
00001000
00000100
00000000
00010000
00000000
,
00001000
00100000
00000000
00100000
00000000
00001000
00000000
00100000
00000000
00100000
00000000
00001000
00010000
00000000
01000000
00000000
,
00100000
00010000
00000000
10000000
00000000
00000000
00000000
00000000
00100000
01000000
00000000
10000000
00000000
00000000
00000000
00000000
,
10000000
01000000
00000000
01000000
00000000
10000000
00000000
01000000
00000000
01000000
00000000
10000000
01000000
00000000
00100000
00000000
,
00010000
01000000
00000000
01000000
00000000
00010000
00000000
01000000
00000000
01000000
00000000
00010000
01000000
00000000
00001000
00000000
,
00010000
00000100
00000000
00000100
00000000
00010000
00000000
00000100
00000000
00000100
00000000
00010000
00000100
00000000
00001000
00000000
,
00000010
00000100
00000000
00000001
00000000
00000000
00000000
00000000
00000010
00000100
00000000
00001000
00000000
00000000
00000000
00000000
,
00000010
00001000
00000000
00001000
00000000
00001000
00000100
00000000
00000010
00000000
00000000
00000000
00000101
00000000
00000000
00000000
,
00001000
00000100
00000000
00000100
00000000
00000100
00001000
00000000
00000010
00000000
00000000
00000000
00010100
00000000
00000000
00000000
,
00001000
00000001
00000000
00000001
00000000
00000001
00000100
00000000
00000010
00000000
00000000
00000000
00001001
00000000
00000000
00000000
,
00001100
00000100
00010000
00011000
00100000
00010000
01000000
00100000
,
00000000
00000000
11000000
00000000
01000000
00000000
10000000
01000000
00000000
00000000
00110000
00000000
00010000
00000000
00100000
00010000
,
00000000
00000000
00001010
00000000
00000010
00000000
00001000
00000010
00000000
00000000
00000110
00000000
00000001
00000000
00001000
00000000
,
00000000
00000000
00010100
00000000
00000100
00000000
00010000
00000100
00000000
00000000
01001000
00000000
00001000
00000000
01000000
00001000
,
00000000
00000000
00110000
00000000
00100000
00000000
00010000
00100000
00000000
00000000
11000000
00000000
00010000
00000000
01000000
00000000
,
00000000
00000000
10010000
00000000
10000000
00000000
00010000
10000000
00000000
00000000
00101000
00000000
00100000
00000000
00001000
00100000
,
00000000
00000000
00011000
00000000
00010000
00000000
00001000
00010000
00000000
00000000
00000100
00000000
00001000
00000000
00000010
00000000
,
00000000
00000110
00001000
00000010
00000100
00001001
00000010
00000100
,
00000202
00000000
00000000
00000000
00000000
00000000
00000000
00000000
00000303
00000000
00000010
00000100
00001000
00000000
00000001
00000000
,
00000010
00000100
00000000
00000001
00000000
00000100
00000010
00000000
00001000
00000000
00000100
00001000
00000200
00000000
00000000
00010000
,
00000000
00000000
00010300
00000000
00020000
00000000
00000000
00000100
00000000
00000000
00030100
00000000
00010000
00000000
00001000
00000000
,
01000000
00100000
00000000
10000000
00000000
00100000
01000000
00000000
00010000
00000000
00100000
00010000
00100000
00000000
00000000
00000000
,
00000000
00011000
00000200
00020000
00000000
00000000
00030300
00000000
,
00001000
00000010
00000000
00000100
00000000
00000010
00001000
00000000
00000001
00000000
00000100
00000010
00000200
00000000
00000000
00000001
,
00000000
00000000
00000301
00000000
00000002
00000000
00000000
00000100
00000000
00000000
00000103
00000000
00000001
00000000
00000001
00000000
,
00000010
00000100
00000000
00001000
00000000
00000100
00000010
00000000
00000100
00000000
00001000
00000000
00010000
00000000
00100000
00000000
,
02100000
00000000
00000000
03000000
20010000
00000000
00000000
30000000
,
00100000
01000000
00100000
01000000
00010000
10000000
00010000
10000000
00100000
01000000
00100000
01000000
00010000
10000000
00010000
10000000
,
00010000
00100000
00000000
00100000
00000000
00010000
00000000
00100000
00000000
00100000
00000000
00010000
00100000
00000000
00001000
00000000
,
00010000
00000100
00000000
00000100
00000000
00010000
00000000
00000100
00000000
00000100
00000000
00010000
00000100
00000000
00001000
00000000
,
00000010
00000100
00000000
00000100
00000000
00000010
00000000
00000100
00000000
00000100
00000000
00000010
00000100
00000000
00000001
00000000
,
00000100
00000001
00000000
00001000
00000000
00000000
00000000
00000000
00000010
00001000
00000000
00000100
00000000
00000000
00000000
00000000
,
00010000
00001000
00000000
00001000
00000000
00010000
00000000
00001000
00000000
00001000
00000000
00010000
00001000
00000000
00100000
00000000
,
00010000
01000000
00000000
01000000
00000000
00010000
00000000
01000000
00000000
01000000
00000000
00010000
01000000
00000000
00100000
00000000
,
10000000
01000000
00000000
01000000
00000000
10000000
00000000
01000000
00000000
01000000
00000000
10000000
01000000
00000000
00100000
00000000
,
00001000
00100000
00000000
00010000
00000000
00000000
00000000
00000000
00000100
00001000
00000000
00000010
00000000
00000000
00000000
00000000
,
00000100
00000010
00000000
00001000
00000000
00000010
00000000
00000100
00000000
00000010
00000000
00001000
00000010
00000000
00000100
00000000
,
00000001
00001000
00000000
00000100
00000000
00001000
00000000
00000001
00000000
00001000
00000000
00000100
00001000
00000000
00000010
00000000
,
00000100
00000001
00000000
00000010
00000000
00000001
00000000
00000100
00000000
00000001
00000000
00000010
00000001
00000000
00001000
00000000
,
00000100
00010000
00000000
00001000
00000000
00000000
00000000
00000000
00100000
00010000
00000000
01000000
00000000
00000000
00000000
00000000
,
00100000
10000000
00000000
00010000
00000000
10000000
00000000
00100000
00000000
10000000
00000000
00010000
10000000
00000000
00100000
00000000
,
01000000
00010000
00000000
00100000
00000000
00010000
00000000
01000000
00000000
00010000
00000000
00100000
00010000
00000000
10000000
00000000
,
01000000
10000000
00000000
00100000
00000000
10000000
00000000
01000000
00000000
10000000
00000000
00100000
10000000
00000000
01000000
00000000
,
00100000
00010000
00000000
01000000
00000000
00000000
00000000
00000000
00010000
01000000
00000000
10000000
00000000
00000000
00000000
00000000
,
02000000
00000000
00000000
00000000
00000000
00000000
00000000
00000000
00000000
00000000
00000000
00000000
03000000
00000000
00001000
00010000
,
00000200
00000000
00000300
00000000
;
