#TITLE:Concerto;
#SUBTITLE:;
#ARTIST:Sanxion7;
#TITLETRANSLIT:;
#SUBTITLETRANSLIT:;
#ARTISTTRANSLIT:;
#GENRE:Trance;
#CREDIT:;
#BANNER:concerto2-bn.png;
#BACKGROUND:concerto-bg.png;
#LYRICSPATH:;
#CDTITLE:;
#MUSIC:Concerto.ogg;
#OFFSET:-0.020000;
#SAMPLESTART:66.839996;
#SAMPLELENGTH:12.000000;
#SELECTABLE:YES;
#BPMS:0.000000=140.000000
;
#STOPS:124.000000=1.286000,
129.000000=1.286000,
134.000000=1.286000
;
#BGCHANGES:;
#KEYSOUNDS:;
#ATTACKS:;

//---------------dance-single - ----------------
#NOTES:
     dance-single:
     :
     Hard:
     7:
     0.462432,0.515713,0.221163,0.341798,0.020106,322.000000,300.000000,22.000000,34.000000,0.000000,0.000000,0.462432,0.515713,0.221163,0.341798,0.020106,322.000000,300.000000,22.000000,34.000000,0.000000,0.000000:
// measure 0
0000
0000
0000
0000
,  // measure 1
0000
0000
0000
0000
,  // measure 2
0000
0000
0100
2000
0000
3002
0000
0013
,  // measure 3
0000
0000
1000
0002
0000
1003
0001
0010
,  // measure 4
0012
0010
0010
0013
,  // measure 5
0100
1000
0010
0100
0001
1000
0010
1000
,  // measure 6
0100
0010
0001
0100
0001
1000
0010
0100
,  // measure 7
0010
1000
0100
0002
0000
0103
1000
0010
,  // measure 8
0100
0001
0100
0001
1000
0020
0000
2030
,  // measure 9
0000
3100
0020
0000
0130
1000
0010
0100
,  // measure 10
0001
0010
0100
2000
0000
0010
0000
3001
,  // measure 11
0000
1001
0000
0010
0100
0000
0100
0001
,  // measure 12
1000
0010
0100
0002
0000
0010
0000
1003
,  // measure 13
0000
1001
0000
0010
0100
0000
0100
0000
,  // measure 14
1000
0010
0100
0010
1000
0100
0010
0001
,  // measure 15
2000
0000
0010
3010
0000
0100
1000
0000
,  // measure 16
0010
0100
0001
0000
1000
0001
0000
0100
,  // measure 17
0000
1002
0000
1003
0010
0000
0010
1000
,  // measure 18
0100
0010
0001
1000
0000
0010
0000
0100
,  // measure 19
0000
2001
0000
3010
0100
0000
0001
0000
,  // measure 20
0100
0001
1000
0020
0000
0230
0000
0310
,  // measure 21
0100
0000
1100
0000
0110
0000
0101
0001
,  // measure 22
0001
0000
1000
0200
0000
1300
0000
1001
,  // measure 23
0000
0000
0010
0200
0000
0301
1000
0010
,  // measure 24
0000
0000
0001
0200
0000
0301
0000
1001
,  // measure 25
0000
0000
1000
0020
0000
0130
0001
1000
,  // measure 26
0000
0000
0010
0200
0000
1300
0000
1001
,  // measure 27
0000
0000
0100
0020
0000
0130
0001
0010
,  // measure 28
0000
0000
0001
0200
0000
0301
0000
1001
,  // measure 29
0000
0000
0010
0100
0000
0001
1000
0010
,  // measure 30
1000
0100
1000
0010
0100
0001
0100
0001
,  // measure 31
1001
0000
0001
0010
0001
0100
0010
1000
,  // measure 32
0010
1000
1001
0000
0100
0010
0100
0001
,  // measure 33
1000
0001
1000
0001
1001
0000
0010
1000
,  // measure 34
0100
0010
0001
0100
0001
0010
0100
1000
,  // measure 35
0100
0000
0000
1000
0000
0000
0100
0000
0000
1000
0000
0000
0100
0000
0000
1000
0000
0000
0001
0000
0010
0000
0001
0000
,  // measure 36
0010
0000
0001
0000
0010
0000
0001
0000
0000
0000
0000
0000
1001
0000
0000
0000
0000
0000
0010
0000
0000
0100
0000
0000
,  // measure 37
1000
0010
1000
0001
0100
0010
0100
0001
,  // measure 38
0010
2000
0000
3010
0001
0100
0010
1000
,  // measure 39
0010
1000
0001
0200
0000
0302
0000
0013
,  // measure 40
0200
0000
0310
0001
0100
0010
1000
0100
,  // measure 41
0010
0002
0000
0100
0000
1003
0000
1001
,  // measure 42
0000
0100
0010
0000
0010
1000
0001
0100
,  // measure 43
0010
2000
0000
0100
0000
3001
0000
1001
,  // measure 44
0000
0010
0100
0000
0100
0000
0001
0100
,  // measure 45
0010
1000
0001
1000
0010
0100
0002
0000
,  // measure 46
0100
0103
0000
0010
0001
0000
1000
0100
,  // measure 47
0010
0001
1000
0010
0000
1000
0000
0120
,  // measure 48
0000
1030
0100
0000
0100
0010
0001
1000
,  // measure 49
0010
1000
0000
0001
0000
0010
0000
0201
,  // measure 50
0000
0310
0100
0000
0001
0000
0100
0001
,  // measure 51
1000
0020
0000
2030
0000
3010
1010
0000
,  // measure 52
0101
0000
0001
1000
0010
0100
0020
0000
,  // measure 53
0000
0000
0000
0000
,  // measure 54
0030
0000
0000
0000
;

//---------------dance-single - ----------------
#NOTES:
     dance-single:
     :
     Medium:
     5:
     0.346106,0.385277,0.351851,0.261375,0.000000,241.000000,206.000000,35.000000,26.000000,0.000000,0.000000,0.346106,0.385277,0.351851,0.261375,0.000000,241.000000,206.000000,35.000000,26.000000,0.000000,0.000000:
0000
0000
0000
0000
,
0000
0000
0000
0000
,
0000
0000
0010
0100
0000
0101
0000
0110
,
0000
0000
0010
1000
0000
0010
0100
0010
,
0200
0010
0010
0310
,
1000
0001
0110
1001
,
0001
0000
0010
0001
0100
0000
0001
0000
,
1000
0100
1000
0200
0000
0310
0001
0010
,
0001
0000
0110
0000
1000
0001
0000
0100
,
0000
0010
0200
0000
0001
0000
0301
0000
,
0010
0100
1000
0001
0000
0011
0000
1100
,
0000
0010
0000
0100
0010
0000
1001
0000
,
0010
1000
0010
2000
0000
3002
0000
0023
,
0000
0032
0000
1003
0001
0000
1001
0000
,
2000
0000
0000
3000
,
0010
0000
0100
0001
0000
1000
0001
0000
,
0002
0000
0000
0003
,
0000
0100
0000
0010
1000
0000
0100
0000
,
0020
0000
0000
0030
,
0000
0001
0000
0010
0001
0000
1000
0000
,
0200
0000
0000
0300
,
1100
0011
0101
1010
,
0000
0000
0100
0010
0000
1010
0000
0110
,
0000
0000
0010
0100
0000
0100
0001
1000
,
0000
0000
0010
0100
0000
0101
0000
0110
,
0000
0000
0100
0010
0000
0010
1000
0001
,
0000
0000
1000
0100
0000
0110
0000
1100
,
0000
0000
0001
0100
0000
0010
1000
0001
,
0000
0000
0001
0010
0000
0011
0000
1001
,
0000
0000
1000
0100
0000
0010
0001
0010
,
0002
1000
1000
1003
,
0110
2000
0001
0001
,
3001
0110
0002
1000
,
1000
0000
1003
0000
0110
0000
1000
0100
,
0010
0001
1000
0100
0010
0001
2000
0000
,
0000
0000
0000
3001
,
1000
0110
1001
1000
,
0100
1000
0010
0000
1000
0000
0001
0010
,
0001
0020
0000
0130
1000
0100
1000
0000
,
0110
0000
0001
1000
0000
0010
0000
0100
,
0020
0000
1000
0000
1030
0000
0100
0010
,
0001
1000
0000
1100
0000
0011
0000
0100
,
0000
0010
0100
0000
1001
0000
0100
0001
,
0100
0002
0000
2003
0000
3200
0000
2300
,
0000
3001
1000
0000
1001
0000
0020
0000
,
0000
0000
0030
0100
,
1000
0001
0000
0010
0001
0000
0200
0000
,
0000
0000
0000
0000
0300
0000
0000
0010
,
0000
1000
0001
0000
0100
0000
0002
0000
,
0000
0000
0000
0000
0003
0000
0000
0001
,
0000
0100
0010
0000
1000
0000
2000
0000
,
0000
0000
3000
1001
,
0110
0101
1010
2000
,
0000
0000
0000
0000
,
0000
0000
0000
3000
;

//---------------dance-single - ----------------
#NOTES:
     dance-single:
     :
     Beginner:
     1:
     0.087604,0.185601,0.080423,0.010053,0.000000,61.000000,53.000000,8.000000,1.000000,0.000000,0.000000,0.087604,0.185601,0.080423,0.010053,0.000000,61.000000,53.000000,8.000000,1.000000,0.000000,0.000000:
0000
0000
0000
0000
,
0000
0000
0000
0000
,
0000
0010
0000
0000
,
0000
0001
0000
0000
,
1000
1000
1000
1000
,
1000
0000
0000
0000
,
0010
0000
0000
0000
,
1000
0000
0000
0000
,
0100
0000
0000
0000
,
0000
0000
0000
0000
,
0010
0000
0000
0000
,
0000
0000
0001
0001
,
0001
0000
0000
0000
,
0000
0000
0000
0000
,
0110
0000
0000
0000
,
0000
0000
0000
0000
,
1001
0000
0000
0000
,
0000
0000
0000
0000
,
0110
0000
0000
0000
,
0000
0000
0000
0000
,
1001
0000
0000
0000
,
0010
0010
0010
0010
,
0010
0010
0000
0000
,
0000
0001
0000
0000
,
0000
1000
0000
0000
,
0000
0010
0000
0000
,
0000
0100
0000
0000
,
0000
0001
0000
0000
,
0000
0010
0000
0000
,
0000
0100
0000
0000
,
1000
0000
0000
0000
,
0001
0000
0000
0000
,
0000
1000
0000
0000
,
0000
0000
0001
0000
,
0000
0000
0000
0100
,
0000
0000
0000
0020
,
0000
0030
0000
1000
,
0000
0000
0000
0100
,
0000
0000
0000
0010
,
0000
0000
0000
0000
,
0000
0000
0000
0001
,
0000
0000
0000
0000
,
0000
0100
0100
0100
,
0000
0000
0000
0000
,
0000
0000
0000
0110
,
0000
0000
0000
0000
,
0000
0000
0000
1001
,
0000
0000
0000
0000
,
0000
0000
0000
0110
,
0000
0000
0000
0000
,
0000
0000
0000
1001
,
0000
0000
0000
1000
,
1000
1000
1000
1000
;

//---------------dance-single - ----------------
#NOTES:
     dance-single:
     :
     Easy:
     2:
     0.149357,0.220158,0.020106,0.130687,0.000000,104.000000,102.000000,2.000000,13.000000,0.000000,0.000000,0.149357,0.220158,0.020106,0.130687,0.000000,104.000000,102.000000,2.000000,13.000000,0.000000,0.000000:
0000
0000
0000
0000
,
0000
0000
0000
0000
,
0000
0010
0000
0000
,
0000
1000
0000
0001
,
0200
0010
0010
0310
,
2000
0000
0001
3001
,
0100
0001
0100
0010
,
0100
0000
0000
0000
,
0010
1000
0010
0100
,
0010
0000
1000
0000
,
0001
0010
0001
0100
,
0001
0000
0000
0000
,
1000
0010
1000
0100
,
1000
0000
0001
0000
,
0200
0000
0000
0300
,
0000
0000
0000
0000
,
0020
0000
0000
0030
,
0000
0000
0000
0000
,
2000
0000
0000
3000
,
0000
0000
0000
0000
,
0002
0000
0000
0003
,
0100
0010
1000
0001
,
0000
1000
0000
0000
,
0000
0100
0000
0010
,
0000
0100
0000
0000
,
0000
0001
0000
1000
,
0000
0001
0000
0000
,
0000
0010
0000
1000
,
0000
0010
0000
0000
,
0000
0001
0000
0100
,
0001
0001
0001
0001
,
0000
1000
1000
1000
,
1000
0000
0001
0001
,
0001
0001
0000
1000
,
0100
0010
0001
0200
,
0000
0000
0000
0320
,
0000
1030
0001
1000
,
0010
1000
0100
1000
,
0000
0000
0000
0001
,
0010
0001
0100
0001
,
0000
0000
0000
0100
,
0001
0100
0010
0100
,
0000
0000
0000
0010
,
1000
0010
0100
0010
,
0000
1000
0000
0002
,
0000
0000
0003
0000
,
0000
0000
0000
0200
,
0000
0000
0300
0000
,
0000
0000
0000
0020
,
0000
0000
0030
0000
,
0000
0000
0000
2000
,
0000
0000
3000
0001
,
1000
1001
1001
0020
,
0000
0000
0000
0000
,
0000
0000
0000
0030
;

//---------------dance-double - ----------------
#NOTES:
     dance-double:
     :
     Hard:
     7:
     0.384882,0.486308,0.382009,0.211110,0.020106,268.000000,230.000000,38.000000,21.000000,0.000000,0.000000,0.384882,0.486308,0.382009,0.211110,0.020106,268.000000,230.000000,38.000000,21.000000,0.000000,0.000000:
00000000
00000000
00000000
00000000
,
00000000
00000000
00000000
00000000
,
00000000
00000000
00000100
00002000
00000000
00003010
00000000
00010000
,
00000000
00000000
00100000
00010000
00000000
00001000
00010000
00000020
,
00000100
00000100
00000100
00000130
,
00011000
00110000
00002000
00000000
,
00103000
10000000
01000000
10000000
00100000
01000000
00010000
00000000
,
00001000
00010000
00000100
00020000
00000000
00000000
00030010
00000000
,
00101000
00000000
00001100
00000000
00000010
00000200
00000000
00000310
,
00000000
00010000
00001000
01000000
00001000
00010000
00100000
00100000
,
00000000
01000000
10000000
00100000
00000000
01010000
00000000
00011000
,
00000000
00010100
00000000
00000001
00001000
00000000
00000100
00000100
,
00001000
00000010
00001000
00000100
00000000
00010100
00000000
00011000
,
00000000
01010000
00000000
10000000
00010000
00000000
00101000
00000000
,
00020000
00000000
00000000
00030000
,
00000100
00000000
00000100
00001100
00000000
00001100
00001000
00000000
,
00200000
00000000
00000000
00300000
,
00000000
00010000
00000000
00010000
01010000
00000000
01010000
00000000
,
00002000
00000000
00000000
00003000
,
00000000
00000010
00000000
00000010
00001010
00000000
00001010
00000000
,
00000200
00000000
00000000
00000300
,
00110000
01001000
00011000
00010010
,
00000002
00000000
00000100
00000100
00000000
00001000
00000000
00000103
,
00000000
00000000
00010000
00000100
00000000
00000100
00010000
00001000
,
02000000
00000000
00100000
00100000
00000000
00010000
00000000
03100000
,
00000000
00000000
01000000
00001000
00000000
00001000
01000000
00010000
,
00200000
00000000
00001000
00001000
00000000
00010000
00000000
00301000
,
00000000
00000000
00010000
00000100
00000000
00001000
00000010
00010000
,
00002000
00000000
00000100
00000100
00000000
00010000
00000000
00003100
,
00000000
00000000
00010000
00001000
00000000
00000010
00000100
00000001
,
00001000
00001000
00001000
00001000
,
01001000
00100000
00100000
00100000
,
00100000
10100000
00010000
00010000
,
00010000
00000000
00010000
00000000
00010010
00000000
00000100
00001000
,
00000100
00001000
00000100
00001000
00000100
00001000
00000010
00000000
,
00000100
00000000
00000000
00000001
00000000
00000000
00001000
00000000
00000000
00010000
00001000
00010000
,
00001000
00000000
00010000
00000000
00001000
00000000
00010000
00000000
00000000
00000000
00000000
00000000
00011000
00000000
00000000
00000000
00000000
00000000
01000000
00000000
00000000
00100000
00000000
00000000
,
10000000
01000000
00100000
00010000
01000000
00001000
00010000
00000100
,
00010000
00002000
00000000
00103000
00010000
00100000
01000000
00000000
,
11000000
00000000
10000000
00200000
00000000
00320000
00000000
00031000
,
00000010
00000000
00000001
00000010
00000100
00001000
00000010
00000100
,
00000001
00000010
00000001
00001000
00000100
00010000
00000100
00001000
,
00000000
00100000
00010000
00000000
01010000
00000000
01000000
00010000
,
00100000
00010000
01000000
00001000
00100000
00010000
00100000
00001000
,
00000000
00010000
00000100
00000000
00010100
00000000
00002000
00000000
,
00000000
00000000
00003000
00000001
,
00000001
00000101
00000000
00000101
00000100
00000000
00020000
00000000
,
00000000
00000000
00000000
00000000
00030000
00000000
00000000
00100000
,
00000000
00100000
01100000
00000000
01100000
00000000
00002000
00000000
,
00000000
00000000
00000000
00000000
00003000
00000000
00000000
00010000
,
00000000
00100000
01100000
00000000
00101000
00000000
00020000
00000000
,
00000000
00000000
00030000
00001100
,
00001010
00000101
00001001
00000020
,
00000000
00000000
00000000
00000030
;

//---------------dance-double - ----------------
#NOTES:
     dance-double:
     :
     Easy:
     2:
     0.123507,0.216137,0.000000,0.090476,0.000000,86.000000,86.000000,0.000000,9.000000,0.000000,0.000000,0.123507,0.216137,0.000000,0.090476,0.000000,86.000000,86.000000,0.000000,9.000000,0.000000,0.000000:
00000000
00000000
00000000
00000000
,
00000000
00000000
00000000
00000000
,
00000000
00000000
00000000
00000000
,
00000000
00000000
00000000
00000000
,
00000100
00001000
00000100
00001000
,
00000100
00000000
00000000
00000000
,
00010000
00100000
01000000
00000000
,
10000000
00000000
00000000
00000000
,
00010000
00001000
00000100
00000000
,
00000000
00000000
00010000
00000000
,
01000000
00010000
00100000
00000000
,
00000000
00000000
00001000
00000000
,
00000010
00000100
00000001
00000000
,
00000000
00000000
00001000
00000000
,
00020000
00000000
00000000
00030000
,
00000000
00000000
00000000
00000000
,
00200000
00000000
00000000
00300000
,
00000000
00000000
00000000
00000000
,
00002000
00000000
00000000
00003000
,
00000000
00000000
00000000
00000000
,
00000020
00000000
00000000
00000030
,
00001000
00000010
00001000
00000010
,
00001000
00000100
00000000
00000000
,
00010000
00001000
00000000
00000000
,
00100000
00010000
00000000
00000000
,
01000000
00100000
00000000
00000000
,
10000000
00010000
00000000
00000000
,
00001000
00000100
00000000
00000000
,
00000010
00000001
00000000
00000000
,
00001000
00000100
00000000
00000000
,
00010000
00010000
00010000
00010000
,
00000000
01000000
01000000
01000000
,
01000000
00000000
00100000
00100000
,
00100000
00100000
00000000
00001000
,
00000000
00010000
00000000
00000200
,
00000000
00000000
00000000
00001300
,
00000000
00000000
00000000
00000010
,
00000100
00000010
00000000
00001000
,
00000000
00000000
00000000
00010000
,
00001000
00010000
00000000
00000000
,
00000000
01000000
00000000
00100000
,
10000000
00010000
00000000
00000000
,
00000000
00010000
00000000
00001000
,
00010000
00001000
00000000
00000000
,
00000000
00000100
00000000
00002000
,
00000000
00000000
00003000
00000000
,
00000000
00000000
00000000
00020000
,
00000000
00000000
00030000
00000000
,
00000000
00000000
00000000
00200000
,
00000000
00000000
00300000
00000000
,
00000000
00000000
00000000
00010000
,
00000000
00000000
00000000
00100000
,
00010000
00100000
00010000
00200000
,
00000000
00000000
00000000
00300000
;

//---------------dance-double - ----------------
#NOTES:
     dance-double:
     :
     Medium:
     5:
     0.281481,0.351222,0.120635,0.100529,0.000000,196.000000,184.000000,12.000000,10.000000,0.000000,0.000000,0.281481,0.351222,0.120635,0.100529,0.000000,196.000000,184.000000,12.000000,10.000000,0.000000,0.000000:
00000000
00000000
00000000
00000000
,
00000000
00000000
00000000
00000000
,
00000000
00000000
00000000
00000000
,
00000000
00000000
00000000
00000000
,
00101000
00011000
00101000
00011000
,
00010000
00000100
00001000
00000010
,
00001000
00000100
00001000
00000010
00001000
00000000
00000010
00000000
,
00000100
00000000
00000002
00002000
00000000
00003003
00000100
00000000
,
00010000
00000000
00010000
00000000
01000000
00100000
00000000
10000000
,
00000000
00100000
01000000
00000000
00001000
00000000
00001000
00000000
,
00000010
00000000
00001000
00000100
00000000
00000010
00000000
00000100
,
00000000
00001000
00000000
00000010
00001000
00000000
00001000
00000000
,
00000100
00000000
00010000
00100000
00000000
01000000
00000000
00100000
,
00000000
00010000
00000000
01000000
00010000
00000000
00010000
00000000
,
00200000
00000000
00000000
00300000
,
00101000
00000000
00000000
00000000
,
00020000
00000000
00000000
00030000
,
00000000
00011000
00000000
00000000
00000000
00000000
00000000
00000000
,
00000200
00000000
00000000
00000300
,
00000000
00010100
00000000
00000000
00000000
00000000
00000000
00000000
,
00002000
00000000
00000000
00003000
,
00010000
00000000
00001000
00000000
00010000
00001000
00010000
00000000
,
01000000
00000000
00010000
00100000
00000000
00100000
00000000
00110000
,
00000000
00000000
00001000
00010000
00000000
00010000
00001000
00000000
,
00000000
00000000
00000100
00001000
00000000
00001000
00000000
00001100
,
00000000
00000000
00000001
00001000
00000000
00001000
00000001
00000000
,
00000000
00000000
00010000
00000100
00000000
00000100
00000000
00010100
,
00000000
00000000
00010000
00001000
00000000
00001000
00010000
00000000
,
00000000
00000000
00100000
00010000
00000000
00010000
00000000
00110000
,
00000000
00000000
01000000
00010000
00000000
00010000
01000000
00000000
,
00010000
00010000
00010000
00010000
,
00000000
00001000
00001000
00001000
,
00001000
00000000
00000010
00000010
,
00000010
00000010
00000000
00000100
,
00000100
00000100
00000100
00010000
,
00001000
00100000
00010000
01000000
,
01000000
00000000
01000000
00000000
01000000
00000000
00100000
01000000
,
00100000
10000000
00100000
00000000
01000000
00000000
00100000
00000000
,
00002000
00020000
00000000
00033000
00000100
00000000
00001000
00000000
,
00001000
00000000
00000100
00000010
00000000
00000001
00000000
00000010
,
00000100
00001000
00001000
00000100
,
00010000
00001000
00000000
00100000
00000000
00010000
00000000
01000000
,
00000000
00010000
00100000
00000000
00100000
00000000
00001000
00000000
,
00010000
00001000
00000000
00000010
00000000
00000100
00000000
00000010
,
00000000
00001000
00000100
00000000
00000100
00000000
00001000
00000000
,
00000010
00001000
00000100
00010000
,
00001000
00010000
00001000
00100000
,
00010000
00100000
00010000
01000000
,
00100000
01000000
00010000
00100000
,
00001000
00100000
00001000
00010000
,
00000100
00001000
00000010
00000100
,
00000010
00000100
00000010
00001000
,
00000100
00000010
00000001
00002002
,
00000000
00000000
00000000
00003003
;
