#TITLE:Colours;
#SUBTITLE:;
#ARTIST:The Prodigy;
#TITLETRANSLIT:;
#SUBTITLETRANSLIT:;
#ARTISTTRANSLIT:;
#GENRE:Techno;
#CREDIT:;
#BANNER:colours-bn.png;
#BACKGROUND:colours-bg.png;
#LYRICSPATH:;
#CDTITLE:;
#MUSIC:Colours.ogg;
#OFFSET:-1.602000;
#SAMPLESTART:43.599998;
#SAMPLELENGTH:12.000000;
#SELECTABLE:YES;
#BPMS:0.000000=146.979996
;
#STOPS:
;
#BGCHANGES:;
#KEYSOUNDS:;
#ATTACKS:;

//---------------dance-single - ----------------
#NOTES:
     dance-single:
     :
     Hard:
     8:
     0.595077,0.601400,0.999729,0.052069,0.223898,400.000000,304.000000,96.000000,5.000000,0.000000,0.000000,0.595077,0.601400,0.999729,0.052069,0.223898,400.000000,304.000000,96.000000,5.000000,0.000000,0.000000:
// measure 0
0000
0000
0000
0000
,  // measure 1
0000
0000
0000
0000
,  // measure 2
0000
0000
0000
0000
,  // measure 3
0000
0000
0000
0000
,  // measure 4
0011
0000
0000
0101
0000
0000
0011
0000
0101
0000
0000
0000
0000
0000
0000
0000
,  // measure 5
1010
0000
0000
1100
0000
0000
1010
0000
1100
0000
0000
0000
0000
0000
0000
0000
,  // measure 6
0110
0000
0000
1100
0000
0000
0110
0000
1100
0000
0000
0000
0000
0000
0000
0000
,  // measure 7
0011
0000
0000
0110
0000
0000
0011
0000
0110
0000
0000
0000
0010
0000
0000
0000
,  // measure 8
0001
1000
0000
1000
0100
0010
0100
1000
,  // measure 9
0010
0100
0000
0100
0010
0100
0001
1000
,  // measure 10
1100
0000
0000
1001
0000
0000
1100
0000
1001
0000
0000
0000
0000
0000
0000
0000
,  // measure 11
0011
0000
0000
0101
0000
0000
0011
0000
0101
0000
0000
0000
0010
0000
1000
0000
,  // measure 12
1010
0000
0000
0110
0000
0000
1010
0000
0110
0000
0000
0000
0000
0000
0000
0000
,  // measure 13
0011
0000
0000
1001
0000
0000
0011
0000
1001
0000
0000
0000
0100
0000
0000
0000
,  // measure 14
1100
0000
0000
0110
0000
0000
1100
0000
0110
0000
0000
0000
0000
0000
0000
0000
,  // measure 15
1001
0000
0000
0101
0000
0000
1001
0000
0101
0000
0000
0000
1000
0000
0000
0000
,  // measure 16
0100
0010
0000
0100
0010
0100
0001
0010
,  // measure 17
0100
0010
0000
0001
0100
1000
0100
0001
,  // measure 18
1001
0000
0000
1100
0000
0000
1001
0000
0101
0000
0000
0000
0000
0000
0000
0000
,  // measure 19
0011
0000
0000
1001
0000
0000
1010
0000
1001
0000
0000
0000
0020
0000
0000
0000
,  // measure 20
0130
0000
0000
0101
0000
0000
0001
0000
1001
0000
0000
1000
0000
0000
1010
0000
,  // measure 21
0010
0000
0000
0100
0000
0000
0010
0000
2000
0000
0000
0000
3100
0000
1000
0000
,  // measure 22
0010
0100
0010
1000
0010
0001
0010
0100
,  // measure 23
0010
1000
0010
1000
0010
0001
0010
1000
,  // measure 24
0100
0010
0100
0001
0100
0010
0100
1000
,  // measure 25
0100
0010
0100
0010
0100
0001
0100
1000
,  // measure 26
0001
0000
0000
0110
0000
0000
0000
0000
0000
0000
0000
0000
0010
0000
1000
0000
,  // measure 27
0001
0000
0000
0110
0000
0000
0000
0000
0000
0000
0000
0000
0100
0000
0001
0000
,  // measure 28
0011
0000
0000
0110
0000
0000
1100
0000
0110
0000
0000
0000
0000
0000
0000
0000
,  // measure 29
0101
0000
0000
0110
0000
0000
1010
0000
0110
0000
0000
0000
1000
0000
0100
0000
,  // measure 30
0010
0000
0000
0101
0000
0000
0000
0000
0000
0000
0000
0000
0001
0000
0010
0000
,  // measure 31
0100
0000
0000
1010
0000
0000
0000
0000
0000
0000
0000
0000
0010
0000
1000
0000
,  // measure 32
0001
0000
0000
1001
0000
0000
1000
0000
1001
0000
0000
0001
0000
0000
1001
0000
,  // measure 33
1000
0000
0000
0010
0000
0000
0100
0000
0002
0000
0000
0000
1003
0100
0000
1000
,  // measure 34
0100
1000
0100
1000
0100
1000
0100
1000
,  // measure 35
0100
1000
0100
1000
0010
0100
0001
1000
,  // measure 36
0001
0010
0001
0010
0001
0010
0001
0010
,  // measure 37
0001
0010
0001
0010
0001
0100
0010
0000
,  // measure 38
1000
0000
0100
0000
0010
0000
0000
0100
0000
0000
1000
0000
1000
0000
0000
0000
,  // measure 39
0001
0100
0010
0100
0000
0001
0001
0000
,  // measure 40
1001
0000
0100
0000
1000
0000
0000
0010
0000
0000
0100
0000
0001
0000
0000
0000
,  // measure 41
1010
0000
1000
0000
0100
0000
0000
0010
0000
0000
0001
0000
1000
0000
0000
0000
,  // measure 42
0001
0001
0001
0001
1000
1000
1000
1000
,  // measure 43
0010
1000
0001
0100
0001
0010
0100
1000
,  // measure 44
0010
0000
1000
0000
0100
0000
0000
1100
0000
0000
0000
0000
1000
0000
0000
0000
,  // measure 45
1000
0000
0001
0000
0010
0000
0000
0110
0000
0000
0000
0000
0010
0000
0000
0000
,  // measure 46
0001
0000
1000
0000
0010
0000
0000
1010
0000
0000
0000
0000
0001
0000
0000
0000
,  // measure 47
1000
0001
0100
0001
0000
0010
0001
1000
,  // measure 48
0100
0000
0000
0011
0000
0000
0000
0000
0000
0000
0000
0000
1000
0000
0001
0000
,  // measure 49
0100
0000
0000
1010
0000
0000
0000
0000
0000
0000
0000
0000
0010
0000
0100
0000
,  // measure 50
0110
0000
0000
0101
0000
0000
0110
0000
1010
0000
0000
0000
0000
0000
0000
0000
,  // measure 51
1100
0000
0000
0110
0000
0000
0011
0000
0110
0000
0000
0000
1000
0000
0001
0000
,  // measure 52
1000
0000
0000
0101
0000
0000
0000
0000
0000
0000
0000
0000
0001
0000
1000
0000
,  // measure 53
0001
0000
0000
1100
0000
0000
0000
0000
0000
0000
0000
0000
0001
0000
0100
0000
,  // measure 54
0101
0000
0000
1010
0000
0000
0101
0000
1001
0000
0000
0000
0000
0000
0000
0000
,  // measure 55
1100
0000
0000
0011
0000
0000
1100
0000
1001
0000
0000
0000
0010
0000
0100
0000
,  // measure 56
0001
0000
0000
0101
0000
0000
1000
0000
0010
0000
0000
1010
0000
0000
0010
0000
,  // measure 57
0100
0000
0000
0101
0000
0000
1001
0000
2200
0000
0000
0000
3300
0000
0000
0000
;

//---------------dance-single - ----------------
#NOTES:
     dance-single:
     :
     Beginner:
     1:
     0.104138,0.209579,0.104138,0.124966,0.000000,70.000000,60.000000,10.000000,12.000000,0.000000,0.000000,0.104138,0.209579,0.104138,0.124966,0.000000,70.000000,60.000000,10.000000,12.000000,0.000000,0.000000:
0000
0000
0000
0000
,
0000
0000
0000
0000
,
0000
0000
0000
0000
,
0000
0000
0000
0001
,
0001
0000
0000
0000
,
0000
0000
0000
0010
,
0010
0000
0000
0000
,
0000
0000
0000
1000
,
2000
0000
3000
0000
,
0002
0000
0003
0000
,
0100
0000
0000
0000
,
0000
0000
0000
0010
,
0010
0000
0000
0000
,
0000
0000
0000
0001
,
0001
0000
0000
0000
,
0000
0000
0000
0100
,
0200
0000
0300
0000
,
0020
0000
0030
0000
,
1001
0000
0000
0000
,
0110
0000
0000
0000
,
1000
0000
1000
0000
,
1000
0000
0010
0000
,
0200
0000
0300
0000
,
0200
0000
0300
0000
,
0002
0000
0003
0000
,
0001
0000
0000
1000
,
1000
0000
0000
0010
,
0010
0000
0000
1001
,
1001
0000
0000
0000
,
0000
0000
0000
0001
,
0001
0000
0000
0100
,
0100
0000
0000
0110
,
0110
0000
0000
0000
,
0000
0000
0000
0000
,
1000
0000
0000
0000
,
0000
0000
0000
0000
,
0001
0000
0000
0000
,
0000
0000
0000
0000
,
0200
0000
0000
0000
,
0000
0000
0000
0000
,
0000
0000
0000
0000
,
0000
0000
0300
0000
,
0010
0000
0100
0000
,
0010
0000
0000
0000
,
2000
0000
3000
0000
,
2000
0000
3000
0000
,
0020
0000
0030
0000
,
0010
0000
0000
0100
,
0100
0000
0000
0001
,
0001
0000
0000
1001
,
1001
0000
0000
0000
,
0000
0000
0000
0010
,
0010
0000
0000
1000
,
1000
0000
0000
1001
,
1001
0000
0000
0000
,
0000
0000
0000
0000
,
0020
0000
0000
0000
,
0000
0000
0030
0000
;

//---------------dance-single - ----------------
#NOTES:
     dance-single:
     :
     Easy:
     4:
     0.288612,0.299398,0.322829,0.062483,0.000000,194.000000,163.000000,31.000000,6.000000,0.000000,0.000000,0.288612,0.299398,0.322829,0.062483,0.000000,194.000000,163.000000,31.000000,6.000000,0.000000,0.000000:
0000
0000
0000
0000
,
0000
0000
0000
0000
,
0000
0000
0000
0000
,
0000
0000
0000
0000
,
1000
1000
1010
0000
,
1000
1000
1100
0000
,
0001
0001
0101
0000
,
0001
0001
0011
0000
,
0001
0100
1000
0100
,
0001
0010
1000
0010
,
0001
0001
0011
0000
,
0001
0001
0101
0000
,
0100
0100
0101
0000
,
0010
0010
1010
0000
,
0100
0100
1100
0000
,
0010
0010
0011
0000
,
1000
0010
0001
0010
,
1000
0100
0001
0100
,
1000
1000
1010
0000
,
1000
1000
1100
0000
,
2000
0000
0002
3003
,
0100
0010
1001
0000
,
0010
1000
1000
0001
,
0100
0001
0001
1000
,
0010
1000
0100
0010
,
0001
0100
0001
1000
,
1010
0000
0000
0001
,
0101
0000
0000
0100
,
0001
1000
1001
0000
,
1000
0001
1000
0100
,
0110
0000
0000
1000
,
1010
0000
0000
0001
,
0100
0001
0100
0001
,
1000
0010
1010
0000
,
0001
0010
0001
0010
,
0001
0010
0100
1000
,
0010
1000
0010
1000
,
0010
0100
0001
1000
,
2002
0000
0000
3003
,
0020
0000
0000
0000
,
0200
0000
0000
0000
,
0000
0000
0000
0330
,
1000
1000
1000
1000
,
1000
0100
0010
0001
,
0100
0001
0100
0010
,
1000
0010
1000
0100
,
0010
0001
0010
0100
,
1000
0010
1000
0001
,
0101
0000
0000
1000
,
1010
0000
0000
0001
,
1000
0100
1100
0000
,
0001
0010
0100
0010
,
0011
0000
0000
0100
,
1100
0000
0000
0010
,
0100
0001
1001
0000
,
0010
1000
1001
0000
,
0101
0000
1001
0000
,
1010
0000
1001
0000
;

//---------------dance-single - ----------------
#NOTES:
     dance-single:
     :
     Challenge:
     10:
     0.795915,0.988014,0.489451,0.104138,0.817487,535.000000,488.000000,47.000000,10.000000,0.000000,0.000000,0.795915,0.988014,0.489451,0.104138,0.817487,535.000000,488.000000,47.000000,10.000000,0.000000,0.000000:
0000
0000
0000
0000
,
0000
0000
0000
0000
,
0000
0000
0000
0000
,
0000
0000
0000
0000
,
2010
0000
0000
0010
0000
0000
0100
0000
3100
0000
0000
0000
0000
0000
0000
0000
,
0012
0000
0000
0100
0000
0000
0100
0000
0103
0000
0000
0000
0000
0000
0000
0000
,
0210
0000
0000
0010
0000
0000
0001
0000
0301
0000
0000
0000
0000
0000
0000
0000
,
0120
0000
0000
0100
0000
0000
1000
0000
1030
0000
0000
0000
0010
0100
0010
0100
,
0010
1000
0100
0010
0100
1000
0001
0010
,
0100
1000
0010
1000
0100
0010
0001
0100
,
0201
0000
0000
0001
0000
0000
1000
0000
1300
0000
0000
0000
0000
0000
0000
0000
,
1200
0000
0000
1000
0000
0000
0001
0000
0301
0000
0000
0000
0000
0000
0000
0000
,
2001
0000
0000
0001
0000
0000
0010
0000
3100
0000
0000
0000
0000
0000
0000
0000
,
1002
0000
0000
1000
0000
0000
0100
0000
0013
0000
0000
0000
0000
0000
0000
0000
,
2010
0000
0000
0010
0000
0000
0100
0000
3001
0000
0000
0000
0000
0000
0000
0000
,
0102
0000
0000
0100
0000
0000
0010
0000
1003
0000
0000
0000
0010
1000
0000
0001
,
0100
0001
0010
0001
0100
0010
1000
0100
,
0010
0001
0100
0001
0010
0100
1000
0010
,
1010
0000
0000
0101
0000
0000
1001
0000
0110
0000
0000
0000
0000
0000
0000
0000
,
0101
0000
0000
1010
0000
0000
1001
0000
0110
0000
0000
0000
0001
1000
0000
0100
,
1000
0000
0010
1000
0000
0000
1100
0000
1010
0000
1000
0100
0000
0000
0010
0000
,
0011
0000
0001
0100
0000
0000
0011
0000
0101
0000
0000
0000
0100
0001
0100
0001
,
0010
0100
0010
0100
0010
0001
0010
0001
0010
0100
0010
0001
0010
0100
0010
0001
,
0100
0010
0100
0010
0100
1000
0100
1000
0100
0010
0100
1000
0100
0010
0100
0000
,
0001
0100
0001
0100
0001
1000
0001
1000
0001
0100
0001
1000
0001
0100
0001
1000
,
0010
1000
0001
1000
0010
0100
0001
0100
0010
0000
0010
0000
1000
0001
0000
0001
,
1000
0000
0100
0000
0010
0000
0001
1000
0001
0000
0010
0000
0100
0000
1000
0000
,
0010
0000
0100
0000
0001
0000
1000
0001
1000
0000
0001
0000
0100
0000
0010
0000
,
0100
0001
0000
0100
0001
0000
0100
0001
0100
0001
0000
0100
0001
0000
1000
0010
,
1000
0010
0000
1000
0010
0000
1000
0010
1000
0010
0000
1000
0010
0100
0000
0100
,
0010
0000
1000
0000
0001
0000
0100
0001
0100
0000
0001
0000
1000
0000
0010
0000
,
1000
0000
0100
0000
0010
0000
0001
1000
0001
0000
0010
0000
0100
0000
1000
0000
,
1001
0000
0000
0110
0000
0000
0101
0000
1010
0000
0000
1100
0000
0000
0011
0000
,
0110
0000
0000
1100
0000
0000
0110
0000
0011
0000
0000
0000
1000
0001
0000
0001
,
1000
0000
0100
0000
0010
0000
0100
0000
1000
0000
0100
0000
0010
0000
0100
1000
,
0010
0100
0001
0010
0100
0010
0001
0100
0010
0000
1000
0000
0001
0000
0100
0000
,
0010
0000
0100
0000
1000
0000
0100
0000
0010
0000
0100
0000
1000
0000
0100
0010
,
0001
0000
0100
0001
0100
0000
0010
1000
0001
0000
1000
0100
1000
0000
0000
0000
,
1001
0000
0100
0000
0100
0000
0001
1000
0000
0000
0010
0000
0010
0000
0000
0000
,
1100
0000
0010
0000
0010
0000
1000
0100
0000
0000
1000
0000
0001
0100
0000
0000
,
0101
0000
0010
0000
0010
0000
0001
0100
0000
0000
0010
0000
0010
0000
0000
0000
,
0110
0000
1000
0000
1000
0000
0010
0100
0000
0000
0001
0000
0001
0000
0000
0000
,
0100
0100
0100
0100
0001
0001
0001
0001
,
0100
0010
0100
0010
0100
0010
0100
0010
0100
0010
0100
0010
0100
0010
0100
0010
,
1000
0100
1000
0100
1000
0010
1000
0010
1000
0100
1000
0010
1000
0100
1000
0010
,
0100
0010
0100
0010
0100
0001
0100
0001
0100
0010
0100
0001
0100
0010
0100
0000
,
0010
0100
0010
0100
0010
1000
0010
1000
0010
0100
0010
1000
0010
0100
0010
1000
,
0001
0100
0010
0100
0001
0010
0100
1000
0010
0000
1000
0000
0100
0010
0000
0010
,
0001
0000
0100
0000
0010
0000
1000
0001
1000
0000
0010
0000
0100
0000
0001
0000
,
1000
0000
0001
0000
0100
0000
0010
0100
0010
0000
0100
0000
0001
0000
1000
0000
,
0100
1000
0000
0100
1000
0000
0100
1000
0100
1000
0000
0100
1000
0000
0001
0100
,
0001
0100
0000
0001
0100
0000
0001
0100
0001
0100
0000
0001
0100
0010
1000
0001
,
0100
0000
0010
0000
1000
0000
0001
1000
0001
0000
1000
0000
0010
0000
0100
0000
,
0010
0000
1000
0000
0001
0000
0100
0001
0100
0000
0001
0000
1000
0000
0100
0000
,
0010
0001
0000
0010
0001
0000
0010
0001
0010
0001
0000
0010
0001
0000
1000
0010
,
1000
0010
0000
1000
0010
0000
1000
0010
1000
0010
0000
1000
0010
1000
0010
0000
,
1001
0000
0000
0101
0000
0000
1001
0000
1001
0000
0000
1100
0000
0000
1001
0000
,
1001
0000
0000
0101
0000
0000
0110
0000
0110
0000
0000
0000
0000
0000
0000
0000
;

//---------------dance-single - ----------------
#NOTES:
     dance-single:
     :
     Medium:
     5:
     0.368948,0.479037,0.333243,0.218691,0.000000,248.000000,216.000000,32.000000,21.000000,0.000000,0.000000,0.368948,0.479037,0.333243,0.218691,0.000000,248.000000,216.000000,32.000000,21.000000,0.000000,0.000000:
0000
0000
0000
0000
,
0000
0000
0000
0000
,
0000
0000
0000
0000
,
0000
0000
0000
0000
0000
0000
1000
0100
,
1000
0001
0000
0000
0000
0000
0000
0000
,
0000
0000
0000
0000
0000
0000
0001
0100
,
1000
0000
0000
0000
,
0000
0000
0000
0000
0000
0000
0100
0001
,
0010
0100
0010
0001
1000
0100
1000
0000
,
0010
1000
0010
0100
0001
0010
0001
1000
,
0001
0000
0000
0000
,
0000
0000
0000
0000
0000
0000
0010
0100
,
0001
1000
0000
0000
0000
0000
0000
0000
,
0000
0000
0000
0000
0000
0000
1000
0010
,
0001
0000
0000
0000
,
0000
0000
0000
0000
0000
0000
0100
0010
,
1000
0100
1000
0010
0100
0001
0010
0000
,
0001
0100
0001
0010
0100
1000
0010
0100
,
0020
0000
0000
0030
1100
0000
0000
0000
,
0200
0000
0000
0300
0011
0000
1000
0000
,
2002
0000
3003
0002
2000
0000
3003
2000
,
0002
0000
3003
0000
0110
0000
1000
0100
,
1000
1010
1000
0100
,
1000
1100
1000
0010
,
0100
0101
0100
0010
,
0100
0110
0100
0002
,
1003
0100
0010
0010
,
0001
0100
0010
0010
,
1000
1100
0001
0101
,
1000
1100
0001
0101
,
0001
1000
0010
0010
,
1000
0001
0100
0100
,
0220
0000
0330
0020
0200
0000
0330
0200
,
0020
0330
1001
0010
,
0100
0001
0100
0001
,
0100
0000
0001
0000
1000
0010
1000
0100
,
1000
0100
1000
0100
,
1000
0000
0100
0000
1000
0001
0100
0000
,
1001
0000
0010
0000
0100
0010
0010
0000
,
1001
0000
1000
0001
0000
0001
1000
0000
,
0110
0000
1000
0000
0010
1000
1000
0000
,
1100
0000
0010
0000
1000
0100
0100
0000
,
0010
1001
0010
1001
,
0100
0010
0100
0010
0100
0010
0100
0010
,
0001
1000
0010
0000
1001
0000
0000
0000
,
1000
0001
0100
0000
0101
0000
0000
0000
,
0010
1000
0100
0000
1010
0000
0000
0000
,
0100
0001
1000
0010
0000
0000
1000
0000
,
0001
0100
1000
1000
,
0100
0001
0010
0010
,
1000
1010
0001
0011
,
1000
1010
0001
0011
,
0100
0001
0010
0010
,
0100
1000
0001
0001
,
1000
1100
0001
0101
,
1000
1100
0001
0101
,
2002
0000
3003
0200
0020
0000
0330
0002
,
2000
0000
3003
0010
0100
0000
0000
0000
;
