#TITLE:Bubble Pop!;
#SUBTITLE:;
#ARTIST:HyunA;
#TITLETRANSLIT:;
#SUBTITLETRANSLIT:;
#ARTISTTRANSLIT:;
#GENRE:Pop;
#CREDIT:;
#BANNER:bubblepop-bn.png;
#BACKGROUND:bubblepop-bg.png;
#LYRICSPATH:;
#CDTITLE:;
#MUSIC:Bubble Pop!.ogg;
#OFFSET:-3.287000;
#SAMPLESTART:39.009998;
#SAMPLELENGTH:13.000000;
#SELECTABLE:YES;
#BPMS:0.000000=146.020004
;
#STOPS:
;
#BGCHANGES:;
#KEYSOUNDS:;
#ATTACKS:;

//---------------dance-single - ----------------
#NOTES:
     dance-single:
     :
     Medium:
     6:
     0.429443,0.437782,0.087556,0.145927,0.000000,309.000000,300.000000,9.000000,15.000000,0.000000,0.000000,0.429443,0.437782,0.087556,0.145927,0.000000,309.000000,300.000000,9.000000,15.000000,0.000000,0.000000:
0010
1100
0010
0101
,
0010
1100
0010
1001
,
0001
0000
0001
0000
0001
0010
0100
1000
,
0000
1000
0001
0000
0200
0000
0300
0000
,
0000
0000
0010
0000
0100
0000
0010
1000
,
0100
0000
1000
0001
1000
0001
1000
0001
,
1000
0000
0001
1000
0001
0000
0010
0100
,
1000
0001
1000
0001
,
0010
0000
0100
1000
0100
0000
1000
0100
,
0010
0000
0001
0100
0010
0000
1000
0000
,
0001
0000
0100
0000
0001
0010
0000
0011
,
0000
0001
1000
1000
,
0010
0000
1000
0000
0100
1000
0000
0100
,
1000
0000
0010
0100
0000
0010
0000
0000
,
0100
0000
0001
0010
0001
0000
0010
0001
,
0010
0000
0001
0100
0010
0000
1000
0000
,
0010
0000
1000
0100
1000
0000
0100
1000
,
0100
0000
1000
0100
0010
0000
0001
0000
,
1000
0000
0001
0000
1000
0010
0000
1010
,
0000
0001
0100
0010
,
1000
0000
0010
0100
,
0001
0000
0010
0100
0000
0010
0002
0000
,
1003
0000
0010
0000
0100
0010
0100
0000
,
0001
1000
0001
2000
,
3010
0000
0100
0000
0010
1000
0010
0000
,
1000
0100
1000
0200
,
0310
0000
0001
0000
0100
0001
0100
0000
,
0010
0000
1000
0001
0000
1000
0001
0000
,
0010
0001
0010
0001
0010
0001
0010
0000
,
0001
0100
0001
0100
0001
0000
2000
0000
,
3100
0000
0010
0000
0100
1000
0100
0000
,
1000
0010
1000
0020
,
0130
0000
0001
0000
0010
0001
0010
0000
,
0001
0100
0001
0200
,
0310
0000
1000
0000
0010
0100
0001
0000
,
0010
0000
0100
1000
0000
0001
0000
0000
,
0100
0010
0100
0010
0100
0010
0100
0000
,
0010
1000
0010
1000
0010
0000
1000
0000
,
0010
0000
1000
0100
0010
0000
0001
0000
,
1000
0001
0000
1000
0000
0000
0020
0000
,
0130
0000
0010
0000
0100
0001
0010
0000
,
0100
0000
1000
0010
0000
1000
0020
0000
,
0130
0000
0001
0000
1000
0001
0100
0000
,
0001
0000
1000
0010
0000
1000
0010
0000
,
1000
0001
1000
0001
1000
0001
1000
0000
,
0001
0010
0001
0010
0001
0000
2000
0000
,
3100
0000
0010
0000
0001
0100
0010
0000
,
1000
0000
0100
1000
0000
0100
2000
0000
,
3001
0000
0010
0000
0100
0010
0001
0000
,
1000
0000
0010
1000
0000
0001
0000
0010
,
0001
0000
0100
0000
0010
1000
0100
0000
,
0010
0000
0100
1000
0000
0001
1000
0000
,
0001
0010
0001
0010
0001
0010
0001
0000
,
0100
1000
0100
1000
0100
0000
1001
0000
,
0010
0000
0100
0000
0010
0001
0010
0001
,
0000
0001
0010
0000
2200
0000
3300
0000
,
0010
0000
1000
0000
0001
0000
0100
0001
,
0100
0000
0010
1000
0010
1000
0010
1000
,
0010
0000
1000
0000
0100
0010
0100
0010
,
0000
0001
1000
0000
0220
0000
0000
0000
,
0330
0000
0000
0000
;

//---------------dance-single - ----------------
#NOTES:
     dance-single:
     :
     Easy:
     3:
     0.287685,0.289422,0.029185,0.058371,0.000000,207.000000,204.000000,3.000000,6.000000,0.000000,0.000000,0.287685,0.289422,0.029185,0.058371,0.000000,207.000000,204.000000,3.000000,6.000000,0.000000,0.000000:
0010
1000
0010
1000
,
0010
1000
0001
0001
,
0100
0001
0010
0100
,
0010
0001
2000
3010
,
0000
0010
0100
0001
,
1000
0010
0010
0010
,
1000
0010
0100
0010
,
1000
0100
0010
0001
,
0100
0001
0100
0010
,
1000
0010
0100
0001
,
0020
0001
0001
0031
,
0000
1001
0001
1000
,
0020
1000
1000
1030
,
0001
1000
0000
0010
,
0100
0001
0001
0010
,
0001
0100
0100
0001
,
0010
0100
0100
1000
,
0010
1000
1000
0010
,
2000
0001
0001
3001
,
0000
1001
0001
1000
,
0010
0000
1000
0001
,
0200
0000
0000
0310
,
0100
0001
1000
0010
,
1000
0000
0000
0100
,
1000
0010
0100
0001
,
0010
0100
0000
0010
,
0001
0100
0010
1000
,
0001
0000
0000
0000
,
0010
0010
0010
0100
,
0010
0010
1000
0001
,
0010
0001
0100
0010
,
1000
0000
0000
0100
,
1000
0010
0100
0001
,
0010
0001
0000
1000
,
0010
0100
0010
1000
,
0001
0000
0000
0000
,
0100
0100
0100
0010
,
0100
0100
0001
1000
,
0010
1000
0100
0010
,
0100
0000
0000
1000
,
0001
0010
0100
0010
,
1000
0010
0000
0001
,
0100
0010
1000
0100
,
0010
0000
0000
0000
,
0010
0010
0010
0100
,
0010
0010
0001
1000
,
0010
1000
0100
0001
,
0100
0000
0000
1000
,
0010
0100
1000
0100
,
0001
0000
0000
0010
,
0100
0010
0001
1000
,
0100
0000
0000
0000
,
0100
0100
0100
0010
,
0100
0100
1000
0001
,
0010
0100
0010
0001
,
0010
0100
2000
3001
,
0000
1000
0001
0100
,
0010
1000
1000
1000
,
0001
0010
0100
0000
,
0000
1000
1001
0000
;

//---------------dance-single - ----------------
#NOTES:
     dance-single:
     :
     Beginner:
     1:
     0.125080,0.260480,0.009728,0.000000,0.000000,90.000000,89.000000,1.000000,0.000000,0.000000,0.000000,0.125080,0.260480,0.009728,0.000000,0.000000,90.000000,89.000000,1.000000,0.000000,0.000000,0.000000:
0000
1000
0000
1000
,
0000
1000
0000
0001
,
0001
0000
0000
0000
,
0000
0000
0100
0000
,
0000
0000
0000
0000
,
0001
0000
0000
1000
,
1000
0000
0000
0010
,
0010
0000
0000
0000
,
1000
0000
0000
0001
,
0001
0000
0000
0100
,
0100
0000
0000
0000
,
0000
0000
0010
0000
,
0000
0000
0000
0000
,
0100
0100
0100
0000
,
0000
0001
0000
0000
,
0000
1000
0000
0000
,
0000
0010
0000
0000
,
0000
1000
0000
0000
,
0000
0000
0000
0000
,
0000
0001
0001
0000
,
0000
0000
1000
1000
,
1000
0000
0000
0001
,
0001
0000
0000
0000
,
0000
0000
0000
0100
,
0100
0000
0000
0000
,
0000
0000
0000
0010
,
0010
0000
0000
0000
,
0000
0000
0000
0000
,
0010
0010
0010
0010
,
0010
0010
0010
0010
,
0010
0000
0000
0000
,
0000
0000
0000
0100
,
0100
0000
0000
0000
,
0000
0000
0000
0001
,
0001
0000
0000
0000
,
0000
0000
0000
0000
,
0100
0100
0100
0100
,
0100
0100
0100
0100
,
0100
0000
0000
0000
,
0000
0000
0000
0010
,
0010
0000
0000
0000
,
0000
0000
0000
1000
,
1000
0000
0000
0000
,
0000
0000
0000
0000
,
0010
0010
0010
0010
,
0010
0010
0010
0010
,
0010
0000
0000
0000
,
0000
0000
0000
0001
,
0001
0000
0000
0000
,
0000
0000
0000
0100
,
0100
0000
0000
0000
,
0000
0000
0000
0000
,
0100
0100
0100
0100
,
0100
0100
0100
0100
,
0100
0000
0000
0000
,
0000
0000
0001
0000
,
0000
1000
1000
0000
,
0010
0000
0000
0000
,
1000
0000
0000
0000
,
0000
0000
0110
0000
;

//---------------dance-single - ----------------
#NOTES:
     dance-single:
     :
     Hard:
     7:
     0.521168,0.525338,0.554523,0.136199,0.000000,375.000000,318.000000,57.000000,14.000000,0.000000,0.000000,0.521168,0.525338,0.554523,0.136199,0.000000,375.000000,318.000000,57.000000,14.000000,0.000000,0.000000:
// measure 0
0020
0001
0000
0130
,  // measure 1
0200
1000
0000
0310
,  // measure 2
1001
0000
0110
0000
0100
0001
1000
0010
,  // measure 3
0000
0010
1000
0000
0002
0000
0000
0000
,  // measure 4
0013
0000
1001
0000
0110
0000
0100
0010
,  // measure 5
0110
0000
1000
0001
0000
1001
0000
0000
,  // measure 6
0001
0000
0001
0100
1000
0000
0001
0010
,  // measure 7
1000
0000
0001
0100
1000
0100
0001
0000
,  // measure 8
1000
0000
1000
0100
0001
0000
1000
0010
,  // measure 9
0001
0000
1000
0100
0001
0100
1000
0000
,  // measure 10
2001
0000
3010
0000
0010
0100
0001
1000
,  // measure 11
0000
0000
0000
0100
0010
1000
0001
1000
,  // measure 12
1002
0000
0103
0000
0100
0001
1000
0010
,  // measure 13
1010
0000
0100
0001
0000
0101
0000
0000
,  // measure 14
1001
0000
0010
1000
0010
0000
0100
0001
,  // measure 15
0100
0000
0001
0010
0100
1000
0001
0000
,  // measure 16
1001
0000
1000
0010
1000
0000
0001
0100
,  // measure 17
0001
0000
0100
0010
1000
0001
0100
0000
,  // measure 18
0210
0000
0301
0000
1000
0100
0010
0001
,  // measure 19
0000
0000
0000
0100
0010
1000
0001
0100
,  // measure 20
0110
0000
0000
0000
1000
0100
0010
0001
,  // measure 21
0011
0000
0100
1000
0000
1000
0100
0000
,  // measure 22
0011
0000
0100
0000
1000
0100
0010
0000
,  // measure 23
0001
0000
0001
1000
0000
1000
0001
0000
,  // measure 24
0101
0000
0010
0000
1000
0001
0100
0000
,  // measure 25
1010
0000
1000
0001
0000
0001
1000
0000
,  // measure 26
1100
0000
0010
0000
0001
0100
1000
0000
,  // measure 27
0100
0000
0001
1000
0000
0010
0100
0000
,  // measure 28
1000
0100
1000
0100
1000
0100
1100
0000
,  // measure 29
0001
0100
0001
0100
0101
0000
1100
0000
,  // measure 30
0011
0000
0001
0010
1000
0010
0001
0000
,  // measure 31
1001
0000
1000
0010
0000
0001
0010
0000
,  // measure 32
1001
0000
1000
0100
0001
0100
1000
0000
,  // measure 33
1001
0000
0001
0100
0000
1000
0100
0000
,  // measure 34
1001
0000
0010
0000
0100
0010
0100
0000
,  // measure 35
1001
0000
0010
0100
0000
0010
0000
0000
,  // measure 36
0001
0010
0001
0010
0001
0010
0011
0000
,  // measure 37
1000
0010
1000
0010
1010
0000
0011
0000
,  // measure 38
1001
0000
0110
0000
0100
0001
1000
0000
,  // measure 39
0110
0000
1000
0001
0000
0100
0001
0000
,  // measure 40
1001
0000
0110
0000
0010
1000
0100
0000
,  // measure 41
1100
0000
0010
0001
0000
0100
0010
0000
,  // measure 42
1001
0000
0101
0000
0010
1000
0100
0000
,  // measure 43
0001
0000
0100
1000
0000
0010
0100
0000
,  // measure 44
0001
0100
0001
0100
0001
0100
0101
0000
,  // measure 45
1000
0100
1000
0100
1100
0000
0101
0000
,  // measure 46
1001
0000
0001
0010
0100
1000
0001
0000
,  // measure 47
1001
0000
1000
0100
0000
0010
0001
0000
,  // measure 48
0110
0000
1000
0100
0010
0001
1000
0000
,  // measure 49
0101
0000
1000
0100
0000
0001
0100
0000
,  // measure 50
1100
0000
0010
0100
0001
1000
0010
0000
,  // measure 51
0110
0000
1000
0010
0000
0001
0010
0000
,  // measure 52
1000
0010
1000
0010
1000
0010
1010
0000
,  // measure 53
0001
0010
0001
0010
0011
0000
1010
0000
,  // measure 54
0002
0000
2003
0000
3001
0010
1000
0010
,  // measure 55
0000
0001
1000
0000
2002
0000
3003
0000
,  // measure 56
0110
0000
2000
0000
3002
0000
1003
0100
,  // measure 57
1100
0000
0010
0001
0000
0010
0001
0000
,  // measure 58
0101
0000
1010
0000
0001
0100
0010
1000
,  // measure 59
0000
1000
0010
0000
0202
0000
0000
0000
,  // measure 60
0303
0000
0000
0000
;
