#TITLE:Bright Lights Bigger City;
#SUBTITLE:(Dave Wrangler Remix);
#ARTIST:Cee Lo Green;
#TITLETRANSLIT:;
#SUBTITLETRANSLIT:;
#ARTISTTRANSLIT:;
#GENRE:Pop;
#CREDIT:;
#BANNER:blbcremix-bn.png;
#BACKGROUND:blbcremix-bg.png;
#LYRICSPATH:;
#CDTITLE:;
#MUSIC:Bright Lights Bigger City (Dave Wrangler Remix).ogg;
#OFFSET:-0.020000;
#SAMPLESTART:53.439999;
#SAMPLELENGTH:12.000000;
#SELECTABLE:YES;
#BPMS:0.000000=124.000000
;
#STOPS:
;
#BGCHANGES:;
#KEYSOUNDS:;
#ATTACKS:;

//---------------dance-single - ----------------
#NOTES:
     dance-single:
     :
     Hard:
     7:
     0.417953,0.427050,0.355193,0.121513,0.051410,313.000000,275.000000,38.000000,13.000000,0.000000,0.000000,0.417953,0.427050,0.355193,0.121513,0.051410,313.000000,275.000000,38.000000,13.000000,0.000000,0.000000:
0000
0000
0000
0000
,
0000
0000
0000
0000
,
0000
0000
0000
0000
,
0000
0000
0000
0000
0000
0000
0000
0000
0000
0000
0010
0100
0010
0000
0100
0000
,
0001
0000
0000
0101
0000
1000
0100
0010
,
0100
0000
0000
1010
0000
0100
0001
0010
,
0001
0000
0000
1001
0000
0010
0100
0010
,
2000
0000
3200
0000
0320
0000
0031
1000
,
0001
0000
0000
0101
0000
0010
1000
0100
,
1000
0000
0000
0110
0000
0100
0001
1000
,
0010
0000
0000
0101
0000
0001
1000
0001
,
1000
0100
0010
0001
,
1000
0000
0100
0000
1000
0000
0100
1000
0000
0000
0001
0000
1000
0000
0000
0000
,
1000
0000
0001
0000
1000
0000
0001
1000
0000
0000
0001
0000
0010
0000
0000
0000
,
0010
0000
0001
0000
0010
0000
0001
0010
0000
0000
0100
0000
0010
0000
0000
0000
,
0100
0000
0010
0000
0100
0000
0010
0000
1000
0000
0000
0001
0000
0000
0000
0000
,
0010
0000
1000
0000
0010
0000
1000
0010
0000
0000
0100
0000
0001
0000
0000
0000
,
0001
0000
0100
0000
0001
0000
0100
0001
0000
0000
0100
0000
0010
0000
0000
0000
,
0010
0000
0100
0000
0010
0000
0100
0010
0000
0000
1000
0000
0100
0000
0000
0000
,
0100
0000
1000
0000
0100
0000
1000
0000
0010
0000
0000
0100
0000
0000
0000
0000
,
0010
0100
0001
0100
0010
0100
0001
0100
,
0001
0100
0010
1000
0001
0000
1000
0000
,
0100
0010
1000
0010
0100
0010
1000
0010
,
1000
0000
0100
0000
0010
0000
0001
0000
0100
0000
0000
0010
0000
0000
1000
0000
,
0100
0010
0001
0010
0100
0010
0001
0010
,
0100
0010
0001
1000
1001
0000
1000
0000
,
0010
0100
0001
0100
0010
0100
0001
0100
,
0010
0000
0100
0000
0001
1000
0010
0000
,
1000
0000
0000
0011
0000
0001
1000
0001
,
1000
0000
0000
0101
0000
0001
1000
0010
,
0100
0000
0000
0110
0000
0100
0010
1000
,
0001
1001
1000
1001
,
0001
0000
0000
1010
0000
1000
0001
1000
,
0001
0000
0000
1100
0000
1000
0001
0100
,
0010
0000
0000
0110
0000
0010
0100
0001
,
1000
0001
0110
1001
,
0020
0000
0030
2200
0000
3300
0001
0000
,
0200
0000
0300
0022
0000
0033
1000
0000
,
0002
0000
0003
0220
0000
0330
1000
0000
,
0001
0000
0100
0000
0010
1000
0100
0010
,
0001
0000
0001
1001
0000
1000
0010
0000
,
1010
0000
1000
1001
0000
0001
0100
0000
,
0110
0000
0100
0101
0000
0001
1000
0000
,
0010
0100
0000
0000
0110
0000
0000
0000
1000
0000
1000
0000
0001
0000
0001
0000
,
0001
0000
0000
1010
0000
1000
0001
1000
,
0001
0000
0000
1100
0000
0001
1000
0010
,
0100
0000
0000
0110
0000
0010
0100
0001
,
1000
1001
0001
1001
,
1000
0000
0000
0011
0000
0001
1000
0001
,
1000
0000
0000
0101
0000
0001
1000
0010
,
0100
0000
0000
0110
0000
0100
0010
1000
,
1001
0110
1001
0110
,
1000
0001
0100
0010
1000
0001
0100
0010
,
0200
0000
0000
0300
;

//---------------dance-single - ----------------
#NOTES:
     dance-single:
     :
     Medium:
     5:
     0.308457,0.378561,0.317805,0.327152,0.000000,231.000000,197.000000,34.000000,35.000000,0.000000,0.000000,0.308457,0.378561,0.317805,0.327152,0.000000,231.000000,197.000000,34.000000,35.000000,0.000000,0.000000:
0000
0000
0000
0000
,
0000
0000
0000
0000
,
0000
0000
0000
0000
,
0000
0000
0000
0000
0000
0100
0010
0100
,
1000
0000
0000
0101
0000
0000
0000
0000
,
0001
0000
0000
1100
0000
0000
0000
0000
,
0010
0000
0000
1001
0000
0000
0000
0000
,
0002
0000
0203
0000
0320
0000
1030
0001
,
1000
0000
0000
0011
0000
0000
0000
0000
,
0001
0000
0000
1010
0000
0000
0000
0010
,
0100
0000
0000
0011
0000
0000
0000
0000
,
0100
1000
0100
1000
0100
1000
0100
0000
,
1000
0010
0100
0000
0001
0000
0011
0000
,
0001
0100
0010
0000
1000
0000
1010
0000
,
1000
0001
1000
0000
0010
0100
0010
0000
,
1000
0001
1000
0001
2000
0000
3002
0000
,
1003
0100
0010
0000
0001
0000
0101
0000
,
0001
0010
0100
0000
1000
0000
1100
0000
,
1000
0100
1000
0000
0001
0010
0001
0000
,
0100
0010
0100
0010
0100
0000
1001
0000
,
0001
0010
0100
0000
1000
0100
0010
0000
,
0001
1000
0010
0000
,
1000
0010
0100
0000
0001
0100
0010
0000
,
1000
0001
0200
0320
,
0130
0001
0010
0000
0100
1000
0010
0000
,
0100
0010
0001
0000
,
0001
1000
0010
0000
1000
0001
0100
0000
,
0010
0010
0010
0110
,
0100
0000
0000
0011
0000
0000
0000
0000
,
0100
0000
0000
1010
0000
0000
0000
0000
,
0001
0000
0000
0110
0000
0000
0000
0000
,
0002
2003
3020
0230
,
0310
0000
0000
1100
0000
0000
0000
0000
,
0010
0000
0000
0101
0000
0000
0000
0000
,
1000
0000
0000
0110
0000
0000
0000
0000
,
0001
0000
1000
0000
0010
0100
0001
1000
,
0020
0000
0030
2020
0000
3030
1000
0000
,
0002
0000
0003
0202
0000
0303
0100
0000
,
0020
0000
0030
0220
0000
0330
0100
0000
,
0001
0000
1000
0000
0001
1000
0010
0100
,
0020
0000
0030
0220
0000
0330
0100
0000
,
0002
0000
0003
2002
0000
3003
1000
0000
,
0020
0000
0030
2020
0000
3030
1000
0000
,
0002
0000
1003
0000
0010
0100
0010
0100
,
0001
0000
0000
1010
0000
0000
1000
0000
,
0010
0000
0000
0101
0000
0000
0001
0000
,
1000
0000
0000
0110
0000
0000
0001
0000
,
1001
0110
1001
0110
,
0001
0000
0000
1010
0000
0000
1000
0000
,
0001
0000
0000
0110
0000
0000
0100
0000
,
0010
0000
0000
0101
0000
0000
1000
0000
,
0020
0230
0320
0230
,
0301
1000
0001
1000
0001
1000
0001
1000
,
0002
0000
0000
0000
,
0003
0000
0000
0000
;

//---------------dance-single - ----------------
#NOTES:
     dance-single:
     :
     Easy:
     3:
     0.182938,0.214518,0.000000,0.336499,0.000000,137.000000,137.000000,0.000000,36.000000,0.000000,0.000000,0.182938,0.214518,0.000000,0.336499,0.000000,137.000000,137.000000,0.000000,36.000000,0.000000,0.000000:
0000
0000
0000
0010
,
2000
0000
0000
3100
0000
0000
0000
0000
,
0020
0000
0000
1030
0000
0000
0000
0000
,
0002
0000
0000
0103
0000
0000
0000
0000
,
0002
2003
3020
0230
,
0320
0000
0000
0130
0000
0000
0000
0000
,
2000
0000
0000
3010
0000
0000
0000
0000
,
0002
0000
0000
0103
0000
0000
0000
0000
,
0001
0001
0001
0001
,
1000
0100
0010
0000
,
1000
0100
0001
0000
,
1000
0010
0100
0000
,
1000
0001
0100
0100
,
0001
0010
0100
0000
,
0001
0100
1000
0000
,
0001
0100
0010
0000
,
0001
1000
0100
0100
,
1000
1000
0010
0010
,
0000
0000
0000
0000
,
0001
0001
0100
0100
,
0000
0000
0010
0010
,
1000
0001
0100
0000
,
0000
0000
0000
0000
,
0001
1000
0100
0000
,
1000
1000
1000
1000
,
0002
0000
0000
0013
0000
0000
0000
0000
,
0200
0000
0000
0301
0000
0000
0000
0000
,
2000
0000
0000
3010
0000
0000
0000
0000
,
1000
0001
1000
0001
,
2000
0000
0000
3010
0000
0000
0000
0000
,
0200
0000
0000
1300
0000
0000
0000
0000
,
0002
0000
0000
0013
0000
0000
0000
0000
,
0001
0000
0010
0100
,
0002
0000
0000
2000
0000
3003
0010
0000
,
2000
0000
0000
0002
0000
3003
0010
0000
,
0002
0000
0000
2000
0000
3003
0100
0000
,
1000
1000
0001
0001
,
0200
0000
0000
0002
0000
0303
1000
0000
,
0200
0000
0000
2000
0000
3300
0001
0000
,
0020
0000
0000
0002
0000
0033
1000
0000
,
0020
0130
0001
0001
,
2000
0000
0000
3010
0000
0000
0000
0000
,
0200
0000
0000
1300
0000
0000
0000
0000
,
0002
0000
0000
0103
0000
0000
0000
0000
,
0001
0001
1000
1000
,
0002
0000
0000
0103
0000
0000
0000
0000
,
0020
0000
0000
0031
0000
0000
0000
0000
,
2000
0000
0000
3001
0000
0000
0000
0000
,
0100
0010
0100
0010
,
1000
0001
1000
0001
,
2000
0000
0000
0000
,
3000
0000
0000
0000
;

//---------------dance-single - ----------------
#NOTES:
     dance-single:
     :
     Beginner:
     1:
     0.101484,0.166847,0.000000,0.177597,0.000000,76.000000,76.000000,0.000000,19.000000,0.000000,0.000000,0.101484,0.166847,0.000000,0.177597,0.000000,76.000000,76.000000,0.000000,19.000000,0.000000,0.000000:
0000
0000
0000
0100
,
0200
0300
0000
0000
,
0002
0003
0000
0000
,
2000
3000
0000
0000
,
0010
0000
1000
1000
,
2000
3000
0000
0000
,
0200
0300
0000
0000
,
0002
0003
0000
0000
,
0010
0010
0010
0010
,
0010
0000
0000
0000
,
0001
0000
0000
0000
,
1000
0000
0000
0000
,
0001
0000
1000
0000
,
0010
0000
0000
0000
,
1000
0000
0000
0000
,
0001
0000
0000
0000
,
0100
0000
0001
0000
,
0010
0000
0000
0000
,
0000
0000
0000
0000
,
0001
0000
0000
0000
,
0000
0000
1000
0000
,
0100
0000
0000
0000
,
0000
0000
0000
0000
,
1000
0000
0000
0000
,
0001
0001
0001
0001
,
0002
0003
0000
0000
,
2000
3000
0000
0000
,
0020
0030
0000
0000
,
0100
0000
0010
0010
,
0020
0030
0000
0000
,
2000
3000
0000
0000
,
0002
0003
0000
0000
,
0100
0000
0010
0000
,
1000
0000
0000
0001
,
0001
0000
0000
0010
,
0010
0000
0000
0100
,
0100
0100
0100
0100
,
0100
0000
0000
1000
,
1000
0000
0000
0001
,
0001
0000
0000
0000
,
0010
0000
0001
0001
,
0002
0003
0000
0000
,
0020
0030
0000
0000
,
0200
0300
0000
0000
,
1000
0000
0010
0010
,
0020
0030
0000
0000
,
2000
3000
0000
0000
,
0200
0300
0000
0000
,
1000
0000
0001
0000
,
0100
0000
0010
0000
,
0200
0000
0000
0000
,
0300
0000
0000
0000
;

//---------------dance-double - ----------------
#NOTES:
     dance-double:
     :
     Easy:
     2:
     0.136202,0.226085,0.000000,0.233680,0.000000,102.000000,102.000000,0.000000,25.000000,0.000000,0.000000,0.136202,0.226085,0.000000,0.233680,0.000000,102.000000,102.000000,0.000000,25.000000,0.000000,0.000000:
00000000
00000000
00000000
00000000
,
00000000
00000000
00000000
00000000
,
00000000
00000000
00000000
00000000
,
00000000
00000000
00000000
00100000
,
00200000
00000000
00000000
00300000
00000000
00000000
00000000
00000000
,
00002000
00000000
00000000
00003000
00000000
00000000
00000000
00000000
,
00000200
00000000
00000000
00000300
00000000
00000000
00000000
00000000
,
00000010
00000001
00000010
00000001
,
00000020
00000000
00000000
00000030
00000000
00000000
00000000
00000000
,
00000002
00000000
00000000
00000003
00000000
00000000
00000000
00000000
,
00002000
00000000
00000000
00003000
00000000
00000000
00000000
00000000
,
00000100
00000100
00000100
00000000
,
00010000
00001000
00010000
00000000
,
00001000
00010000
00000000
00000000
,
01000000
00100000
01000000
00000000
,
00100000
01000000
00000000
00000000
,
10000000
00100000
10000000
00000000
,
00100000
10000000
00100000
00000000
,
01000000
00010000
01000000
00000000
,
00010000
01000000
00010000
00000000
,
00100000
00100000
00100000
00100000
,
00000000
00000000
00000000
00000000
,
00001000
00001000
00010000
00010000
,
00001000
00000000
00000000
00000000
,
00000010
00000010
00000010
00000010
,
00000000
00000000
00000000
00000000
,
00010000
00010000
00001000
00001000
,
00010000
00000000
00000000
00000000
,
00000200
00000000
00000000
00000300
00000000
00000000
00000000
00000000
,
00020000
00000000
00000000
00030000
00000000
00000000
00000000
00000000
,
00002000
00000000
00000000
00003000
00000000
00000000
00000000
00000000
,
01000000
01000000
01000000
01000000
,
02000000
00000000
00000000
03000000
00000000
00000000
00000000
00000000
,
00200000
00000000
00000000
00300000
00000000
00000000
00000000
00000000
,
20000000
00000000
00000000
30000000
00000000
00000000
00000000
00000000
,
00010000
00000000
00100000
00000000
,
00002000
00000000
00000000
00013000
,
00020000
00000000
00000000
00031000
,
00000200
00000000
00000000
00001300
,
00001000
00001000
00000001
00000001
,
00000200
00000000
00000000
00000310
,
00000020
00000000
00000000
00000130
,
00000020
00000000
00000000
00010030
,
00001000
00000000
00000000
00000000
,
00200000
00000000
00000000
00300000
00000000
00000000
00000000
00000000
,
00020000
00000000
00000000
00030000
00000000
00000000
00000000
00000000
,
02000000
00000000
00000000
03000000
00000000
00000000
00000000
00000000
,
00100000
00100000
00100000
00100000
,
00200000
00000000
00000000
00300000
00000000
00000000
00000000
00000000
,
00002000
00000000
00000000
00003000
00000000
00000000
00000000
00000000
,
00020000
00000000
00000000
00030000
00000000
00000000
00000000
00000000
,
00001000
00010000
00001000
00010000
,
00000100
00001000
00000100
00001000
,
00000020
00000000
00000000
00000030
;

//---------------dance-double - ----------------
#NOTES:
     dance-double:
     :
     Medium:
     4:
     0.233680,0.427050,0.186944,0.289763,0.000000,175.000000,155.000000,20.000000,31.000000,0.000000,0.000000,0.233680,0.427050,0.186944,0.289763,0.000000,175.000000,155.000000,20.000000,31.000000,0.000000,0.000000:
00000000
00000000
00000000
00000000
,
00000000
00000000
00000000
00000000
,
00000000
00000000
00000000
00000000
,
00000000
00000000
00000000
00100000
,
02000000
00000000
00000000
03010000
00000000
00000000
00000000
00000000
,
00200000
00000000
00000000
00301000
00000000
00000000
00000000
00000000
,
00020000
00000000
00000000
00031000
00000000
00000000
00000000
00000000
,
00000100
00001000
00000010
00000100
,
00000002
00000000
00000000
00000013
00000000
00000000
00000000
00000000
,
00000200
00000000
00000000
00010300
00000000
00000000
00000000
00000000
,
00002000
00000000
00000000
00013000
00000000
00000000
00000000
00000000
,
00100000
00010000
01000000
00100000
,
10000000
01000000
10000000
00000000
00010000
00000000
00000000
00000000
,
01000000
00100000
01000000
00000000
00010000
00000000
00000000
00000000
,
00100000
00001000
00100000
00000000
00001000
00000000
00000000
00000000
,
00010000
00001000
00010000
00001000
00010000
00000000
00000000
00000000
,
00000100
00001000
00000100
00000000
00001000
00000000
00000000
00000000
,
00000001
00001000
00000001
00000000
00001000
00000000
00000000
00000000
,
00000010
00000100
00000010
00000000
00000100
00000000
00000000
00000000
,
00000001
00000100
00000001
00000100
00000001
00000000
00000000
00000000
,
00001000
00000100
00010000
00011000
,
00000000
00000000
00000000
00000000
,
00010000
00001000
00100000
00001000
,
00011000
00000000
00100000
00000000
,
00010000
10000000
01000000
01100000
,
00000000
00000000
00000000
00000000
,
00100000
00001000
00010000
00000100
,
00001000
00000000
00001000
00000000
00001000
00000010
00000100
00000001
,
00000200
00000000
00000000
00000310
00000000
00000000
00000000
00000000
,
00000020
00000000
00000000
00001030
00000000
00000000
00000000
00000000
,
00000200
00000000
00000000
00010300
00000000
00000000
00000000
00000000
,
00001000
00100000
00001000
00100000
,
00020000
00000000
00000000
01030000
00000000
00000000
00000000
00000000
,
00200000
00000000
00000000
10300000
00000000
00000000
00000000
00000000
,
20000000
00000000
00000000
31000000
00000000
00000000
00000000
00000000
,
00100000
00001000
00010000
00000100
,
00002000
00000000
00000000
00000200
00000000
00003300
00001100
00000000
,
00000020
00000000
00000000
00000002
00000000
00000033
00000011
00000000
,
00000002
00000000
00000000
00002000
00000000
00003003
00001001
00000000
,
00000100
00000000
00010000
00000000
00001000
00000000
01000000
00010000
,
02000000
00000000
00000000
00020000
00000000
03030000
01010000
00000000
,
20000000
00000000
00000000
00200000
00000000
30300000
10100000
00000000
,
20000000
00000000
00000000
00020000
00000000
30030000
10010000
00000000
,
00100000
00000000
00100000
00000000
00001000
00010000
00001000
00010000
,
00000200
00000000
00000000
00000310
00000000
00000000
00000000
00000000
,
00000002
00000000
00000000
00000103
00000000
00000000
00000000
00000000
,
00000020
00000000
00000000
00010030
00000000
00000000
00000000
00000000
,
00001000
00100000
00110000
01010000
,
20010000
00000000
00000000
31000000
00000000
00000000
00000000
00000000
,
01200000
00000000
00000000
00310000
00000000
00000000
00000000
00000000
,
00021000
00000000
00000000
00030100
00000000
00000000
00000000
00000000
,
00001001
00001100
00011000
01010000
,
10010000
00000000
11000000
00000000
10000000
01000000
00100000
00010000
,
00002000
00000000
00000000
00003000
;

//---------------dance-double - ----------------
#NOTES:
     dance-double:
     :
     Hard:
     7:
     0.429971,0.454274,0.383235,0.149555,0.032715,322.000000,281.000000,41.000000,16.000000,0.000000,0.000000,0.429971,0.454274,0.383235,0.149555,0.032715,322.000000,281.000000,41.000000,16.000000,0.000000,0.000000:
// measure 0
00000000
00000000
00000000
00000000
,  // measure 1
00000000
00000000
00000000
00000000
,  // measure 2
00000000
00000000
00000000
00000000
,  // measure 3
00000000
00000000
00000000
00000000
00000000
00000000
00000000
00000000
00000000
00000000
00000001
00001000
00000001
00000000
00000100
00000000
,  // measure 4
00000010
00000000
00000000
00001100
00000000
00000100
00001000
00000100
,  // measure 5
00001000
00000000
00000000
00011000
00000000
00010000
00001000
00010000
,  // measure 6
00001000
00000000
00000000
01010000
00000000
01000000
00010000
01000000
,  // measure 7
00010000
00000000
10000000
00000000
01000000
00000000
00100000
00010000
,  // measure 8
00100000
00000000
00000000
00101000
00000000
00100000
00001000
00100000
,  // measure 9
00001000
00000000
00000000
00011000
00000000
00010000
00001000
00010000
,  // measure 10
00001000
00000000
00000000
00010010
00000000
00000010
00010000
00000010
,  // measure 11
00010000
00000100
00001000
00000010
00000100
00000001
00000001
00000000
,  // measure 12
00000100
00000010
00001000
00000100
00000010
00000000
00001100
00000000
,  // measure 13
00010000
00001000
01000000
00010000
00100000
00000000
00110000
00000000
,  // measure 14
01000000
10000000
00100000
01000000
00010000
00000000
10100000
00000000
,  // measure 15
01000000
00000000
00010000
00000000
00100000
00000000
00001000
00000000
00010000
00000000
00000000
00010000
00000000
00000000
00010000
00000000
,  // measure 16
00000100
00001000
00000010
00000100
00000010
00000000
00001100
00000000
,  // measure 17
00000001
00000100
00000010
00000100
00000001
00000000
00001001
00000000
,  // measure 18
00000100
00010000
00001000
00100000
00001000
00000000
00011000
00000000
,  // measure 19
00100000
00000000
00010000
00000000
01000000
00000000
00010000
00000000
10000000
00000000
00000000
10000000
00000000
00000000
10000000
00000000
,  // measure 20
00100000
01000000
00010000
01000000
00100000
01000000
00010000
00000000
,  // measure 21
00100000
00001000
00100000
00001000
00100000
00000000
00011000
00000000
,  // measure 22
00000100
00001000
00000001
00001000
00000100
00001000
00000001
00001000
,  // measure 23
00000100
00000000
00000000
00000000
00001000
00000000
00000010
00000000
00000100
00000000
00000000
00000100
00000000
00000000
00000100
00000000
,  // measure 24
00000001
00001000
00000010
00001000
00000001
00001000
00000010
00000000
,  // measure 25
00010000
00001000
00010000
00001000
00010000
00000000
00101000
00000000
,  // measure 26
00010000
01000000
00100000
01000000
00010000
01000000
00100000
01000000
,  // measure 27
00010000
00000000
00100000
00000000
00010000
00000000
00100000
00000000
00010000
00000000
01000000
00100000
01000000
00000000
00010000
00000000
,  // measure 28
10000000
00000000
00000000
10100000
00000000
10000000
01000000
00100000
,  // measure 29
00010000
00000000
00000000
00011000
00000000
00001000
00000100
00000010
,  // measure 30
00000001
00000000
00000000
00000110
00000000
00000010
00001000
00000100
,  // measure 31
00001000
00000000
00000110
00000000
00000010
00010000
00000010
00010000
,  // measure 32
00001000
00000000
00000000
00110000
00000000
00010000
01000000
00100000
,  // measure 33
10000000
00000000
00000000
10100000
00000000
10000000
01000000
00100000
,  // measure 34
00010000
00000000
00000000
00010100
00000000
00000100
00001000
00000010
,  // measure 35
00000100
00000000
00000001
00000000
00001001
00000000
00000010
00000100
,  // measure 36
00000020
00000000
00000030
00002020
00000000
00003030
00001001
00000000
,  // measure 37
00000200
00000000
00000300
00020200
00000000
00030300
00011000
00000000
,  // measure 38
00200000
00000000
00300000
00220000
00000000
00330000
10010000
00000000
,  // measure 39
10000000
00000000
00100000
00000000
01000000
00010000
01000000
00010000
,  // measure 40
00200000
00301000
00000000
00002000
00013000
00000000
00011000
00000000
,  // measure 41
00000200
00001300
00000000
00002000
00003001
00000000
00000101
00000000
,  // measure 42
00000020
00000130
00000000
00000200
00000310
00000000
00001001
00000000
,  // measure 43
00000100
00001000
00000000
00000000
00001100
00000000
00000000
00000000
00010000
00000000
00010000
00000000
00001000
00000000
00001000
00000000
,  // measure 44
00010000
00000000
00000000
00010100
00000000
00000100
00010000
00000010
,  // measure 45
00000100
00000000
00000000
00000101
00000000
00000001
00001000
00000100
,  // measure 46
00010000
00000000
00000000
00011000
00000000
00100000
00010000
01000000
,  // measure 47
00100000
00000000
10100000
00000000
10000000
01000000
10000000
01000000
,  // measure 48
00100000
00000000
00000000
00101000
00000000
00100000
00001000
00010000
,  // measure 49
00000100
00000000
00000000
00001010
00000000
00000100
00000001
00001000
,  // measure 50
00000010
00000000
00000000
00000110
00000000
00000010
00001000
00000100
,  // measure 51
00010000
00011000
00100000
01100000
,  // measure 52
10000000
00000000
00100000
00000000
01000000
00000000
00010000
00000000
00001000
00000000
00100000
00000000
00010000
00000000
01000000
00100000
,  // measure 53
02000000
00000000
00000000
00000000
,  // measure 54
03000000
00000000
00000000
00000000
;
