#TITLE:Beyond The Seven;
#SUBTITLE:;
#ARTIST:Nhato;
#TITLETRANSLIT:;
#SUBTITLETRANSLIT:;
#ARTISTTRANSLIT:;
#GENRE:Trance;
#CREDIT:;
#BANNER:beyondtheseven-bn.png;
#BACKGROUND:beyondtheseven-bg.png;
#LYRICSPATH:;
#CDTITLE:;
#MUSIC:Beyond The Seven.ogg;
#OFFSET:-0.231000;
#SAMPLESTART:74.580002;
#SAMPLELENGTH:13.000004;
#SELECTABLE:YES;
#BPMS:0.000000=142.000000
;
#STOPS:
;
#BGCHANGES:;
#KEYSOUNDS:;
#ATTACKS:;

//---------------dance-single - ----------------
#NOTES:
     dance-single:
     :
     Hard:
     7:
     0.461989,0.481046,0.282968,0.090954,0.075795,320.000000,292.000000,28.000000,9.000000,0.000000,0.000000,0.461989,0.481046,0.282968,0.090954,0.075795,320.000000,292.000000,28.000000,9.000000,0.000000,0.000000:
0000
0000
0000
0000
,
0000
0000
0000
0000
0000
0000
0000
0010
,
1000
0100
0000
0001
,
0100
1000
0010
0110
,
0100
0000
0101
0000
0100
0001
0101
0000
,
0010
0000
0110
0000
0010
0100
0110
0000
,
1000
0000
1010
0000
1000
0010
1010
0000
,
0001
0000
1001
0000
0001
1000
0010
0100
,
0010
0000
1010
0000
0010
1000
1010
0000
,
1000
0000
1100
0000
1000
0100
1100
0000
,
0010
0001
0010
0100
1000
0010
1000
0001
,
0100
0000
0000
0100
0000
0000
0100
0000
0010
0000
0000
0010
0000
0000
0010
0000
,
0100
1000
0001
0000
0001
1000
0100
0000
,
0100
1000
0001
0000
0001
1000
0100
1000
,
0001
0010
0100
0000
0100
0010
0001
0000
,
0001
0010
0100
0000
0100
0100
0010
0010
,
0100
1000
0010
0000
0010
1000
0100
0000
,
0100
1000
0010
0000
0010
1000
0100
1000
,
0010
0001
0010
0000
0010
1000
0010
0000
,
2100
0000
0001
3001
,
0100
1100
1001
0101
,
0200
0000
0000
0000
0310
0100
0010
0000
,
1000
0101
1001
1100
,
0020
0000
0130
0000
0001
1000
0100
0010
,
0001
1010
1001
0011
,
0200
0000
0000
0000
1300
0010
0001
0010
,
1000
0100
0001
0100
1000
0100
0001
0100
,
2000
0000
0000
0000
0000
0000
0000
0000
3001
0000
0000
0001
0000
0000
0001
0000
,
0020
0000
0000
0030
,
0110
0000
0100
0000
1000
0000
0100
0001
,
2000
0000
0000
0000
0000
0000
0000
0000
0000
0000
0000
0000
3010
1000
0010
0000
,
0200
0000
0000
0000
0000
0000
0000
0000
0310
0000
0000
0100
0000
0000
0010
0000
,
0002
0000
0000
0000
,
0003
0000
0010
0000
1000
0000
0000
0100
,
0010
0000
0000
0000
0000
0000
0000
0000
0001
0000
1000
0000
0100
0000
0010
0100
,
0010
0000
0000
0000
0000
0000
0100
1000
0100
0000
0000
0000
0000
0000
1000
0000
,
0001
0010
0100
1000
0001
0010
0100
0000
,
0001
0010
0001
1000
0100
1000
0010
0000
,
1000
0100
0010
0001
1000
0100
0010
0000
,
0001
0010
0001
1000
0100
1000
0010
0010
,
0100
0001
1000
0010
0100
0001
1000
0000
,
0010
1000
0010
1000
0001
1000
0100
0000
,
0010
0001
1000
0100
0010
0001
1000
1000
,
0001
1001
0100
0100
,
0010
0000
0000
1000
0000
0000
0010
0000
1000
0000
0000
0000
0001
0000
0000
0000
,
0100
0000
0000
0010
0000
0000
0100
0000
0010
0000
0000
0000
0001
0000
0000
0000
,
1000
0000
0000
0100
0000
0000
1000
0000
0100
0000
0000
0000
1000
0000
0000
0000
,
0010
0000
0000
0010
0000
0000
0100
0000
0001
0000
0000
0001
0000
0000
1000
0000
,
0001
0000
0000
0010
0000
0000
0001
0000
1000
0000
0000
0000
0100
0000
0000
0000
,
1000
0000
0000
0010
0000
0000
1000
0000
0001
0000
0000
0000
0100
0000
0000
0000
,
0010
0000
0000
0100
0000
0000
0010
0000
0001
0000
0000
0000
1000
0000
0000
0000
,
0100
0000
0100
0000
0010
0000
0001
1000
,
0010
0000
1010
0000
0010
1000
1010
0000
,
0100
0000
0101
0000
0100
0001
0101
0000
,
0010
1000
0001
0010
1000
0001
0010
1000
,
0001
0100
0010
1000
0010
0100
0001
1000
,
0001
0000
0000
0000
;

//---------------dance-single - ----------------
#NOTES:
     dance-single:
     :
     Challenge:
     9:
     0.561606,0.509343,0.242544,0.040424,0.212226,389.000000,365.000000,24.000000,4.000000,0.000000,0.000000,0.561606,0.509343,0.242544,0.040424,0.212226,389.000000,365.000000,24.000000,4.000000,0.000000,0.000000:
0000
0000
0000
0000
,
0000
0000
0000
0000
0000
0000
0000
0100
,
0001
0010
0000
1000
,
0000
0010
0000
0002
,
0013
0000
0001
1000
1100
0010
0001
0000
,
0100
0000
0010
1000
1001
0100
0010
0000
,
0001
0000
0100
0001
0011
0100
1000
0000
,
0010
0000
0100
0010
0110
1000
0100
0010
,
0001
0100
1000
0100
0001
0010
0100
0001
,
0100
1000
0010
0100
0010
1000
0001
0010
,
1000
0010
0001
0010
1000
0010
0001
0100
,
0010
0000
0000
1000
0000
0000
0000
0000
0001
0000
0000
0100
0000
0000
0000
0000
,
1000
0100
0011
0000
1000
1000
0010
0100
,
0010
1000
1100
0000
0001
0001
0010
0001
,
0100
0010
1001
0000
0010
0010
0100
0010
,
0001
0100
0110
0000
0100
0001
1000
0010
,
0100
1000
1100
0000
0001
0001
0101
0000
,
0010
1000
1010
0000
0001
0001
0011
0000
,
1000
0100
0101
0000
1000
1000
1100
0000
,
0001
0000
0000
0100
0000
0000
0001
0000
0002
0000
0000
1000
0000
0000
1003
0000
,
0010
0100
0010
0001
0010
0001
0100
0010
,
1000
0010
0001
0010
2000
0000
3001
0000
,
0100
0010
0100
1000
0100
1000
0100
0010
,
1000
0010
0001
0010
1000
0000
0011
0001
,
0100
1000
0100
0001
0010
0100
1000
0001
,
1000
0010
0100
1000
0200
0000
0301
0000
,
1000
0010
0100
0001
0010
1000
0010
0001
,
0100
0000
0000
0000
0000
0000
0000
0000
0010
0000
0000
0110
0000
0000
1000
0000
,
0001
0000
0000
0100
0000
0000
0010
0000
1000
0000
0000
0100
0000
0000
0010
0000
,
0100
0000
0000
0001
0000
0000
0100
0000
1000
0000
0000
0010
0000
0000
0100
0000
,
1000
0000
0000
0100
0000
0000
0001
0000
1000
0000
0000
0001
0000
0000
0100
0000
,
0010
0000
0000
0100
0000
0000
0001
0000
1000
0000
0000
0110
0000
0000
0001
0000
,
0100
0000
0001
0100
0000
0001
0100
0000
0010
0000
0000
1000
0000
0000
0001
0000
,
0100
0000
0010
1000
0000
0010
1000
0000
0100
0000
0000
0010
0000
0000
0100
0000
,
1000
0000
0001
0010
0000
0001
0010
0000
0001
0000
0000
1000
0000
0000
0100
0000
,
0010
0000
0000
0100
0000
0000
1000
0000
0001
0000
0000
0100
0000
0000
0001
0000
,
0100
1000
0001
0010
0001
1000
0010
0100
,
0010
1000
0001
0100
0010
0001
0010
1000
,
0001
0100
0010
1000
0010
0100
0001
1000
,
0100
0010
0100
1000
0001
0100
0001
1000
,
0100
0010
1000
0010
0100
0010
1000
0010
,
0001
0100
0010
0001
0010
0100
0010
0001
,
0010
0000
1000
0000
0010
0000
0100
0000
0001
0000
1000
0000
0010
0000
1000
0100
,
1000
0011
1010
1001
,
0100
0000
0000
0001
0000
0000
1000
0000
0001
0000
0000
0100
0000
0000
1000
0000
,
0100
0000
0000
0001
0000
0000
1000
0000
0010
0000
0000
0100
0000
0000
0010
0000
,
1000
0000
0000
0100
0000
0000
0010
0000
1000
0000
0000
0010
0000
0000
0001
0000
,
0100
0000
0000
0010
0000
0000
0001
0000
0010
0000
0000
1000
0000
0000
0001
0000
,
0100
0010
0000
0100
0010
0000
0000
0000
1000
0100
0000
1000
0100
0000
0010
0000
,
0001
0100
0000
0001
0100
0000
0000
0000
0001
1000
0000
0001
1000
0000
0000
0000
,
0100
0000
0000
0100
0000
0000
0010
0000
0010
0000
0000
0000
0001
0000
1000
0000
,
0001
0110
0011
1010
,
1000
0100
0001
0100
1000
0010
0001
0010
,
1000
0100
0001
0100
1000
0010
0001
0010
,
1000
0100
0001
0010
1000
0100
0001
0010
,
1000
0001
0100
0010
0100
0001
1000
0010
,
0101
0000
0000
0000
;

//---------------dance-single - ----------------
#NOTES:
     dance-single:
     :
     Medium:
     6:
     0.356598,0.396156,0.212226,0.252650,0.000000,247.000000,226.000000,21.000000,25.000000,0.000000,0.000000,0.356598,0.396156,0.212226,0.252650,0.000000,247.000000,226.000000,21.000000,25.000000,0.000000,0.000000:
0000
0000
0000
0000
,
0000
0000
0000
0000
,
0100
1000
0000
0010
,
0000
0001
0000
0200
,
1300
1010
1000
1010
,
0001
0101
0001
0101
,
0010
0110
0010
0110
,
1000
1100
1000
1100
,
0010
0001
0010
0000
0100
0001
0100
0000
,
0010
0001
0010
0000
0100
0001
0100
0000
,
0002
0000
0000
0000
,
1003
0001
0100
0010
,
0100
0001
0100
0000
0001
0000
0101
0000
,
0010
0100
0010
0000
0100
0000
0110
0000
,
1000
0010
1000
0000
0010
0000
1010
0000
,
1000
0100
1000
0000
0200
0000
0000
0000
,
0310
0001
0010
0000
0001
0000
0011
0000
,
1000
0001
1000
0000
0001
0000
1001
0000
,
0010
0100
0010
0000
0100
0000
0110
0000
,
0002
0000
1003
0000
,
0010
2000
3002
0203
,
0320
0000
0000
0000
0130
0010
0100
0010
,
0100
0002
0023
0230
,
2300
0000
0000
0000
3010
0000
0010
0010
,
0010
2000
3002
0203
,
0302
0000
0000
0000
0013
0001
0010
0001
,
1000
0001
1000
0000
0010
1000
0010
0000
,
0000
0000
2020
3030
,
1000
0000
0100
0000
,
0001
0000
0001
0000
0100
0000
1000
0010
,
0100
0000
0000
0000
0000
0000
0001
1000
,
0010
0000
0100
0100
,
0101
0000
0000
0000
,
0000
0000
0010
0000
1000
0000
0000
0001
,
0100
0000
0010
0010
,
1010
0000
0000
1000
0001
0000
0000
0000
,
0100
0000
0001
0000
1000
0010
1000
0000
,
0001
0000
0010
0000
0100
0010
0100
0000
,
0010
0000
0001
0000
0100
0001
0100
0000
,
0010
0000
1000
0000
0100
1000
0001
1000
,
0100
0000
1000
0000
0010
1000
0010
0000
,
0100
0000
0001
0000
1000
0001
1000
0000
,
0010
0010
0100
0100
,
0002
0023
0230
0000
,
1300
0010
1010
0100
,
0001
0100
0101
0010
,
1000
0010
0100
0001
,
0010
0000
0100
0000
0010
0001
1000
0001
,
0010
0100
1100
0010
,
0100
0010
0011
0100
,
0010
1000
0001
0100
,
0020
0230
0302
2003
,
3010
1000
0010
0000
0100
0001
0100
0000
,
0010
1000
0010
0000
0100
0001
0100
0000
,
0001
0001
0001
0001
,
1000
0100
0010
0000
0001
0010
0100
1000
,
0001
0000
0000
0000
;

//---------------dance-single - ----------------
#NOTES:
     dance-single:
     :
     Easy:
     4:
     0.298849,0.367859,0.171802,0.202120,0.000000,207.000000,190.000000,17.000000,20.000000,0.000000,0.000000,0.298849,0.367859,0.171802,0.202120,0.000000,207.000000,190.000000,17.000000,20.000000,0.000000,0.000000:
0000
0000
0000
0000
,
0000
0000
0000
0000
,
0000
1000
0000
0100
,
0000
0001
0000
0200
,
1300
1001
0000
1001
,
0000
0110
0000
0110
,
0000
0101
0000
0101
,
0000
0001
1000
0001
,
0010
0011
0000
0011
,
0000
1100
0000
1100
,
1000
0100
0010
0001
,
0200
0000
0320
0000
,
1030
0100
0001
0100
,
1000
0100
0001
0100
,
1000
0010
0001
0010
,
1000
0010
0200
0000
,
0301
0010
1000
0010
,
0001
0010
1000
0010
,
0001
0100
1000
0100
,
0001
0000
0200
0320
,
1030
0100
0010
0001
,
0200
0000
0302
0000
,
1003
0010
0100
0010
,
2000
0000
0000
0000
3010
0000
0100
0100
,
0100
0001
1000
0001
,
0020
0000
0230
0000
,
1300
0010
1000
0010
,
2000
0000
3002
0000
,
0103
0000
0001
0000
,
1000
0000
0010
0000
0100
0000
0001
1000
,
0010
0000
0000
0000
0000
0000
0100
0001
,
0010
0000
0100
1000
,
0200
0000
0000
0000
,
0310
0000
0001
0000
1000
0000
0000
0001
,
1000
0000
0000
0000
0010
0000
1000
0100
,
0010
0000
0000
0001
1000
0000
0010
0000
,
1000
0100
0010
0100
,
1000
0100
0010
0011
,
0001
0100
0010
0100
,
0001
0010
0100
1100
,
1000
0001
0100
0001
,
0100
0010
1000
0010
,
0100
0001
1000
0001
,
2000
3200
0320
0031
,
0100
0100
0001
0001
,
1000
1000
0010
0010
,
0100
0100
0001
0001
,
1000
1000
0010
1010
,
1000
1000
0001
0001
,
0100
0100
0010
0010
,
0100
0001
1000
0010
,
0200
0302
0023
0130
,
1000
1100
1000
1100
,
0010
0011
0010
0011
,
0100
0010
0100
0010
,
1000
0000
0001
0000
1000
0001
1000
0001
,
1000
0000
0000
0000
;

//---------------dance-single - ----------------
#NOTES:
     dance-single:
     :
     Beginner:
     1:
     0.108279,0.141484,0.010106,0.020212,0.000000,75.000000,74.000000,1.000000,2.000000,0.000000,0.000000,0.108279,0.141484,0.010106,0.020212,0.000000,75.000000,74.000000,1.000000,2.000000,0.000000,0.000000:
0000
0000
0000
0000
,
0000
0000
0000
0000
,
0000
0001
0000
1000
,
0000
0001
0000
0000
,
0000
0100
0000
0100
,
0000
0100
0000
0100
,
0000
0100
0000
0100
,
0000
0100
0000
0000
,
0000
0010
0000
0010
,
0000
0010
0000
0010
,
0000
0000
0000
0000
,
0001
0000
0000
0000
,
0000
1000
0000
1000
,
0000
0001
0000
0000
,
0000
0100
0000
0100
,
0000
0010
0000
0000
,
0000
0100
0000
0100
,
0000
0001
0000
0001
,
0000
1000
0000
1000
,
0000
0000
0000
0000
,
0000
0010
0000
0000
,
1000
0000
1000
0000
,
0000
0001
0000
0000
,
0010
0000
0000
0000
,
0000
0100
0000
0000
,
0010
0000
0010
0000
,
0000
0001
0000
0000
,
1000
0000
0001
0000
,
0000
0000
0000
0000
,
0000
0100
0100
0000
,
0100
0000
0000
0000
,
0000
0000
0001
0000
,
1000
0000
0000
0000
,
0000
0010
0010
0000
,
0010
0000
1000
0000
,
0000
0000
0001
0000
,
0100
0000
0000
0000
,
0001
0000
0000
0000
,
1000
0000
0000
0000
,
0001
0000
1000
0000
,
0010
0000
0000
0000
,
1000
0000
0000
0000
,
0001
0000
0000
0000
,
2000
0000
3000
0000
,
0010
0000
0000
0000
,
0100
0000
0001
0000
,
0100
0000
0000
0000
,
0010
0000
1000
0000
,
0010
0000
0000
0000
,
0010
0000
0000
0000
,
0100
0000
0000
0000
,
0200
0000
0300
0000
,
0000
0001
0000
0001
,
0000
1000
0000
1000
,
1000
0000
0000
0000
,
0010
0000
0000
0000
,
0110
0000
0000
0000
;

//---------------dance-double - ----------------
#NOTES:
     dance-double:
     :
     Hard:
     7:
     0.417234,0.481046,0.303180,0.070742,0.121272,289.000000,259.000000,30.000000,7.000000,0.000000,0.000000,0.417234,0.481046,0.303180,0.070742,0.121272,289.000000,259.000000,30.000000,7.000000,0.000000,0.000000:
00000000
00000000
00000000
00000000
,
00000000
00000000
00000000
00000000
00000000
00000000
00000000
00000001
,
00000100
00001000
00000000
00010000
,
00000000
00100000
10000000
02000000
,
03100000
00000000
00110000
00000000
00100000
00010000
00110000
00000000
,
00001000
00000000
00011000
00000000
00001000
00010000
00011000
00000000
,
00000100
00000000
00001100
00000000
00000100
00001000
00001100
00000000
,
00000010
00000000
00000011
00000000
00000010
00000001
00000100
00000010
,
00000100
00000000
00000110
00000000
00000100
00000010
00000110
00000000
,
00010000
00000000
00010100
00000000
00010000
00000100
00010100
00000000
,
00001000
00100000
00010000
01000000
00100000
01000000
00010000
00000000
,
10000000
00000000
00000000
01000000
00000000
00000000
00000000
00000000
00100000
00000000
00000000
00010000
00000000
00000000
00000000
00000000
,
00100000
00000000
00001000
00000000
00100000
00001000
00010000
00000010
,
00000100
00000000
00000001
00000000
00000100
00000001
00001000
00000010
,
00010000
00000000
00001000
00000000
00010000
00001000
00100000
00010000
,
01000000
00000000
00100000
00000000
10000000
01000000
00100000
01000000
,
10000000
00000000
00010000
00000000
10000000
00010000
00100000
00001000
,
00010000
00000000
00000100
00000000
00001000
00000010
00000100
00000001
,
00000010
00000000
00000100
00000000
00000010
00000100
00010000
00000100
,
00000010
00000000
00000000
00000001
00000000
00000000
00000010
00000000
00000002
00000000
00000000
00000000
00000000
00000000
00000000
00000000
,
00001003
00001100
00010100
00011000
,
00100000
00000000
00010000
00000000
02000000
03000000
01000000
00000000
,
00100000
11000000
01100000
00101000
,
01010000
00000000
00100000
00000000
20000000
30000000
10000000
00100000
,
01000000
01010000
00101000
00010100
,
00000100
00000000
00000010
00000000
00000002
00000003
00000001
00000000
,
00000100
00000010
00001000
00000010
00000100
00000010
00001000
00000000
,
00000200
00000000
00020000
00030300
,
00001000
00000000
00100000
00000000
,
00010000
00000000
01000000
00000000
10000000
00000000
01000000
00010000
,
00001000
00000000
00000000
00000000
00000000
00000000
00000100
00000001
,
00001000
00000000
00000000
00000000
00000000
00000000
00000000
00000000
00000010
00000000
00000000
00001000
00000000
00000000
00000100
00000000
,
00010000
00001000
01000000
00100000
,
10000000
00000000
01000000
00000000
00100000
00000000
00000000
00100000
,
00010000
00000000
00000000
00000000
00000000
00000000
00000000
00000000
00001000
00000000
00000000
00010000
00000000
00000000
00000100
00000000
,
00001000
00000000
00000000
00010000
01000000
00000000
00010000
00001000
,
00000100
00000000
00000000
00000100
00000000
00000000
00000100
00000000
00000010
00000000
00000000
00000000
00000001
00000000
00000000
00000000
,
00001000
00000000
00000100
00000000
00001000
00000100
00010000
00000000
,
00001000
00000000
00000000
00001000
00000000
00000000
00001000
00000000
01000000
00000000
00000000
01000000
00000000
00000000
01000000
00000000
,
00010000
10000000
00100000
00100000
,
01000000
00000000
00000000
00010000
00000000
00000000
01000000
00000000
00010000
00000000
00000000
00000000
10000000
00000000
00000000
00000000
,
00100000
00000000
00000000
10000000
00000000
00000000
00100000
00000000
10000000
00000000
00000000
00000000
00010000
00000000
00000000
00000000
,
00100000
00101000
00010000
00010010
,
00000100
00001000
00010000
01000000
,
00010000
00000000
00000000
00001000
00000000
00000000
00000000
00000000
00000100
00000000
00000000
00000010
00000000
00000000
00000000
00000000
,
00000001
00000000
00000000
00000100
00000000
00000000
00000000
00000000
00000010
00000000
00000000
00001000
00000000
00000000
00000000
00000000
,
00000100
00000000
00000000
00010000
00000000
00000000
00000000
00000000
00001000
00000000
00000000
00010000
00000000
00000000
00000000
00000000
,
00001000
00000000
00000000
00100000
00000000
00000000
00000000
00000000
00010000
00000000
00000000
01000000
00000000
00000000
00100000
00000000
,
10000000
00000000
00000000
01000000
00000000
00000000
00000000
00000000
00100000
00000000
00000000
01000000
00000000
00000000
00000000
00000000
,
10000000
00000000
00000000
00010000
00000000
00000000
00000000
00000000
00100000
00000000
00000000
00001000
00000000
00000000
00000000
00000000
,
00010000
00000000
00000000
00000100
00000000
00000000
00000000
00000000
00001000
00000000
00000000
00000010
00000000
00000000
00000000
00000000
,
00001001
00000000
00000110
00000000
00010010
00000000
00001000
00100000
,
00010000
00000000
01010000
00000000
00010000
01000000
01010000
00000000
,
00100000
00000000
10100000
00000000
00100000
10000000
10100000
00000000
,
10000000
01000000
00100000
00010000
00001000
00000100
00000010
00000001
,
00001000
00000100
00001000
00000100
00010000
00001000
00100000
00010000
,
01000000
00000000
00000000
00000000
;

//---------------dance-double - ----------------
#NOTES:
     dance-double:
     :
     Easy:
     4:
     0.284412,0.311265,0.161696,0.222332,0.000000,197.000000,181.000000,16.000000,22.000000,0.000000,0.000000,0.284412,0.311265,0.161696,0.222332,0.000000,197.000000,181.000000,16.000000,22.000000,0.000000,0.000000:
00000000
00000000
00000000
00000000
,
00000000
00000000
00000000
00000000
,
10000000
01000000
00000000
00010000
,
00000000
00001000
00000000
00000200
,
00000301
00000011
00000000
00000011
,
00000000
00000110
00000000
00000110
,
00000000
00001100
00000000
00001100
,
00000000
00010000
00000000
00001000
,
00000000
01010000
00000000
01010000
,
00000000
01100000
00000000
01100000
,
00200000
00000000
00000000
00000000
,
20300000
00000000
32000000
00000000
,
03010000
02000000
13000000
00200000
,
01300000
00020000
00130000
00002000
,
00013000
00000020
00000130
00000002
,
00001003
00000020
00001030
00001000
,
00000001
00000020
00000130
00020000
,
00031000
00200000
00310000
02000000
,
03100000
20000000
30010000
02000000
,
03010000
00000000
00100000
01000000
,
10000000
01000000
00100000
00001000
,
00010000
00000000
00011000
00000000
,
00000000
00000010
00000100
00000001
,
00001000
00000000
00000000
00000000
00000100
00000000
00000010
00000010
,
00000010
00000001
00001000
00000100
,
00010000
00000000
00011000
00000000
,
01000000
00010000
10000000
00100000
,
01000000
00001000
00020000
00000000
,
00032000
00000000
00103000
00000000
,
00010000
01000000
10000000
01000000
,
00010000
00000000
00000000
00000000
00000000
00000000
00001000
00010000
,
00001000
00000000
00000100
00001000
,
00000010
00000100
00000000
00000001
,
00000000
00000000
00001000
00000000
00000100
00000000
00000000
00000010
,
00000001
00000000
00000000
00000000
00000010
00000000
00000100
00010000
,
00000100
00000000
00000000
00010000
00001000
00000000
01000000
00000000
,
00010000
00000000
10000000
00000000
00100000
10000000
00100000
00000000
,
10000000
01000000
00100000
00100000
,
00010000
00000000
10000000
00000000
00100000
01000000
00100000
00000000
,
10000000
00000000
00010000
00000000
,
00100000
00000000
00001000
00000000
00100000
00001000
00100000
00000000
,
00001000
00000000
00010000
00000000
00001000
00010000
00001000
00000000
,
00010000
00000100
00001000
00000001
,
00000100
00000100
00000010
00000100
,
00000010
00010000
00001000
00001000
,
01000000
00001000
00010000
00010000
,
00000100
00010000
00001000
01000000
,
00010000
10000000
02000000
00000000
,
13000000
00010000
00100000
00001000
,
00010000
00000010
00000100
00000001
,
00002000
00000000
00003020
00000000
,
00010030
00010000
00001000
00010000
,
00000000
00011000
00000000
00011000
,
00000000
01100000
00000000
01100000
,
00100000
00001000
00010000
00000100
,
00001000
00000000
00001000
00000000
00001000
00000000
00001000
00000100
,
00000010
00000000
00000000
00000000
;

//---------------dance-double - ----------------
#NOTES:
     dance-double:
     :
     Medium:
     6:
     0.372479,0.396156,0.363816,0.090954,0.000000,258.000000,222.000000,36.000000,9.000000,0.000000,0.000000,0.372479,0.396156,0.363816,0.090954,0.000000,258.000000,222.000000,36.000000,9.000000,0.000000,0.000000:
00000000
00000000
00000000
00000000
,
00000000
00000000
00000000
00000000
,
00000001
00000100
00000000
00001000
,
00000000
00010000
00000000
00200000
,
10300000
11000000
10000000
11000000
,
00100000
00110000
00100000
00110000
,
00001000
00011000
00001000
00011000
,
00000100
00000000
00001100
00000000
00001000
00000010
00000100
00000000
,
00000001
00000101
00000001
00000101
,
00000010
00001010
00000010
00001010
,
00010000
00001000
00010000
00000000
00001000
00100000
00010000
01000000
,
00010000
00000000
10000000
00000000
,
00100000
10000000
00100000
00000000
10000000
00000000
01000000
00000000
,
00100000
00010000
00100000
00000000
00001000
00000000
00010000
00000000
,
00000100
00001000
00000100
00000000
00001000
00000000
00000010
00000000
,
00000100
00000001
00000100
00000000
00000002
00000000
00000000
00000000
,
00000013
00000100
00000010
00000000
00000100
00000000
00010000
00000000
,
00001000
00010000
00001000
00000000
01000000
00000000
00010000
00000000
,
10000000
00100000
10000000
00000000
00010000
00000000
01000000
00000000
,
01100000
00000000
00022000
00000000
,
00033000
00001100
00001010
00000101
,
00000020
00000000
00000230
00000000
,
00000300
00010100
00011000
00101000
,
00110000
00000000
00000000
00000000
00020000
00000000
10000000
10000000
,
10030000
11000000
01100000
00110000
,
00010000
00000000
00000100
00000000
00001000
00000001
00001000
00000000
,
00000001
00000001
00000001
00000001
,
00000200
00000000
00000310
00001000
,
00001100
00000000
00010000
00000000
,
00001000
00000000
01000000
00000000
10000000
00000000
01000000
00001000
,
00010000
00000000
00000000
00000000
00000000
00000000
00000010
00001000
,
00000010
00000000
00000002
00000003
,
00000101
00000000
00000000
00000000
,
00000000
00000000
00000100
00000000
00010000
00000000
00000000
00001000
,
01000000
00000000
00000000
00000000
00100000
00000000
10000000
01000000
,
00100000
00000000
00000000
10000000
01000000
00000000
00000000
00000000
,
00100000
00000000
00001000
00000000
00001000
00010000
00000100
00000000
,
00001000
00001000
00000010
00000010
,
00000100
00000000
00000001
00000000
00001000
00000010
00010000
00000000
,
00000100
00001000
00001010
00000100
,
00010000
00001000
00100000
00000000
00010000
01000000
00010000
00000000
,
10000000
00100000
01000000
00000000
00100000
01000000
00100000
00000000
,
01000000
01000000
00001000
00001000
,
00010000
00001000
00011000
00001010
,
00000100
00001000
00000100
00001000
,
00000001
00000000
00000100
00000000
00000001
00000000
00000100
00000010
,
00010000
00000100
00010000
00001000
,
00100000
00010000
11000000
01010000
,
10000000
01000000
00010000
00000000
00001000
00000100
00000001
00000000
,
00000001
00000010
00001000
00000000
00010000
00100000
10000000
00000000
,
10000000
01000000
00100000
00010000
,
00001000
00001000
00001100
00000011
,
00000100
00000101
00000100
00000101
,
00000010
00001010
00000010
00001010
,
00010000
00001000
00010000
00000000
00001000
00010000
00001000
00000000
,
00100000
00000000
00100000
00000000
00100000
00010000
01000000
00100000
,
10000000
00000000
00000000
00000000
;

//---------------dance-double - ----------------
#NOTES:
     dance-double:
     :
     Challenge:
     9:
     0.555831,0.622530,0.313286,0.040424,0.343604,385.000000,354.000000,31.000000,4.000000,0.000000,0.000000,0.555831,0.622530,0.313286,0.040424,0.343604,385.000000,354.000000,31.000000,4.000000,0.000000,0.000000:
// measure 0
00000000
00000000
00000000
00000000
,  // measure 1
00000000
00000000
00000000
00000000
00000000
00000000
00000000
10000000
,  // measure 2
01000000
00010000
00000000
00001000
,  // measure 3
00000000
00000010
00000001
00000200
,  // measure 4
00000310
00000000
00001010
00000000
00000100
00010000
00011000
00000000
,  // measure 5
00100000
00000000
00110000
00000000
01000000
00010000
10010000
00000000
,  // measure 6
01000000
00000000
11000000
00000000
00100000
00001000
00011000
00000000
,  // measure 7
00000010
00000000
00000000
00000000
00001010
00000000
00000000
00000000
00000100
00000000
00000001
00000100
00000001
00000100
00000001
00000000
,  // measure 8
00000010
00000100
00010000
00001000
01000000
00100000
01000000
10000000
,  // measure 9
01000000
00010000
00100000
10000000
00100000
00001000
00100000
10000000
,  // measure 10
00010000
01000000
00010000
01000000
00010000
00000000
00100000
00000000
00001000
00010000
00001000
00010000
00001000
00000000
00000000
00000000
,  // measure 11
00010000
00000000
00000000
00001000
00000000
00000000
00000000
00000000
00001000
00000000
00000000
00000100
00000000
00000000
00000000
00000000
,  // measure 12
00000100
00001000
00001000
00000000
00000100
00000001
00000001
00000000
,  // measure 13
00001000
00001000
00000100
00000100
00000010
00010000
00100000
00010000
,  // measure 14
01000000
00100000
00100000
00000000
00100000
10000000
10000000
00000000
,  // measure 15
01000000
00000000
00010000
00000000
00001000
00000000
00000100
00000000
00000001
00001000
00000001
00001000
00000001
00000000
00000000
00000000
,  // measure 16
00000010
00010000
00010000
00000000
00001000
00000100
00000100
00000000
,  // measure 17
00010000
00010000
00100000
00100000
01000000
00100000
00010000
00000000
,  // measure 18
00001000
00010000
00010000
00000000
00000010
00000100
00000100
00000000
,  // measure 19
00001000
00000000
00000000
00000100
00000000
00000100
00010000
00000000
00001000
00000000
00000000
00100000
00000000
00000000
00010000
00000000
,  // measure 20
00100000
00010000
01000000
00010000
00100000
00001000
00010000
00001000
,  // measure 21
00011000
00000000
00000000
00000000
00000010
00000000
00000000
00000000
00000100
00000001
00000100
00000001
00000100
00000000
00000000
00000000
,  // measure 22
00000001
00000010
00000100
00000010
00000001
00001000
00000100
00001000
,  // measure 23
00001010
00000000
00010000
00000000
00001000
00000000
01000000
01000000
,  // measure 24
01000000
00010000
10000000
00010000
01000000
00100000
00010000
00100000
,  // measure 25
01100000
00000000
00000000
00000000
00010000
00000000
00000000
00000000
00100000
00001000
00100000
00001000
00100000
00000000
00000000
00000000
,  // measure 26
00010000
00000100
00001000
00000010
00000001
00000010
00001000
00000100
,  // measure 27
00000010
00000000
00000100
00000000
00010000
00000000
00001000
00000000
01000000
00000000
00000000
00001000
00000000
00000000
00010000
00000000
,  // measure 28
02000000
00000000
03020000
00000000
,  // measure 29
00031000
00000000
00000000
00000000
00011000
00000000
00000000
00000000
00001001
00000000
00000000
00000000
00000100
00001000
00000100
00000000
,  // measure 30
00000001
00000000
00000000
00000000
00000000
00000000
00000000
00000000
00000000
00000000
00000000
00000000
00010000
00001000
00010000
00001000
,  // measure 31
00010000
00000000
00000000
00000000
00000000
00000000
00000000
00000000
00100000
00000000
00000000
10010000
00000000
00000000
01000000
00000000
,  // measure 32
00002000
00000000
00000000
00003000
,  // measure 33
00010000
00000000
01010000
00000000
00011000
00000000
00000000
00000010
,  // measure 34
00000001
00000000
00000000
00000000
00000000
00000000
00000000
00000000
00000001
00000000
00000000
00000010
00000000
00000000
00000010
00001000
,  // measure 35
00000010
00000000
00000000
00000000
00000000
00000000
00010000
00001000
00010000
00000000
00000000
00000000
00001000
00000000
00001000
00000000
,  // measure 36
00001000
00000000
00000000
01000000
00000000
00000000
00010000
00000000
10000000
00000000
00000000
01000000
00000000
00000000
00010000
00000000
,  // measure 37
00001000
00000000
00000000
00000010
00000000
00000000
00000001
00000000
00000100
00000000
00000000
00001000
00000000
00000000
00010000
00000000
,  // measure 38
01000000
00000000
00000000
00010000
00000000
00000000
00001000
00000000
00000100
00000000
00000000
00000010
00000000
00000000
00001000
00000000
,  // measure 39
00000100
00000000
00000000
00010000
00000000
00000000
00001000
00000000
01000000
00000000
00100000
01000000
00000000
00100000
01000000
00000000
,  // measure 40
00100000
00000000
00000000
10100000
00000000
00000000
00000000
00000000
00010000
00000000
00000000
01010000
00000000
00000000
00000000
00000000
,  // measure 41
00001000
00000000
00000000
00011000
00000000
00000000
00000000
00000000
00000010
00000000
00000000
00001010
00000000
00000000
00000000
00000000
,  // measure 42
00000100
00000000
00000001
00001000
00000000
00000010
00000100
00000000
00010000
00000000
00001000
01000000
00000000
00001000
00100000
00000000
,  // measure 43
00010000
10010000
11000000
00101000
,  // measure 44
00010000
00000000
00000100
00001000
00000000
00000000
00000010
00000000
00000100
00000000
00000001
00001000
00000000
00000000
00000100
00000000
,  // measure 45
00010000
00000000
00001000
01000000
00000000
00000000
00100000
00000000
10000000
00000000
00100000
00010000
00000000
00000000
00001000
00000000
,  // measure 46
00000100
00000000
00000001
00001000
00000000
00000000
00000010
00000000
00010000
00000000
00000100
00001000
00000000
00000000
00010000
00000000
,  // measure 47
00001000
00000000
01000000
00100000
00000000
00000000
10000000
00000000
11000000
00000000
00000000
01100000
00000000
00000000
00101000
00000000
,  // measure 48
00010000
00000000
00000100
00001000
00000000
00001000
00000010
00000000
00000100
00000000
00000001
00001000
00000000
00000000
00000010
00001000
,  // measure 49
00000010
00000000
00010000
00001000
00000000
00000000
00001000
01000000
00001000
00000000
00010000
10000000
00000000
10000000
01000000
00000000
,  // measure 50
00100000
00000000
00001000
00010000
00000000
00010000
00000010
00000000
00001000
00000000
00000001
00000100
00000000
00000000
00000010
00000100
,  // measure 51
00000010
00000000
00000000
00000000
00011000
00000000
00000000
00000000
01100000
00000000
00000000
00000000
10000000
00010000
10000000
00010000
,  // measure 52
10000000
00000000
01010000
00000000
00001000
00010000
00010010
00000000
,  // measure 53
00000100
00000000
00000101
00000000
00001000
00000010
00010010
00000000
,  // measure 54
00001000
00100000
01000000
00100000
00010000
00000100
00000001
00000100
,  // measure 55
00000010
00000000
00010000
00000000
00001000
00000000
01000000
00000000
00010000
01000000
00010000
01000000
00010000
01000000
00010000
01000000
,  // measure 56
00010000
00000000
00000000
00000000
;
