#TITLE:Begin;
#SUBTITLE:;
#ARTIST:小坂りゆ;
#TITLETRANSLIT:;
#SUBTITLETRANSLIT:;
#ARTISTTRANSLIT:Riyu Kosaka;
#GENRE:Rock;
#CREDIT:;
#BANNER:begin-bn.png;
#BACKGROUND:begin-bg.png;
#LYRICSPATH:;
#CDTITLE:;
#MUSIC:Begin.ogg;
#OFFSET:0.000000;
#SAMPLESTART:25.940001;
#SAMPLELENGTH:12.000000;
#SELECTABLE:YES;
#BPMS:0.000000=148.000000
;
#STOPS:
;
#BGCHANGES:;
#KEYSOUNDS:;
#ATTACKS:;

//---------------dance-single - ----------------
#NOTES:
     dance-single:
     :
     Hard:
     7:
     0.448510,0.522020,0.308635,0.127711,0.164960,295.000000,266.000000,29.000000,12.000000,0.000000,0.000000,0.448510,0.522020,0.308635,0.127711,0.164960,295.000000,266.000000,29.000000,12.000000,0.000000,0.000000:
// measure 0
0000
0000
0000
0000
,  // measure 1
0000
0000
0000
0000
,  // measure 2
0000
0000
0000
0000
,  // measure 3
0000
0000
0000
0000
0000
0010
0100
0001
,  // measure 4
1000
0100
1100
0000
1000
0000
0100
0010
,  // measure 5
0000
0010
0001
0100
0000
0010
1000
0010
,  // measure 6
0100
0001
0101
0000
1000
0001
1000
0000
,  // measure 7
0010
1000
0000
1000
0001
0100
0010
0000
,  // measure 8
0100
0001
0000
0000
0100
0000
0000
0000
0100
0000
0001
0000
1000
0000
0001
0000
,  // measure 9
0100
0010
0000
0100
0001
0010
0001
0000
,  // measure 10
1001
0100
1000
0100
,  // measure 11
1000
0100
0000
0010
0001
1000
0001
0000
,  // measure 12
1000
0100
0000
0000
1000
0000
0000
0000
1000
0000
0010
0000
0100
0000
0001
0000
,  // measure 13
0010
0100
0000
1000
0010
0100
0010
0000
,  // measure 14
1001
0220
0000
0330
,  // measure 15
0100
0001
0010
0001
0011
0000
1100
0000
,  // measure 16
0010
0000
1000
0010
0000
0000
0000
0000
0001
0000
0100
0001
0000
0000
0000
0000
,  // measure 17
1010
0000
0001
0100
0001
0000
1000
0000
,  // measure 18
0100
0000
1000
0100
0000
0000
0000
0000
0001
0000
0010
0001
0000
0000
0000
0000
,  // measure 19
0100
0000
0000
1000
0000
0000
0001
0000
0010
0000
0000
0000
0001
0000
0000
0000
,  // measure 20
0100
0000
0000
0100
0000
0000
0100
0000
0010
0000
0000
0000
0110
0000
0000
0000
,  // measure 21
0010
0000
0000
0010
0000
0000
0010
0000
0001
0000
0000
0001
0000
0000
0001
0000
,  // measure 22
2000
0000
3001
1000
0002
0000
1003
0000
,  // measure 23
0010
0100
0001
1000
0010
0100
0001
1000
,  // measure 24
0100
0100
0000
0000
0000
1010
0000
0000
,  // measure 25
0110
0000
0000
0000
0000
0101
0000
0000
,  // measure 26
0001
0001
0000
0000
0000
0110
0000
0000
,  // measure 27
1010
0000
1100
0000
0000
0011
0000
0001
,  // measure 28
1000
0000
1000
0000
0000
0000
0000
0000
0000
0000
0010
0000
0000
0100
0000
0000
,  // measure 29
0001
0000
0010
0000
0000
0000
0000
0000
0000
0000
0100
0000
0000
1000
0000
0000
,  // measure 30
0010
0100
0000
0000
0000
1001
0000
0000
,  // measure 31
0100
0001
1000
0010
0100
0001
1000
0010
,  // measure 32
1000
0001
0000
1000
0001
0000
1000
0001
0000
1000
0001
0000
0000
0000
0000
0000
,  // measure 33
0000
1200
0300
1020
,  // measure 34
0030
0000
1002
0000
0003
0000
1000
0001
,  // measure 35
1001
0021
0030
0201
,  // measure 36
0300
0000
1001
0000
0010
0100
0010
1000
,  // measure 37
0100
0000
0000
0100
0000
0000
0100
0000
1000
0000
0000
0000
1100
0000
0000
0000
,  // measure 38
1000
0000
0000
1000
0000
0000
1000
0000
0010
0000
0000
0010
0000
0000
0010
0000
,  // measure 39
0200
0000
0301
1000
0001
0000
0100
0000
,  // measure 40
0010
1000
0010
0000
0100
0001
0100
0000
,  // measure 41
0001
0000
1000
0001
0000
0000
0000
0000
0100
0000
0010
0100
0000
0000
0000
0000
,  // measure 42
1000
0000
0000
0001
0000
0000
0100
0000
0010
0000
0000
0000
1000
0000
0000
0000
,  // measure 43
0001
0000
0100
0001
0000
0000
0000
0000
1000
0000
0010
1000
0000
0000
0000
0000
,  // measure 44
0100
0000
0000
0001
0000
0000
1000
0000
0010
0000
0000
0000
0000
0000
0000
0000
,  // measure 45
0100
0000
0000
0100
0000
0000
0100
0000
0001
0000
0000
0000
0101
0000
0000
0000
,  // measure 46
0010
0000
0000
0010
0000
0000
0010
0000
1000
0000
0000
1000
0000
0000
1000
0000
,  // measure 47
0100
0000
1000
0010
0100
0000
0001
0000
,  // measure 48
0010
0000
0001
0100
0010
1000
0010
0100
,  // measure 49
0001
0000
0000
0001
0000
0000
0001
0000
1000
0000
0000
0000
1001
0000
0000
0000
,  // measure 50
1000
0000
0000
1000
0000
0000
1000
0000
0010
0000
0000
0010
0000
0000
0010
0000
,  // measure 51
0100
0000
0010
1000
0001
0000
0100
0000
,  // measure 52
1001
0000
0100
0000
0001
0010
0100
1000
,  // measure 53
0010
1000
1000
0100
0010
0010
0001
0100
,  // measure 54
0202
0000
0303
0000
;

//---------------dance-single - ----------------
#NOTES:
     dance-single:
     :
     Beginner:
     1:
     0.097304,0.172410,0.021285,0.000000,0.000000,64.000000,62.000000,2.000000,0.000000,0.000000,0.000000,0.097304,0.172410,0.021285,0.000000,0.000000,64.000000,62.000000,2.000000,0.000000,0.000000,0.000000:
0000
0000
0000
0000
,
0000
0000
0000
0000
,
0000
0000
0000
0000
,
0000
0000
0000
0000
,
0000
0010
0000
0000
,
0000
0001
0000
0000
,
1000
0000
0000
0000
,
0100
0100
0100
0000
,
0000
1000
0000
0000
,
0000
0000
0001
0000
,
0010
0000
0000
0000
,
0100
0000
0000
0000
,
0000
0010
0000
0000
,
0000
0000
0001
0000
,
1000
0000
0000
0000
,
0010
0000
0010
0010
,
0010
0000
0001
0000
,
0001
0000
0000
0000
,
1000
0000
0100
0000
,
0100
0000
0000
0000
,
1000
0000
0000
0000
,
0001
0000
0000
0000
,
1000
0000
0001
0000
,
0000
0000
0000
0000
,
0100
0000
0000
0000
,
0010
0000
0000
0000
,
1000
0000
0000
0000
,
0100
0000
0000
0000
,
0010
0000
0000
0000
,
0001
0000
0000
0000
,
0100
0000
0000
0000
,
0010
0000
0000
0000
,
1001
0000
0000
0000
,
0000
0100
0000
0100
,
0000
0100
0000
0000
,
0000
0010
0000
0010
,
0000
0010
0000
0000
,
0001
0000
0000
0000
,
1000
0000
0000
0000
,
0001
0000
1000
0000
,
0000
0000
0000
0000
,
0010
0000
0001
0000
,
0001
0000
0000
0000
,
0100
0000
1000
0000
,
1000
0000
0000
0000
,
0010
0000
0000
0000
,
0100
0000
0000
0000
,
0010
0000
0100
0000
,
0000
0000
0000
0000
,
0001
0000
0000
0000
,
0010
0000
0000
0000
,
0001
0000
0010
0000
,
0000
0000
0000
0000
,
1000
0000
0001
0000
,
1001
0000
0000
0000
;

//---------------dance-single - ----------------
#NOTES:
     dance-single:
     :
     Easy:
     3:
     0.225015,0.287350,0.021285,0.202209,0.000000,148.000000,146.000000,2.000000,19.000000,0.000000,0.000000,0.225015,0.287350,0.021285,0.202209,0.000000,148.000000,146.000000,2.000000,19.000000,0.000000,0.000000:
0000
0000
0000
0000
,
0000
0000
0000
0000
,
0000
0000
0000
0000
,
0000
0000
0000
0000
,
0010
0001
1000
0001
,
0010
0100
1000
0000
,
0200
0000
0300
0010
,
0001
1000
0001
0000
,
0000
0100
0010
1000
,
0010
0000
0100
0001
,
1000
0001
0100
0010
,
1000
0100
0010
0000
,
0100
1000
0010
0100
,
0010
1000
0001
0100
,
0010
0100
0001
1000
,
0001
0100
0010
0010
,
1000
0001
1000
0010
,
1000
0001
1000
0000
,
0001
1000
0001
0100
,
0001
1000
0001
0000
,
0100
0001
0100
0000
,
0010
1000
0010
1000
,
0200
0000
0310
0000
,
0001
0001
1000
1000
,
0002
0000
0003
0000
,
0020
0000
0030
0000
,
0200
0000
0000
0000
,
1000
1300
0000
0000
,
2000
0000
0000
0000
,
3010
0000
0000
0000
,
0200
0000
0000
0000
,
0301
0010
0100
1000
,
2002
0000
0000
3003
,
0001
0200
0300
2000
,
3000
0200
0300
0002
,
0003
2000
3000
0200
,
0300
0002
0003
0100
,
1000
0010
1000
0000
,
0001
0100
0001
0010
,
0200
0000
1300
0000
,
1000
0001
0100
0010
,
0100
0001
0100
0010
,
0100
0001
0100
0000
,
0010
1000
0010
0100
,
0010
1000
0010
0000
,
0100
0001
0100
0000
,
0010
1000
0010
0100
,
0002
0000
1003
0000
,
0000
0000
1000
0100
,
1000
0010
0100
0000
,
0001
0100
0010
1000
,
0020
0000
0130
0000
,
0001
1000
0010
1000
,
0100
0100
0010
0010
,
0110
0000
0000
0000
;

//---------------dance-single - ----------------
#NOTES:
     dance-single:
     :
     Medium:
     6:
     0.370971,0.407878,0.244780,0.297993,0.000000,244.000000,221.000000,23.000000,28.000000,0.000000,0.000000,0.370971,0.407878,0.244780,0.297993,0.000000,244.000000,221.000000,23.000000,28.000000,0.000000,0.000000:
0000
0000
0000
0000
,
0000
0000
0000
0000
,
0000
0000
0000
0000
,
0000
0000
0000
0000
0000
0000
1000
0010
,
0100
0000
0001
0000
1000
0000
0010
1000
,
0000
1000
0100
0000
1000
0010
0100
0001
,
0010
0001
0000
1000
,
0010
0100
0000
0100
0001
0000
1000
0000
,
0001
0000
0001
0000
0001
0010
0100
1000
,
0000
1000
0000
1000
0001
0000
0100
0000
,
1010
0001
1000
0001
,
1000
0100
0000
0010
0001
0000
0100
0000
,
0010
0000
0010
0000
0010
1000
0001
0100
,
0000
0100
0000
0100
0010
0000
1000
0000
,
1100
0022
0000
0033
,
0001
1000
0011
1100
,
0010
1000
0010
0000
0010
1000
0010
0000
,
0010
0000
0010
0100
0001
0000
0000
0000
,
0100
0001
0100
0000
0100
0001
0100
0000
,
0100
0000
0100
0010
1000
0000
0000
0000
,
0100
0000
0100
1000
0100
0000
0000
0000
,
0010
0000
0010
0000
0010
0001
0010
0001
,
0100
0000
0010
2000
0002
0000
3003
0000
,
0010
1000
0000
0100
0010
0001
1000
0000
,
0100
0100
0000
0000
0000
1100
0000
0000
,
1010
0000
0000
0000
0000
0110
0000
0000
,
0100
0001
0000
0000
0000
1001
0000
0000
,
0010
0000
0100
0000
0000
1001
0000
0100
,
1000
0100
0000
0000
0000
0011
0000
0000
,
0001
1000
0000
0000
0000
1010
0000
0000
,
1000
0001
0000
0000
0100
0000
0000
0000
,
0010
0100
1000
0000
0100
0010
0001
0000
,
0202
0000
0000
0303
,
1000
2200
3300
0022
,
0033
2200
3300
2002
,
3003
0202
0303
2020
,
3030
0000
0202
0000
0303
0000
0001
1000
,
0010
0000
0010
1000
0010
0000
1000
0000
,
0100
0010
0001
0000
1000
0001
1000
0000
,
1010
0000
1000
0200
0020
0000
0330
0000
,
0001
1000
0000
0010
0100
0001
1000
0000
,
0001
0010
0001
0000
0001
1000
0001
0000
,
0001
0000
0001
1000
0100
0000
0000
0000
,
1000
0010
1000
0000
1000
0100
1000
0000
,
1000
0000
1000
0100
0010
0000
0000
0000
,
0001
0000
0001
1000
0100
0000
1000
0000
,
0100
0000
0010
0100
1000
0000
0010
0100
,
0001
0000
1000
0002
2000
0000
3003
0000
,
0010
0000
0100
0010
0100
0010
0100
0000
,
0010
0001
1000
0000
0100
1000
0001
0000
,
0100
0001
0100
0000
0010
1000
0010
0000
,
1001
0000
0100
0020
2000
0000
3030
0000
,
0100
1000
0010
0100
,
0001
0000
0100
0010
0000
0000
1000
0000
,
2002
0000
0000
3003
;

//---------------dance-double - ----------------
#NOTES:
     dance-double:
     :
     Easy:
     3:
     0.231096,0.287350,0.074498,0.159639,0.000000,152.000000,145.000000,7.000000,15.000000,0.000000,0.000000,0.231096,0.287350,0.074498,0.159639,0.000000,152.000000,145.000000,7.000000,15.000000,0.000000,0.000000:
00000000
00000000
00000000
00000000
,
00000000
00000000
00000000
00000000
,
00000000
00000000
00000000
00000000
,
00000000
00000000
00000000
00000000
,
00000000
00000010
00000100
00001000
,
00010000
01000000
00100000
00000000
,
20000000
00000000
30000000
00100000
,
01000000
00010000
00100000
00000000
,
00001000
00010000
00000100
00001000
,
00000100
00000000
00001000
00000010
,
00000100
00000000
00000001
00000010
,
00000100
00001000
00000100
00000000
,
00010000
00001000
00100000
00010000
,
01000000
00000000
00100000
10000000
,
01000000
00100000
01000000
00100000
,
00220000
00330000
00001000
00001000
,
00010000
00001000
00010000
00001000
,
00010000
00000100
00001000
00000000
,
00000010
00000100
00000010
00000100
,
00000010
00000100
00000001
00000000
,
00000010
00000100
00001000
00000000
,
00010000
00100000
01000000
10000000
,
00200000
00000000
01300000
00000000
,
00000000
00100000
00001000
00010000
,
00000100
00000000
00000000
00000000
,
00001100
00000000
00000000
00000000
,
00001010
00000000
00000000
00000000
,
00001000
00010000
00000000
00000000
,
01010000
00000000
00000000
00000000
,
10100000
00000000
00000000
00000000
,
01100000
00000000
00010000
00000000
,
00000100
00001000
00000010
00000100
,
00000002
00000000
00000000
00000003
,
00000010
00000200
00000300
00020000
,
00030000
02000000
03000000
20000000
,
30000000
00200000
00300000
02000000
,
03000000
00002000
00013000
00000100
,
00001000
00000010
00000100
00000000
,
00000001
00000100
00000010
00001000
,
00000020
00000000
00010030
00000000
,
00100000
00100000
00010000
01000000
,
00100000
10000000
00100000
01000000
,
00100000
01000000
00010000
00000000
,
00100000
00001000
00100000
00001000
,
00100000
01000000
10000000
00000000
,
01000000
00100000
00001000
00000000
,
00010000
00000100
00001000
00000001
,
00000020
00000000
00000130
00000000
,
00000000
00001000
00010000
00000010
,
00000100
00000010
00001000
00000000
,
00000100
00010000
00001000
00100000
,
00020000
00000000
01030000
00000000
,
01000000
00010000
00100000
00001000
,
00000100
00000100
00001000
00001000
,
00001100
00000000
00000000
00000000
;

//---------------dance-double - ----------------
#NOTES:
     dance-double:
     :
     Medium:
     6:
     0.342084,0.402290,0.234137,0.063856,0.000000,225.000000,203.000000,22.000000,6.000000,0.000000,0.000000,0.342084,0.402290,0.234137,0.063856,0.000000,225.000000,203.000000,22.000000,6.000000,0.000000,0.000000:
00000000
00000000
00000000
00000000
,
00000000
00000000
00000000
00000000
,
00000000
00000000
00000000
00000000
,
00000000
00000000
00000000
00000000
,
00001010
00000000
00000100
00000000
00000010
00000000
00001000
00000100
,
00000000
00000100
00001000
00000000
00000010
00010000
00000010
00000000
,
00001000
00010000
01000000
00100000
,
10000000
01000000
00000000
01000000
00100000
00000000
00010000
00000000
,
00011000
00000000
00001100
00000000
00000001
00001000
00000001
00000000
,
00000100
00000010
00000000
00000010
00001000
00000000
00000100
00000000
,
00010000
00001000
01000000
00100000
,
10000000
01000000
00000000
01000000
00100000
00000000
00001000
00000000
,
00011000
00000000
00010100
00000000
00001000
00000010
00001000
00000000
,
00000001
00000010
00000000
00000010
00000100
00000000
00001000
00000000
,
00000001
00000100
00001000
00000000
00010000
01000000
10000000
00000000
,
00100000
01000000
01010000
00110000
,
00100000
00001000
00100000
00000000
00001000
00100000
00001000
00000000
,
00100000
00001000
00101000
00000000
,
00000100
00001000
00000100
00000000
00001000
00000100
00001000
00000000
,
00000100
00001000
00001100
00000000
,
00000010
00000000
00000100
00000001
00000100
00000000
00000000
00000000
,
00000010
00000100
00001000
00010000
,
00200000
00000000
00000000
01000000
01300000
00000000
00000000
00000000
,
10000000
00010000
10000000
00000000
00100000
01000000
00100000
00000000
,
01000000
00000000
00010000
00000000
00100000
00001000
00000000
00010000
,
00000000
00000100
00000000
00001000
00000000
00000000
00000000
00000000
,
00000010
00000000
00000100
00000000
00000001
00000010
00000000
00000100
,
00000000
00001000
00000000
00010000
00000000
00100000
00000000
00000000
,
01000000
00000000
10000000
00000000
00100000
01000000
00000000
00000000
,
00010000
00000000
00100000
00000000
00001000
00010000
00000000
00000000
,
00011000
00000000
00001100
00000000
,
00000010
00000100
00000010
00000000
00001000
00000000
00000001
00000000
,
00002200
00000000
00000000
00003300
,
00000000
00011000
00000000
00100000
,
00000000
11000000
00000000
10000000
,
00000000
01010000
00000000
00100000
,
00000000
00000000
00010100
00000000
00000000
00000000
00000010
00000001
,
00000100
00000010
00001000
00000000
,
00000100
00001000
00000100
00000000
00010000
00000000
00100000
00000000
,
02000000
00000000
00000000
10000000
13000000
00000000
00000000
00000000
,
00100000
01000000
00010000
00000000
00001000
00010000
00001000
00000000
,
00010000
00000010
00001000
00000000
00000010
00010000
00001000
00000000
,
00010000
00000010
00010010
00000000
,
01000000
00001000
00010000
00000000
00001000
01000000
00010000
00000000
,
01000000
00001000
01001000
00000000
,
00001000
00000000
00010000
00000100
00001000
00000000
00000000
00000000
,
00000100
00000000
00000010
00000001
00001000
00000000
00000100
00000000
,
00002000
00000000
00000000
00000010
00003010
00000000
00000000
00000000
,
00000100
00010000
00001000
00100000
,
00010000
00000000
01000000
00100000
10000000
00000000
00000000
00000000
,
01000000
00000000
00100000
00001000
00010000
00000000
00000010
00000000
,
00000200
00000000
00000301
00000000
,
00000001
00000100
00000010
00001000
,
00110000
00000000
00000000
11000000
00000000
00000000
00110000
00000000
,
00011000
00000000
00000000
00000000
;

//---------------dance-double - ----------------
#NOTES:
     dance-double:
     :
     Hard:
     7:
     0.370971,0.495280,0.223495,0.063856,0.148996,244.000000,223.000000,21.000000,6.000000,0.000000,0.000000,0.370971,0.495280,0.223495,0.063856,0.148996,244.000000,223.000000,21.000000,6.000000,0.000000,0.000000:
00000000
00000000
00000000
00000000
,
00000000
00000000
00000000
00000000
,
00000000
00000000
00000000
00000000
,
00000000
00000000
00000000
00000000
,
10000000
01000000
10000000
00000000
00010000
00000000
00100000
00001000
,
00000000
00001000
00010000
00000000
00000100
00001000
00000100
00000000
,
00001000
00000010
00000100
00000001
,
00000010
00000100
00000000
00000010
00000100
00000000
00001000
00000000
,
00001100
00000000
00010100
00000000
00100000
00010000
00100000
00000000
,
01000000
10000000
00000000
10000000
00010000
00000000
00100000
00000000
,
10010000
00100000
00001000
00010000
,
00000100
00001000
00000000
00001000
00000010
00000000
00000100
00000000
,
00000001
00000000
00000110
00000000
00000001
00000010
00000001
00000000
,
00000010
00000100
00000000
00000100
00010000
00000000
00001000
00000000
,
00100000
00010000
01000000
00100000
,
10000000
01000000
00100000
00000000
00110000
00000000
01010000
00000000
,
01000000
00000000
00010000
01000000
00000000
00000000
00000000
00000000
00001000
00000000
00010000
00001000
00000000
00000000
00000000
00000000
,
00000100
00000000
00000000
00001000
00000000
00000000
00000100
00000000
00001000
00000000
00000000
00000000
00000000
00000000
00000000
00000000
,
00000001
00000000
00000010
00000001
00000000
00000000
00000000
00000000
00000100
00000000
00001000
00000100
00000000
00000000
00000000
00000000
,
00010000
00000000
00000000
00001000
00000000
00000000
00010000
00000000
00001000
00000000
00000000
00000000
00000000
00000000
00000000
00000000
,
00100000
00000000
00000000
00100000
00000000
00000000
00100000
00000000
00010000
00000000
00000000
00000000
00000000
00000000
00000000
00000000
,
10000000
00000000
00000000
10000000
00000000
00000000
10000000
00000000
00010000
00000000
00000000
00010000
00000000
00000000
00010000
00000000
,
02000000
00000000
00000000
00100000
03100000
00000000
00000000
00000000
,
01000000
00100000
00010000
00001000
,
00000100
00000010
00000000
00000000
00000000
00000101
00000000
00000000
,
00000110
00000000
00000000
00000000
00000000
00001010
00000000
00000000
,
00010000
00000100
00000000
00000000
00000000
00110000
00000000
00000000
,
01010000
00000000
11000000
00000000
00000000
01100000
00000000
01000000
,
00010000
00000000
00100000
00000000
00000000
00000000
00000000
00000000
00000000
00000000
00100000
00000000
00000000
00100000
00000000
00000000
,
00001000
00000000
00010000
00000000
00000000
00000000
00000000
00000000
00000000
00000000
00000010
00000000
00000000
00000010
00000000
00000000
,
00000100
00000001
00000000
00000000
00001000
00000000
00000000
00000000
,
00000100
00010000
00001000
01000000
,
00100000
00000000
00000000
10000000
00000000
00000000
00010000
00000000
00000000
00100000
00000000
00000000
00000000
00000000
00000000
00000000
,
00100000
00011000
00000000
00001100
,
00000000
00000110
00000000
00000101
,
00000000
00001010
00000000
00011000
,
00000000
00110000
01000000
10000000
,
00100000
00000000
00000000
00100000
00000000
00000000
00100000
00000000
01000000
00000000
00000000
00000000
00000000
00000000
00000000
00000000
,
01000000
00000000
00000000
01000000
00000000
00000000
01000000
00000000
00010000
00000000
00000000
00010000
00000000
00000000
00010000
00000000
,
00200000
00000000
00000000
00001000
00301000
00000000
00000000
00000000
,
00010000
00000100
00001000
00000000
00000010
00000100
00000010
00000000
,
00000100
00000000
00000001
00000100
00000000
00000000
00000000
00000000
00000010
00000000
00001000
00000010
00000000
00000000
00000000
00000000
,
00010000
00000000
00000000
00001000
00000000
00000000
00010000
00000000
00001000
00000000
00000000
00000000
00000000
00000000
00000000
00000000
,
01000000
00000000
00010000
01000000
00000000
00000000
00000000
00000000
00100000
00000000
10000000
00100000
00000000
00000000
00000000
00000000
,
10000000
00000000
00000000
01000000
00000000
00000000
10000000
00000000
01000000
00000000
00000000
00000000
00000000
00000000
00000000
00000000
,
00100000
00000000
00000000
00100000
00000000
00000000
00100000
00000000
00010000
00000000
00000000
00000000
00000000
00000000
00000000
00000000
,
00001000
00000000
00000000
00001000
00000000
00000000
00001000
00000000
00010000
00000000
00000000
00010000
00000000
00000000
00010000
00000000
,
00000020
00000000
00000000
00000100
00000130
00000000
00000000
00000000
,
00000010
00000100
00001000
00000000
00000010
00000100
00000001
00000000
,
00001000
00000000
00000000
00001000
00000000
00000000
00001000
00000000
00000100
00000000
00000000
00000000
00000000
00000000
00000000
00000000
,
00000100
00000000
00000000
00000100
00000000
00000000
00000100
00000000
00010000
00000000
00000000
00010000
00000000
00000000
00010000
00000000
,
00002000
00000000
00000000
01000000
01003000
00000000
00000000
00000000
,
00100000
01000000
00010000
10000000
01000000
00100000
00010000
00000000
,
00100000
00001000
00010000
00000100
00001000
00010000
00001000
00000100
,
00022000
00000000
00000000
00033000
;
