#TITLE:Beast Mode;
#SUBTITLE:;
#ARTIST:xKore;
#TITLETRANSLIT:;
#SUBTITLETRANSLIT:;
#ARTISTTRANSLIT:;
#GENRE:Dubstep;
#CREDIT:;
#BANNER:beastmode-bn.png;
#BACKGROUND:beastmode-bg.png;
#LYRICSPATH:;
#CDTITLE:;
#MUSIC:Beast Mode.ogg;
#OFFSET:-0.015000;
#SAMPLESTART:34.274998;
#SAMPLELENGTH:12.000000;
#SELECTABLE:YES;
#BPMS:0.000000=139.990005
,12.000000=279.980011
,16.000000=139.990005
,28.000000=279.980011
,32.000000=139.990005
,44.000000=279.980011
,48.000000=69.995003
,62.000000=139.990005
,75.000000=279.980011
,79.000000=69.995003
,81.000000=139.990005
,91.000000=279.980011
,95.000000=139.990005
,107.000000=279.980011
,111.000000=139.990005
,123.000000=279.980011
,127.000000=69.995003
,141.000000=139.990005
,142.000000=279.980011
,146.000000=139.990005
,148.000000=279.980011
,152.000000=139.990005
,154.000000=279.980011
,158.000000=139.990005
,160.000000=279.980011
,164.000000=139.990005
,166.000000=279.980011
,170.000000=139.990005
,172.000000=279.980011
,176.000000=139.990005
,178.000000=279.980011
,182.000000=139.990005
,184.000000=279.980011
,192.000000=139.990005
,201.000000=279.980011
,205.000000=559.960022
;
#STOPS:12.000000=0.215000,
13.000000=0.215000,
14.000000=0.215000,
15.000000=0.215000,
28.000000=0.215000,
29.000000=0.215000,
30.000000=0.215000,
31.000000=0.215000,
44.000000=0.215000,
45.000000=0.215000,
46.000000=0.215000,
47.000000=0.215000,
62.000000=0.643000,
62.500000=0.644000,
75.000000=0.215000,
76.000000=0.215000,
77.000000=0.215000,
78.000000=0.215000,
107.000000=0.214000,
108.000000=0.215000,
109.000000=0.215000,
110.000000=0.215000,
123.000000=0.215000,
124.000000=0.215000,
125.000000=0.215000,
126.000000=0.215000,
141.000000=0.643000,
141.500000=0.642000,
194.000000=0.428000,
197.000000=0.428000,
200.000000=0.428000,
201.000000=0.215000,
202.000000=0.215000,
203.000000=0.215000,
204.000000=0.215000
;
#BGCHANGES:;
#KEYSOUNDS:;
#ATTACKS:;

//---------------dance-single - ----------------
#NOTES:
     dance-single:
     :
     Hard:
     7:
     0.393396,0.721859,0.452261,0.251256,0.115578,274.000000,229.000000,45.000000,25.000000,0.000000,0.000000,0.393396,0.721859,0.452261,0.251256,0.115578,274.000000,229.000000,45.000000,25.000000,0.000000,0.000000:
// measure 0
0000
0000
0000
0000
,  // measure 1
0000
0000
0000
0000
,  // measure 2
0000
0000
0000
0000
,  // measure 3
1010
0101
1100
0011
,  // measure 4
0001
0000
0100
0000
0010
1000
0100
0000
,  // measure 5
0010
0000
0100
0000
1000
0010
1000
0000
,  // measure 6
0010
0000
1000
0000
0100
0010
0001
0000
,  // measure 7
1001
0011
1100
0110
,  // measure 8
0001
0000
1000
0000
0001
0100
0001
0000
,  // measure 9
0010
0000
0100
0000
0010
0001
0100
0000
,  // measure 10
0001
0000
1000
0000
0001
0100
0001
0000
,  // measure 11
1100
0110
0011
1001
,  // measure 12
0010
0100
0010
0100
,  // measure 13
0010
0100
0010
0100
0010
0100
0010
0100
,  // measure 14
0010
0100
0010
0100
0010
0100
0010
0100
0010
0100
0010
0100
0010
0100
0010
0100
,  // measure 15
0220
0000
0000
0000
0000
0000
0000
0330
1000
0000
0001
0000
0200
0000
0000
0000
,  // measure 16
0000
0000
0300
0010
0200
0000
0000
0000
0000
0000
0000
0000
0301
0000
0000
0000
,  // measure 17
0110
0000
1000
0000
0010
0100
0020
0000
,  // measure 18
0000
0000
0030
0100
0020
0000
0000
0000
1030
0000
0000
0000
1001
0000
0000
0000
,  // measure 19
1010
0102
2003
3020
,  // measure 20
0000
0000
0000
0000
0130
0000
0000
0001
1000
0000
0000
0010
0200
0000
0000
0000
,  // measure 21
0000
0000
0000
0000
0302
0000
0000
0000
0000
0000
0003
0100
0002
0000
0000
0000
,  // measure 22
0013
0010
0001
0010
0100
0000
2000
0000
,  // measure 23
0000
0002
3003
1000
,  // measure 24
1010
0000
0001
0010
0100
0000
0010
0000
,  // measure 25
0011
0000
1000
0100
0010
0000
0100
0000
,  // measure 26
0110
0000
0010
0001
1000
0000
0101
0000
,  // measure 27
1100
0011
1010
1000
,  // measure 28
0101
0000
0001
0010
0100
0000
1000
0000
,  // measure 29
0101
0000
0100
0010
1000
0000
1000
0000
,  // measure 30
1001
0000
0010
0100
0001
0000
0110
0000
,  // measure 31
1100
0011
0101
0001
,  // measure 32
1000
0000
0001
0000
1000
0000
0001
1000
,  // measure 33
0001
0000
1000
0000
0001
0000
1000
0000
0001
0000
1000
0000
0001
1000
0001
1000
,  // measure 34
0001
1000
0001
1000
0001
1000
0001
1000
0001
1000
0001
1000
2002
0000
0000
0000
,  // measure 35
0000
0000
0000
3003
0110
0000
1100
0000
0002
0000
0000
0000
0000
0000
0000
0000
,  // measure 36
0000
0000
0000
0000
1003
0100
1000
0100
,  // measure 37
0020
0000
0000
0000
,  // measure 38
0130
1000
0100
1000
0200
0000
0000
0000
,  // measure 39
0000
0000
0000
0000
1300
0001
1000
0001
,  // measure 40
2000
0000
0000
0010
,  // measure 41
3010
0000
1200
0000
,  // measure 42
0000
0000
0000
0000
0310
0001
0010
0001
,  // measure 43
0012
0000
0000
0000
,  // measure 44
0103
0010
0100
0010
0210
0000
0000
0000
,  // measure 45
0000
0000
0000
0000
1300
0010
1000
0010
,  // measure 46
1000
0000
1001
0000
,  // measure 47
0010
0100
0001
0000
,  // measure 48
1000
0000
0000
0000
0010
0000
0000
1000
0100
0000
0000
0000
0011
0000
0000
0000
,  // measure 49
1100
0000
0100
0000
1000
0000
0000
0000
0001
0000
0000
0000
1000
0000
0000
0010
,  // measure 50
1000
0011
1100
1010
,  // measure 51
0101
2002
0000
0000
,  // measure 52
0000
0000
0000
0000
,  // measure 53
0000
0000
0000
0000
,  // measure 54
0000
0000
0000
0000
,  // measure 55
0000
3003
0000
0000
;

//---------------dance-single - ----------------
#NOTES:
     dance-single:
     :
     Challenge:
     10:
     0.618808,1.110553,0.301508,0.140704,0.452261,431.000000,401.000000,30.000000,14.000000,0.000000,0.000000,0.618808,1.110553,0.301508,0.140704,0.452261,431.000000,401.000000,30.000000,14.000000,0.000000,0.000000:
0000
0000
0000
0000
,
0000
0000
0000
0000
,
0000
0000
0000
0000
,
0201
2300
3020
0032
,
1003
0000
0100
0000
0010
0000
0100
1000
0100
0000
0100
0000
0100
0000
0000
0000
,
0010
0000
0001
0000
0100
0000
0001
0010
0001
0000
0001
0100
0001
0000
0000
0000
,
1001
0000
0100
0000
0001
0000
0010
0001
1000
0000
0001
0000
0010
0000
0000
0000
,
1010
0101
0011
1100
,
0010
0000
0001
0000
0100
0000
0001
0010
0001
0000
0001
0000
0001
0000
0000
0000
,
0100
0000
1000
0000
0100
0000
0001
0010
0001
0000
0001
1000
0001
0000
0000
0000
,
1100
0000
0010
0000
0001
0000
1000
0001
0010
0000
0100
0000
0010
0000
0000
0000
,
1000
0010
0100
0001
0010
0100
1000
0000
,
0001
0010
0001
0010
,
0001
0010
0001
0010
0001
0010
0001
0010
,
0001
0010
0001
0010
0001
0010
0001
0010
0001
0010
0001
0010
0001
0010
0001
0010
,
0001
0010
0001
0010
0001
0010
0001
0010
0001
0010
0001
0010
0001
0010
0001
0010
0001
0000
0100
0000
0010
0000
0000
0000
1000
0000
0100
0000
0010
0000
0001
0000
,
0100
0000
0000
0000
0000
0000
0000
0000
0000
0010
0000
0000
0100
0000
0000
0000
0000
0000
0001
0000
0000
0010
0000
0000
0100
0000
0000
1000
0000
0000
0001
0000
0000
0000
0000
0000
0010
0000
0000
0000
0001
0000
0000
0000
0100
0000
0000
0000
,
0010
0000
0000
0000
1000
0000
0000
0000
0100
0000
0000
0000
0020
0000
0000
0000
0000
0000
0000
0000
0000
0000
0000
0000
0130
0000
0000
0000
0000
0000
1000
0000
0000
0000
0000
0000
0100
0000
0000
0001
0000
0000
0010
0000
0000
0100
0000
0000
,
1000
0000
0000
0001
1000
0000
0010
0001
0010
1000
0001
0000
1200
0000
0000
0000
,
0302
0000
0000
0000
0023
0000
0000
0030
1100
0000
0000
0000
0002
0000
0000
0000
,
0000
0000
0000
0000
0103
0000
0000
0001
0010
0000
0000
0001
0100
0000
0010
1000
,
0100
0010
0100
1000
0100
0010
0001
1000
0001
0000
0000
1000
0001
0000
0010
0100
,
0010
0001
1000
0000
1000
0000
0100
0010
0001
0000
0000
0000
0100
0000
0000
0000
,
0010
1000
0100
0000
1000
0010
0100
0010
,
0101
0000
0010
0100
1000
0000
0001
0000
0010
0000
0000
0000
0100
0000
0001
0000
,
1010
0000
0100
0001
0010
0000
0100
1000
0010
0000
0000
0000
1001
0000
0010
0000
,
1001
0000
0010
0100
0001
0000
1000
0000
0100
0000
0000
0000
1020
0000
0000
0000
,
0001
0000
1000
0000
0031
0000
1000
0001
,
1010
0000
0001
0100
0001
0000
1000
0000
0010
0000
0000
0000
0010
0000
0100
0000
,
1100
0000
0010
0100
0001
0000
1000
0010
0100
0000
0000
0000
0110
0000
1000
0000
,
0101
0000
0010
0100
1000
0000
0001
0000
0010
0000
0000
0000
1000
0000
0100
0000
,
0010
0001
0010
0100
1000
0000
0100
0000
,
1000
0000
0100
0000
1000
0000
0100
1000
,
0100
0000
1000
0000
0100
0000
1000
0000
0100
0000
1000
0000
0100
1000
0100
1000
,
0100
0000
1000
0000
0100
0000
1000
0000
0100
0000
1000
0000
0100
0000
1000
0000
0100
0000
1000
0000
0100
0000
1000
0000
0100
1000
0100
1000
0100
1000
0100
1000
,
0100
1000
0100
1000
0100
1000
0100
1000
0100
0000
0000
0000
0011
0000
0000
0000
0100
0000
0000
0000
0001
0000
0000
0000
0100
0000
0000
0000
0001
0000
0000
0000
,
0100
0001
0100
0001
1000
0001
1000
0001
,
1000
0010
1000
0010
1000
0010
1000
0010
,
0100
0010
0100
0010
0100
0001
0100
0001
,
0100
0001
0100
0001
0010
0001
0010
0001
,
2002
0000
0003
0010
,
3010
0000
0000
0000
0100
1000
0100
0001
,
0100
0000
1000
0000
0010
0000
0100
0000
0001
0000
1000
0000
0100
1000
0100
0000
,
1000
0010
0100
0001
0010
0100
0010
0001
,
0100
0000
0001
0000
1000
0010
0100
0000
0001
0000
0010
0000
0100
0000
1000
0000
,
0100
0000
0010
0000
0001
0000
0100
0000
0010
0000
0100
0000
0001
0010
0100
0000
,
0010
0000
0001
0100
0010
0000
1000
0100
,
0010
0000
0001
1000
0010
0000
0000
0000
,
1100
0000
0000
0000
0011
0000
0000
0100
1000
0000
0000
0000
0011
0000
0100
0001
,
1000
0000
0010
0000
1010
0000
0000
0000
0101
0000
0010
0001
0100
0010
1000
0100
,
0001
1010
0101
0011
,
1100
2020
0000
0000
,
0000
0000
0000
0000
,
0000
0000
0000
0000
,
0000
0000
0000
0000
,
0000
3030
0000
0000
;

//---------------dance-single - ----------------
#NOTES:
     dance-single:
     :
     Medium:
     5:
     0.265614,0.694095,0.100503,0.271357,0.070352,185.000000,175.000000,10.000000,27.000000,0.000000,0.000000,0.265614,0.694095,0.100503,0.271357,0.070352,185.000000,175.000000,10.000000,27.000000,0.000000,0.000000:
0000
0000
0000
0000
,
0000
0000
0000
0000
,
0000
0000
0000
0000
,
1000
1000
1000
1000
,
0001
0001
0020
0031
,
1000
1000
0020
1030
,
0001
0001
0020
0031
,
0100
0100
0100
0100
,
0010
0010
2000
3010
,
0100
0100
0002
0103
,
0010
0010
2000
3010
,
0001
0001
0001
0001
,
0001
1000
0001
1000
,
0001
1000
0001
1000
0001
1000
0001
1000
,
0001
1000
0001
1000
0001
1000
0001
1000
0001
1000
0001
1000
0001
1000
0001
0000
,
2002
0000
0000
3003
0000
0000
0020
0000
,
0000
0230
0000
0301
,
0010
1100
0010
0002
,
0000
2003
0000
3010
,
0010
0010
0020
0130
,
0000
0001
0010
0100
,
1000
0100
2000
0000
0000
0000
3020
0000
,
0000
0130
0001
2000
,
0000
0000
0000
3001
,
0001
1001
0000
0100
,
0100
0101
0000
0010
,
0010
1010
0000
0001
,
0001
0001
0001
1000
,
1000
1010
0000
0100
,
0100
0110
0000
0010
,
0010
0011
0000
0100
,
0100
0100
0100
0010
,
0100
0000
0010
0000
0100
0000
0010
0100
,
0010
0000
0100
0000
0010
0000
0100
0000
0010
0000
0100
0000
0010
0100
0010
0100
,
0010
0100
0010
0100
0010
0100
0010
0100
0010
0100
0010
0000
0220
0000
0000
0000
,
0000
0330
0000
0000
0002
0000
0000
0000
,
0000
0000
1003
0000
,
0200
0000
0000
0000
,
0310
0000
2000
0000
,
0000
0000
3100
0000
,
0020
0000
0000
0001
,
0031
0000
0200
0000
,
0000
0000
0301
0000
,
2000
0000
0000
0000
,
3010
0000
0200
0000
,
0000
0000
1300
0000
,
0010
0000
0001
0000
,
1000
0000
0010
0000
,
0100
0100
0001
0010
,
0100
1000
0100
0000
0010
0000
0001
0000
,
1000
0001
0001
0001
,
0001
2002
0000
0000
,
0000
0000
0000
0000
,
0000
0000
0000
0000
,
0000
0000
0000
0000
,
0000
3003
0000
0000
;

//---------------dance-single - ----------------
#NOTES:
     dance-single:
     :
     Easy:
     4:
     0.182340,0.499749,0.020101,0.150754,0.000000,127.000000,125.000000,2.000000,15.000000,0.000000,0.000000,0.182340,0.499749,0.020101,0.150754,0.000000,127.000000,125.000000,2.000000,15.000000,0.000000,0.000000:
0000
0000
0000
0000
,
0000
0000
0000
0000
,
0000
0000
0000
0000
,
1000
1000
1000
1000
,
0010
1000
0000
0000
,
0001
1000
0000
0000
,
0100
0001
0000
0000
,
0010
0010
0010
0010
,
0001
0010
0000
0000
,
0100
0001
0000
0000
,
0010
1000
0000
0000
,
0010
0010
0010
0010
,
0100
0100
0100
0100
,
0100
0100
0100
0100
0100
0100
0100
0100
,
0010
1000
0001
0100
0010
1000
0001
0100
,
2002
0000
0000
3003
0000
0000
2000
0000
,
0000
3001
0000
0100
,
0001
1000
0000
0020
,
0000
1030
0000
0001
,
0001
0001
0001
0000
,
0000
0100
0001
1000
,
0000
0020
0000
1030
,
0000
0001
0001
0000
,
0000
0000
0000
1000
,
0100
0000
0000
0010
,
0001
0000
0000
0100
,
1000
0000
0000
0001
,
0001
0001
0001
0010
,
0100
0000
0000
0010
,
1000
0000
0000
0010
,
0001
0000
0000
0100
,
0100
0100
0100
0010
,
0010
0000
0010
0000
0010
0000
0010
0010
,
0010
0010
0010
0010
0010
0010
0010
0001
,
1000
0100
0010
0001
1000
0100
2002
0000
,
0000
3003
0000
0000
0020
0000
0000
0000
,
0000
0000
0030
0000
,
2000
0000
0000
0000
,
3000
0000
0002
0000
,
0000
0000
0003
0000
,
0200
0000
0000
0000
,
0300
0000
0002
0000
,
0000
0000
0003
0000
,
0020
0000
0000
0000
,
0030
0000
0200
0000
,
0000
0000
0300
0000
,
0000
0000
0000
0000
,
0000
0000
0000
0000
,
1000
1000
1000
0010
,
0100
0001
0010
0010
,
0010
0001
0001
0001
,
0001
0002
0000
0000
,
0000
0000
0000
0000
,
0000
0000
0000
0000
,
0000
0000
0000
0000
,
0000
0003
0000
0000
;

//---------------dance-single - ----------------
#NOTES:
     dance-single:
     :
     Beginner:
     1:
     0.076095,0.180276,0.010050,0.020101,0.000000,53.000000,52.000000,1.000000,2.000000,0.000000,0.000000,0.076095,0.180276,0.010050,0.020101,0.000000,53.000000,52.000000,1.000000,2.000000,0.000000,0.000000:
0000
0000
0000
0000
,
0000
0000
0000
0000
,
0000
0000
0000
0000
,
0000
0000
0000
0000
,
0001
0000
0000
0000
,
1000
0000
0000
0000
,
0001
0000
0000
0000
,
0000
0000
0000
0000
,
0100
0000
0000
0000
,
0010
0000
0000
0000
,
0100
0000
0000
0000
,
0000
0000
0000
0000
,
0001
0000
0000
0000
,
0001
0000
0001
0000
,
0001
0001
0001
0001
,
0002
0000
0003
0000
,
0000
0000
0000
0010
,
0010
0010
0000
0100
,
0000
0000
0000
0000
,
0000
0000
0000
0000
,
0000
0010
0000
0000
,
0000
1000
0000
0000
,
0000
0100
0100
0000
,
0000
0000
0000
0001
,
0001
0000
0000
1000
,
1000
0000
0000
0010
,
0010
0000
0000
0000
,
0000
0000
0000
1000
,
1000
0000
0000
0100
,
0100
0000
0000
0010
,
0010
0000
0000
0000
,
0000
0000
0000
1000
,
0000
0000
0000
1000
,
0000
1000
0000
1000
,
1000
1000
1000
2000
,
0000
3000
0000
0000
,
0000
0000
1000
0000
,
0000
0000
0000
0000
,
0001
0000
0000
0000
,
0000
0000
0100
0000
,
0000
0000
0000
0000
,
0000
0000
0000
0000
,
0000
0000
0010
0000
,
0000
0000
0000
0000
,
0100
0000
0000
0000
,
0000
0000
0001
0000
,
0000
0000
0000
0000
,
0000
0000
0000
0000
,
1000
0000
0000
0010
,
0000
0000
0100
0000
,
0000
0000
0000
0000
,
0000
0110
0000
0000
;
