#TITLE:Ayla;
#SUBTITLE:(Veracocha Remix);
#ARTIST:Ayla;
#TITLETRANSLIT:;
#SUBTITLETRANSLIT:;
#ARTISTTRANSLIT:;
#GENRE:Trance;
#CREDIT:;
#BANNER:ayla-bn.png;
#BACKGROUND:ayla-bg.png;
#LYRICSPATH:;
#CDTITLE:;
#MUSIC:Ayla (Veracocha Remix).ogg;
#OFFSET:-0.883000;
#SAMPLESTART:76.140007;
#SAMPLELENGTH:12.000000;
#SELECTABLE:YES;
#BPMS:0.000000=139.039993
,96.000000=69.519997
,104.000000=139.039993
;
#STOPS:
;
#BGCHANGES:;
#KEYSOUNDS:;
#ATTACKS:;

//---------------dance-single - ----------------
#NOTES:
     dance-single:
     :
     Hard:
     9:
     0.749604,0.876308,0.159329,0.021244,0.770089,494.000000,479.000000,15.000000,2.000000,0.000000,0.000000,0.749604,0.876308,0.159329,0.021244,0.770089,494.000000,479.000000,15.000000,2.000000,0.000000,0.000000:
// measure 0
0000
0000
0000
0000
,  // measure 1
0000
0000
0000
0000
,  // measure 2
0001
0100
1000
0000
1000
0100
0001
0000
,  // measure 3
0001
0100
1000
0000
1000
0100
0001
0000
,  // measure 4
1000
0000
0100
0000
0010
0001
0000
0010
0001
0000
0100
0000
0010
1000
0000
0010
,  // measure 5
1000
0000
0001
0000
0100
0010
0000
0100
0010
0000
0100
0000
0001
1000
0000
0001
,  // measure 6
1000
0000
0001
0000
0100
0001
0000
0100
0001
0000
1000
0000
0010
1000
0000
0010
,  // measure 7
1000
0000
0001
0000
1000
0001
0000
0001
1000
0000
0010
0100
0010
0000
1000
0001
,  // measure 8
1000
0000
0100
0000
0010
0100
0000
0100
0010
0000
0100
0001
0100
0000
0001
0010
,  // measure 9
0001
0000
0100
0000
0010
1000
0000
1000
0010
0000
1000
0100
1000
0000
0010
1000
,  // measure 10
0010
0000
0100
0000
0001
1000
0000
1000
0001
0000
0100
0001
0100
0000
0010
0100
,  // measure 11
0010
0000
1000
0000
0100
1000
0000
1000
0100
0000
1000
0010
1000
0000
0001
0010
,  // measure 12
0001
0000
0100
0000
0100
0001
0000
0001
0100
0000
0100
0010
0100
0000
0010
1000
,  // measure 13
0010
0000
1000
0000
0001
0010
0000
0010
0001
0000
1000
0100
1000
0000
0010
1000
,  // measure 14
0010
0000
0100
0000
0001
0010
0000
0100
1000
0000
0010
0100
0010
0000
1000
0000
,  // measure 15
1001
0000
0000
0000
0110
0000
0000
0000
1001
0000
0010
0100
0010
0000
0010
0100
,  // measure 16
0010
0000
1000
0000
0100
0000
0010
0000
0100
0000
1000
0001
1000
0000
1000
0001
,  // measure 17
1000
0000
0001
0000
0100
0000
0010
0000
0100
0000
0001
0010
0001
0000
0001
0010
,  // measure 18
0001
0100
1000
0100
0001
0010
1000
0010
,  // measure 19
1001
0000
0000
0000
1000
0000
0010
0000
0100
0000
0001
0010
0100
0000
0100
0010
,  // measure 20
0001
0000
1000
0000
0100
0000
0010
0000
0001
0000
0100
0010
1000
0000
1000
0010
,  // measure 21
0100
0000
0001
0000
1000
0000
0100
0000
0010
0000
0100
1000
0001
0000
0000
0000
,  // measure 22
1100
0100
1000
0000
0011
0001
0100
0010
,  // measure 23
1000
0000
0000
0100
0000
0000
0010
0000
0000
1000
0000
0000
0020
0000
0000
0000
,  // measure 24
0031
0100
0001
0000
0100
0001
0100
0000
0001
0100
0001
0000
0000
0000
0000
0000
1000
0001
1000
0000
0001
1000
0001
0000
1000
0001
1000
0000
0000
0000
0000
0000
,  // measure 25
0010
0100
0010
0000
0100
0010
0100
0000
0010
0100
0010
0000
0100
0010
0100
0000
0020
0000
0000
0000
0000
0000
0000
0000
0000
0000
0000
0000
0030
0000
0000
0000
,  // measure 26
0001
0100
0001
0000
1000
0000
0100
0000
0010
0100
0010
0000
0100
0000
1000
0000
,  // measure 27
0100
1000
0100
0000
1000
0000
0100
0000
0010
0100
0010
0000
0001
0000
0100
0000
,  // measure 28
0010
1000
0010
0000
0100
0000
0001
0000
0100
0010
0100
0000
0001
0000
0010
0000
,  // measure 29
0001
1000
0001
0000
1000
0000
0100
0000
0010
0001
0010
0000
0100
0000
1000
0000
,  // measure 30
0100
1000
0010
0000
0100
0000
0001
0000
1000
0001
0010
0000
0100
0000
0010
0000
,  // measure 31
0001
1000
0100
0000
0010
0000
0100
0000
0010
0001
0100
0000
0010
0000
1000
0000
,  // measure 32
1100
0010
0001
0000
0101
0010
1000
0000
,  // measure 33
1000
0100
1000
0000
0001
0100
0001
0000
1000
0000
0010
0100
0001
0000
0001
0100
,  // measure 34
0010
0000
0100
0010
0000
0100
0010
0000
1000
0000
0100
0010
0001
0000
0001
0010
,  // measure 35
0100
0000
1000
0001
0000
1000
0001
0000
0100
0000
0010
1000
0100
0000
0100
1000
,  // measure 36
0010
0000
0100
0001
0000
0100
0001
0000
0010
0000
0001
1000
0100
0000
0100
1000
,  // measure 37
0001
0000
1000
0010
0000
0100
0001
0000
0010
0000
0100
1000
0010
0000
0100
0001
,  // measure 38
0010
0000
1000
0001
0000
1000
0001
0000
0100
0000
0001
0010
0100
0000
0010
0001
,  // measure 39
1000
0000
0001
0010
0000
0001
0010
0000
0001
0000
1000
0100
0010
0000
0100
1000
,  // measure 40
0001
0000
0010
0001
0000
0010
0001
0000
1000
0000
0100
0000
1000
0000
0001
0000
,  // measure 41
0011
0000
0100
0000
1000
0000
0001
0000
0100
0000
0010
1000
0001
0000
1000
0100
,  // measure 42
0010
0000
0001
1000
0001
0000
0100
0000
0000
0000
0100
0001
1000
0000
0010
1000
,  // measure 43
0100
0000
1000
0010
1000
0000
0001
0000
0000
0000
0100
0001
0010
0000
0001
1000
,  // measure 44
0100
0000
0010
0001
0010
0000
0100
0000
0000
0000
1000
0010
0100
0000
0001
1000
,  // measure 45
0010
0000
0100
0001
0100
0000
1000
0000
0000
0000
0100
0001
0100
0001
0100
0000
,  // measure 46
1001
0000
0010
0001
0010
0000
0001
0000
0000
0000
0001
1000
0001
1000
0001
0000
,  // measure 47
1001
0000
0100
0010
0100
0000
1000
0000
0000
0000
0100
0010
0100
0010
0100
0000
,  // measure 48
1001
0000
0100
1000
0100
0000
1000
0000
1001
0000
0010
0100
0010
0100
0010
0000
,  // measure 49
1000
0010
0000
0100
0001
0000
0100
0010
0000
1000
0010
0000
1001
0000
0000
0000
,  // measure 50
0110
0000
0000
0000
;

//---------------dance-single - ----------------
#NOTES:
     dance-single:
     :
     Medium:
     6:
     0.429429,0.504541,0.212438,0.021244,0.037177,283.000000,263.000000,20.000000,2.000000,0.000000,0.000000,0.429429,0.504541,0.212438,0.021244,0.037177,283.000000,263.000000,20.000000,2.000000,0.000000,0.000000:
0000
0000
0000
0000
,
0000
0000
0000
0000
,
1000
0000
0100
0000
0001
0000
0100
1000
,
0001
0000
0100
0000
1000
0000
0100
0001
,
1000
0100
0000
0011
0000
1000
0000
0001
,
0100
0010
0000
1100
0000
0010
0000
0100
,
0001
1000
0000
0110
0000
0100
0000
0001
,
1000
0100
0000
0011
0000
0000
0001
0100
,
0001
0000
1000
0000
0100
0000
1000
0010
,
1000
0000
0001
0000
0100
0000
0001
0010
,
0001
0000
1000
0000
0010
0000
1000
0100
,
1000
0000
0001
0000
0010
0000
0001
0100
,
0001
0000
1000
0000
0010
0000
0100
0001
,
0010
0000
0100
0000
1000
0000
0100
1000
,
0010
0000
1000
0000
0001
0000
1000
0001
,
1001
0000
0110
0000
1001
0000
0010
0100
,
0001
0000
1000
0000
0001
1000
0100
0010
,
0001
0000
1000
0000
0001
1000
0100
0010
,
0001
0000
1000
0000
0001
1000
0100
0010
,
0001
0000
1000
0000
1000
0001
0010
0100
,
1000
0000
0001
0000
1000
0001
0010
0100
,
1000
0000
0001
0000
1000
0001
0010
0100
,
1000
0010
0101
1000
,
1001
0110
1001
0010
,
0100
0010
0100
0010
0000
0000
0000
0000
1000
0001
1000
0001
0000
0000
0000
0000
,
0100
0001
0100
0001
0100
0001
0000
0000
2002
0000
0000
0000
0000
0000
3003
0000
,
0010
1000
0010
0000
0100
0001
0100
0000
,
0010
1000
0100
0001
,
0100
1000
0100
0000
0001
0010
0001
0000
,
0100
1000
0010
0001
,
0010
0100
0010
0000
1000
0001
1000
0000
,
0001
0010
0001
0000
1000
0100
1000
0000
,
0001
0100
0001
0000
1000
0010
1000
0000
,
1001
0000
0110
0000
1001
0000
0010
0100
,
0001
0000
1000
0000
0001
0100
0010
1000
,
0001
0000
1000
0000
0001
0100
0010
1000
,
0001
0000
1000
0000
0001
0100
0010
1000
,
0001
0000
1000
0000
0010
0100
0001
1000
,
0010
0000
1000
0000
0010
0100
0001
1000
,
0010
0000
1000
0000
0010
0100
0001
1000
,
0010
0000
1000
0000
0010
0100
0001
1000
,
0010
0000
1000
0000
0001
0100
0010
0100
,
0001
0000
1000
0000
0010
1000
0100
1000
,
0010
0000
0100
0000
0001
1000
0100
1000
,
0001
0000
0100
0000
0010
0100
0001
0100
,
0010
0000
1000
0000
0001
0000
1000
0001
,
1001
0000
0100
0000
0001
0000
0100
0010
,
0110
0000
1000
0000
0001
0000
1000
0010
,
1010
0000
0001
1000
1001
0000
0010
0000
,
0100
0100
0100
0100
,
1001
0000
0000
0000
;

//---------------dance-single - ----------------
#NOTES:
     dance-single:
     :
     Easy:
     4:
     0.327762,0.398322,0.212438,0.435498,0.000000,216.000000,196.000000,20.000000,41.000000,0.000000,0.000000,0.327762,0.398322,0.212438,0.435498,0.000000,216.000000,196.000000,20.000000,41.000000,0.000000,0.000000:
0000
0000
0000
0000
,
0000
0000
0000
0000
,
1000
0100
0001
0100
,
1000
0100
0001
0100
,
1000
1000
0001
0001
,
0100
0100
0010
0010
,
0100
0100
0001
0001
,
1000
1000
0010
0200
,
0310
1000
0001
0200
,
0310
1000
0001
0200
,
0310
1000
0001
0200
,
0310
1000
0100
0020
,
0031
0001
0010
0200
,
1300
1000
0010
0200
,
0301
0001
0100
0020
,
1030
0001
1000
1001
,
0010
1000
0001
1001
,
1000
0010
0100
0110
,
0001
1000
0001
1001
,
0010
0100
0010
1000
,
1001
0010
0100
0001
,
1001
0100
0010
1000
,
1001
0010
0110
0001
,
1000
0001
1000
0001
,
1000
0100
0010
0000
0001
0010
0100
0000
,
1000
0001
1000
0001
2000
0000
0000
3000
,
0002
0203
0302
0023
,
0230
2300
3200
0320
,
0032
0203
0302
2003
,
3001
0100
1000
1000
,
0020
0230
0320
0032
,
2003
3200
2300
3002
,
0023
0230
0320
0032
,
1003
0100
0001
0200
,
1300
0001
0100
2000
,
3100
0001
0010
2000
,
3010
0001
0100
2000
,
3100
0001
0010
0200
,
1300
0010
0001
0020
,
1030
0100
0001
0200
,
1300
0010
0001
0020
,
1030
0100
0010
0001
,
1001
0010
0010
1000
,
1001
0100
0100
0001
,
1001
0010
0010
1000
,
1001
0100
0100
0001
,
0101
0010
0100
1000
,
1100
0010
0100
0001
,
0011
0100
1100
1000
,
1001
0110
1001
0010
,
1001
0000
0000
0000
;

//---------------dance-single - ----------------
#NOTES:
     dance-single:
     :
     Beginner:
     1:
     0.116841,0.159329,0.031866,0.000000,0.000000,77.000000,74.000000,3.000000,0.000000,0.000000,0.000000,0.116841,0.159329,0.031866,0.000000,0.000000,77.000000,74.000000,3.000000,0.000000,0.000000,0.000000:
0000
0000
0000
0000
,
0000
0000
0000
0000
,
1000
0000
0000
0000
,
0001
0000
0000
0000
,
0100
0000
0000
0000
,
1000
0000
0000
0000
,
0100
0000
0000
0000
,
0001
0000
0000
1000
,
1000
0000
0000
1000
,
1000
0000
0000
1000
,
1000
0000
0000
1000
,
1000
0000
0000
0001
,
0001
0000
0000
0001
,
0001
0000
0000
0001
,
0001
0000
0000
0001
,
0001
0000
0000
0000
,
0100
0000
0000
0000
,
0010
0000
0000
0000
,
1000
0000
0000
0000
,
0001
0000
0000
0000
,
0010
0000
0000
0000
,
0100
0000
0000
0000
,
1000
0000
0001
0000
,
1001
0000
0000
0000
,
0010
0000
0010
0000
,
0010
0000
0000
0000
,
0001
0000
0000
0000
,
1000
0000
0000
0000
,
0100
0000
0000
0000
,
0010
0000
0000
0000
,
0100
0000
0000
0000
,
1000
0000
0000
0000
,
0001
0000
1000
0000
,
1001
0000
0000
0010
,
0010
0000
0000
0010
,
0010
0000
0000
0010
,
0010
0000
0000
0010
,
0010
0000
0000
0100
,
0100
0000
0000
0100
,
0100
0000
0000
0100
,
0100
0000
0000
0100
,
0100
0000
0000
1000
,
1000
0000
0000
0001
,
0001
0000
0000
1000
,
1000
0000
0000
0001
,
0001
0000
0000
0000
,
1000
0000
0000
0000
,
0001
0000
0000
0000
,
1000
0000
0001
0000
,
1000
0000
0001
0000
,
1001
0000
0000
0000
;

//---------------dance-double - ----------------
#NOTES:
     dance-double:
     :
     Easy:
     4:
     0.332314,0.451431,0.223060,0.180573,0.000000,219.000000,198.000000,21.000000,17.000000,0.000000,0.000000,0.332314,0.451431,0.223060,0.180573,0.000000,219.000000,198.000000,21.000000,17.000000,0.000000,0.000000:
00000000
00000000
00000000
00000000
,
00000000
00000000
00000000
00000000
,
00000100
00010000
00001000
01000000
,
01000000
00001000
00010000
00000100
,
00001000
00000100
00000010
00000001
,
00000001
00000010
00000100
00001000
,
00010000
00100000
01000000
10000000
,
10000000
01000000
00100000
00020000
,
00031000
00000100
00010000
00002000
,
00013000
00100000
00001000
00020000
,
00031000
00000010
00010000
00002000
,
00013000
01000000
00001000
00020000
,
00031000
00010000
00000100
00002000
,
00003100
00010000
00001000
00020000
,
00031000
00100000
00010000
00200000
,
00301000
00010000
00011000
00002000
,
01003000
00100000
10000000
02000000
,
03100000
00001000
00010000
00002000
,
00013000
00000010
00000100
00000002
,
00000013
00000100
00010000
00002000
,
00013000
01000000
00100000
20000000
,
31000000
00100000
00010000
00002000
,
00003100
00000010
00000001
00000100
,
00000110
00001001
00001010
00001000
,
00000001
00000010
00000100
00001000
00010000
00100000
01000000
10000000
,
01000000
00100000
00010000
00001000
00022000
00000000
00000000
00033000
,
00001000
00010000
00001000
00010000
,
00000100
00001000
00000100
00001000
,
00000001
00000010
00000001
00000010
,
00000100
00010000
00000100
00010000
,
00001000
01000000
00001000
01000000
,
00100000
10000000
00100000
10000000
,
01000000
00100000
00010000
10000000
,
00100000
01000000
00001000
00010000
,
00011000
00000100
00010000
00001000
,
00011000
00100000
00001000
00010000
,
00011000
00000010
00010000
00001000
,
00011000
01000000
00001000
00010000
,
00011000
00000010
00000100
00000001
,
00001001
00000010
00010000
00001000
,
00011000
01000000
00010000
10000000
,
10010000
01000000
00001000
00010000
,
00011000
00000010
00000100
00000010
,
00000110
00001000
00000100
00001000
,
00001100
00010000
00001000
00010000
,
00011000
00100000
00010000
00100000
,
00110000
01000000
10000000
01000000
,
11000000
10000000
00010000
10000000
,
10010000
00100000
00001000
00010000
,
00000100
00000100
00000100
00000100
,
00011000
00000000
00000000
00000000
;

//---------------dance-double - ----------------
#NOTES:
     dance-double:
     :
     Medium:
     6:
     0.402115,0.451431,0.191194,0.021244,0.031866,265.000000,247.000000,18.000000,2.000000,0.000000,0.000000,0.402115,0.451431,0.191194,0.021244,0.031866,265.000000,247.000000,18.000000,2.000000,0.000000,0.000000:
00000000
00000000
00000000
00000000
,
00000000
00000000
00000000
00000000
,
00000100
00001000
00010000
00001000
,
00100000
00010000
00001000
00010000
,
00000100
00000100
00010000
00001000
,
01000000
01000000
00100000
10000000
,
01000000
01000000
00100000
00010000
,
00000100
00000000
00000100
00000000
00001000
00000000
00000010
00000100
,
00000001
00000000
00000010
00000000
00000000
00000000
00000100
00010000
,
00001000
00000000
00100000
00000000
00000000
00000000
01000000
10000000
,
00010000
00000000
00100000
00000000
00000000
00000000
00010000
00000010
,
00001000
00000000
00000100
00000000
00000000
00000000
00000001
00000010
,
00000100
00000000
00001000
00000000
00000000
00000000
00010000
00100000
,
01000000
00000000
10000000
00000000
00000000
00000000
00100000
10000000
,
00010000
00000000
00100000
00000000
00000000
00000000
00001000
00010000
,
00011000
00000000
00110000
00000000
00100000
00001000
00010000
00001000
,
00100000
00000000
00001000
00000000
00010000
00000100
00001000
00000100
,
00010000
00000000
00000100
00000000
00001000
00000010
00000100
00000010
,
00001000
00000000
00000001
00000000
00000010
00000100
00001000
00000100
,
00000010
00000000
00000100
00000000
00001000
00000100
00010000
00000100
,
00001000
00000000
00000100
00000000
00010000
00001000
00100000
00001000
,
00010000
00000000
00001000
00000000
00100000
01000000
10000000
01000000
,
00100000
00000000
00010000
00000000
01000000
00010000
01000000
00010000
,
01000000
00001000
00011000
00010000
,
00001000
00010000
00001000
00010000
00000000
00000000
00000000
00000000
00000010
00000100
00000010
00000100
00000000
00000000
00000000
00000000
,
00000001
00000010
00000001
00000010
00000000
00000000
00000000
00000000
00002200
00000000
00000000
00000000
00000000
00000000
00003300
00000000
,
00010000
00000100
00001000
00000000
00000010
00000000
00010000
00000000
,
00010000
00000100
00001000
00000000
00000010
00000000
00010000
00000000
,
00001000
01000000
00010000
00000000
00100000
00000000
00001000
00000000
,
00001000
01000000
00010000
00000000
00100000
00000000
00001000
00000000
,
10000000
01000000
00100000
00000000
00010000
00000000
10000000
00000000
,
10000000
01000000
00100000
00000000
00010000
00000000
10000000
00000000
,
00110000
00001000
00010100
00000010
,
00001001
00000000
00011000
00000000
10010000
00000000
00001000
00010000
,
00001000
00000000
00010000
00000000
00000010
00001000
00000001
00001000
,
00000010
00000000
00000100
00000000
00000001
00001000
00000100
00001000
,
00000001
00000000
00001000
00000000
00000100
00010000
00001000
00010000
,
00000100
00000000
00010000
00000000
00001000
00100000
00010000
00100000
,
00001000
00000000
01000000
00000000
00100000
10000000
01000000
10000000
,
00100000
00000000
01000000
00000000
00010000
00100000
01000000
00100000
,
00010000
00000000
00000100
00000000
00001000
00000010
00000100
00000010
,
00001000
00000000
00000001
00000000
00000010
00000001
00000100
00000001
,
00000010
00000000
00001100
00000000
00000100
00001000
00000100
00001000
,
00000100
00000000
00011000
00000000
00100000
00010000
00100000
00010000
,
00100000
00000000
11000000
00000000
10000000
00100000
10000000
00100000
,
10000000
00000000
01010000
00000000
00100000
00000000
00010000
10000000
,
10010000
00000000
01000000
00000000
00001000
00000000
00010000
00001000
,
00011000
00000000
00000100
00000000
00001000
00000000
00000001
00001000
,
00001001
00000010
00001001
00000100
,
00010000
00001000
00100000
00001000
,
00011000
00000000
00000000
00000000
;

//---------------dance-double - ----------------
#NOTES:
     dance-double:
     :
     Hard:
     9:
     0.670698,0.929417,0.233682,0.010622,0.424877,442.000000,420.000000,22.000000,1.000000,0.000000,0.000000,0.670698,0.929417,0.233682,0.010622,0.424877,442.000000,420.000000,22.000000,1.000000,0.000000,0.000000:
00000000
00000000
00000000
00000000
,
00000000
00000000
00000000
00000000
,
10000000
01000000
00010000
00000000
00001000
00000100
00000001
00000000
,
00000001
00000100
00001000
00000000
00010000
01000000
10000000
00000000
,
00100000
01000000
00100000
00010000
00001000
00010000
00100000
01000000
,
00010000
00000100
00001000
00000010
00000100
00001000
00010000
00001000
,
00100000
01000000
00100000
00001000
00010000
00000100
00001000
00000100
,
00000001
00000000
00000100
00000000
00001000
00000000
00000010
00000000
00000100
00000000
00000001
00000100
00000000
00000000
00000001
00000100
,
00000001
00000000
00001000
00000000
00000100
00000000
00010000
00000000
00000000
00000000
00001000
00100000
00000000
00000000
00001000
00100000
,
00001000
00000000
01000000
00000000
00010000
00000000
10000000
00000000
00000000
00000000
01000000
00100000
00000000
00000000
01000000
00100000
,
01000000
00000000
00100000
00000000
00001000
00000000
00010000
00000000
00000000
00000000
00001000
00010000
00000000
00000000
00001000
00010000
,
00001000
00000000
00010000
00000000
00000010
00000000
00000100
00000000
00000000
00000000
00000100
00000001
00000000
00000000
00000100
00000001
,
00000100
00000000
00000010
00000000
00010000
00000000
00001000
00000000
00000000
00000000
01000000
00100000
00000000
00000000
01000000
00100000
,
01000000
00000000
00100000
00000000
10000000
00000000
01000000
00000000
00000000
00000000
10000000
01000000
00000000
00000000
10000000
01000000
,
10000000
00000000
01000000
00000000
00100000
00000000
00001000
00000000
00000000
00000000
00100000
00001000
00000000
00000000
00100000
00001000
,
00100000
00000000
00011000
00000000
00000110
00000000
00000010
00000100
,
00000011
00000000
00000100
00001000
00010000
00001000
00000100
00010000
,
00011000
00000000
01000000
10000000
01000000
00010000
00100000
00010000
,
00011000
00000000
00001000
00000100
00000001
00000100
00001000
00000010
,
00011000
00000000
00000000
00000000
00000010
00001000
00000000
00001000
00000100
00000000
00010000
00000000
00001000
00000000
01000000
00000000
,
01100000
00000000
00010000
00100000
10000000
00100000
00010000
00001000
,
00011000
00000000
01000000
00010000
00001000
00010000
01000000
00001000
,
01001000
00000000
00000100
00010000
00001010
00000000
00000001
00000010
,
00001100
00000011
00001001
00011000
,
00100000
00010000
00100000
00000000
00010000
00100000
00010000
00000000
00100000
00010000
00100000
00000000
00000000
00000000
00000000
00000000
00010000
00000100
00010000
00000000
00000100
00010000
00000100
00000000
00010000
00000100
00010000
00000000
00000000
00000000
00000000
00000000
,
00000010
00001000
00000010
00000000
00001000
00000010
00001000
00000000
00000010
00001000
00000010
00000000
00001000
00000010
00001000
00000000
00000200
00000000
00000000
00000000
00000000
00000000
00000000
00000000
00000000
00000000
00000000
00000000
00000300
00000000
00000000
00000000
,
00010000
00001000
00010000
00000000
00001000
00000000
00100000
00000000
01000000
10000000
01000000
00000000
10000000
00000000
00010000
00000000
,
00100000
00001000
00100000
00000000
00000100
00000000
00010000
00000000
00001000
00010000
00001000
00000000
01000000
00000000
10000000
00000000
,
01000000
00010000
01000000
00000000
00001000
00000000
00010000
00000000
00000010
00000100
00000010
00000000
00000100
00000000
00000001
00000000
,
00000010
00001000
00000010
00000000
00000001
00000000
00000100
00000000
00000001
00001000
00000001
00000000
00001000
00000000
00000100
00000000
,
00010000
00000100
00010000
00000000
00001000
00000000
00100000
00000000
00010000
01000000
00010000
00000000
10000000
00000000
01000000
00000000
,
00100000
00001000
00100000
00000000
00001000
00000000
00010000
00000000
00000010
00001000
00000010
00000000
00000100
00000000
00000001
00000000
,
00001001
00000100
00010000
00001000
01100000
00010000
10000000
01000000
,
00100000
00010000
00000000
00100000
00010000
00000000
00000100
00001000
00000000
00000100
00001000
00000000
00000001
00000000
00000100
00000000
,
00001010
00100000
00010000
10000000
01000000
00100000
00010000
10000000
,
01010000
00100000
00001000
00010000
00000010
00000100
00001000
00000100
,
00000011
00001000
00000100
00010000
00100000
01000000
00010000
01000000
,
10100000
00000000
10000000
00000000
00010000
00000000
00100000
00000000
00010000
00000000
01000000
00001000
01000000
00000000
00001000
00010000
,
00001000
00000000
00010000
00000000
00000010
00000000
00000100
00000000
00000001
00000000
00000010
00000100
00000010
00000000
00000100
00001000
,
00000100
00000000
00010000
00000000
00000100
00000000
00001000
00000000
00000010
00000000
00000100
00000001
00000100
00000000
00000010
00001000
,
00000010
00000000
00010000
00000000
00001000
00000000
01000000
00000000
00010000
00000000
10000000
01000000
10000000
00000000
00010000
01000000
,
00010000
00000000
00100000
00000000
01000000
00000000
10000000
00000000
01000000
00000000
00010000
01000000
00010000
00000000
01000000
10000000
,
01000000
00000000
10000000
00000000
00100000
00000000
01000000
00000000
00001000
00000000
00010000
00001000
00100000
00000000
00001000
00010000
,
00000100
00000000
00001000
00000000
00000010
00000000
00000100
00000000
00000001
00000000
00000010
00001000
00000010
00000000
00000001
00000010
,
00000001
00000000
00000100
00000000
00000010
00000000
00001000
00000000
00000100
00000000
00001000
00000010
00000100
00000000
00000010
00010000
,
00001000
00000000
01000000
00000000
00010000
00000000
00100000
00000000
01000000
00000000
10000000
01000000
10000000
00000000
00100000
00010000
,
00100000
00000000
10000000
00000000
00010000
00000000
00100000
00000000
01000000
00000000
00100000
00001000
00010000
00000000
00001000
00100000
,
00010000
00000000
01000000
00000000
10000000
00000000
01000000
00000000
00010000
00000000
00100000
00001000
00100000
00000000
00010000
00001000
,
00010000
00000100
00001000
00010000
00000110
00000100
00000001
00001000
,
00000100
00010000
00000000
00001000
00010000
00000000
01000000
00010000
00000000
00001000
00010000
00000000
00001000
00000000
00000000
00000000
,
00011000
00000000
00000000
00000000
;
