#TITLE:Atlas;
#SUBTITLE:;
#ARTIST:Battles;
#TITLETRANSLIT:;
#SUBTITLETRANSLIT:;
#ARTISTTRANSLIT:;
#GENRE:Rock;
#CREDIT:;
#BANNER:atlas-bn.png;
#BACKGROUND:atlas-bg.png;
#LYRICSPATH:;
#CDTITLE:;
#MUSIC:Atlas.ogg;
#OFFSET:-1.120000;
#SAMPLESTART:66.800011;
#SAMPLELENGTH:12.000000;
#SELECTABLE:YES;
#BPMS:0.000000=135.169998
;
#STOPS:
;
#BGCHANGES:;
#KEYSOUNDS:;
#ATTACKS:;

//---------------dance-single - ----------------
#NOTES:
     dance-single:
     :
     Hard:
     9:
     0.636366,0.683597,0.407672,0.049716,1.088783,448.000000,407.000000,41.000000,5.000000,0.000000,0.000000,0.636366,0.683597,0.407672,0.049716,1.088783,448.000000,407.000000,41.000000,5.000000,0.000000,0.000000:
0000
0000
0000
0000
,
0000
0000
0000
0000
,
0020
0000
0000
0000
,
0031
1000
0001
1000
0010
1000
0010
0100
0010
0100
0001
0100
,
0001
0000
0010
0001
0000
0100
0001
0000
0010
0001
0000
1000
,
0001
0000
0000
1100
0000
0000
1010
0000
0000
0101
0000
0001
,
1000
0000
0100
1000
0000
0010
1000
0000
0000
1001
0000
0010
,
0001
0000
0000
1001
0000
0010
1000
0000
0000
1001
0000
0001
,
0100
0001
0100
0001
0000
1000
0100
1000
0100
1000
0000
0001
,
0100
0001
0100
0001
0000
1000
0100
1000
0100
1000
0000
0000
,
0010
0000
0000
1001
0000
0000
1100
0000
0000
0011
0000
0001
,
0100
0000
0010
1000
0000
0001
1000
0000
0000
1001
0000
0100
,
0010
0000
0000
0101
0000
0010
1000
0000
0000
1100
0000
0000
,
1000
0100
0010
0100
1000
0001
0010
0100
0010
0001
1000
0100
,
0010
0100
1000
0001
0010
0100
0010
0001
1000
0001
0000
0000
,
1000
0000
1000
0010
0000
0010
0100
0000
0100
0010
0000
0010
,
0100
0000
0100
0001
0000
0001
0010
0000
0010
0100
0000
0100
,
1000
0000
1000
0010
0000
0010
0100
0000
0100
0001
0000
0001
,
1000
0000
1000
0010
0000
0010
0100
0000
0100
0010
0000
0010
,
1000
0000
1000
0001
0000
0001
1000
0000
1000
0001
0000
0001
,
0020
0000
0100
0030
0000
0110
0000
0000
0010
0001
0100
0010
,
0000
0000
1001
0000
0000
0001
0200
0000
0010
0300
0000
0110
,
0000
0000
0100
0001
0010
0001
0100
0010
1000
0100
0010
0001
,
0000
0000
0110
0000
0000
0011
0000
0000
1100
0000
0000
1000
,
0020
0000
0100
0030
0000
0110
0000
0000
0010
1000
0100
0010
,
0000
0000
0101
0000
0000
0010
0200
0000
0001
0300
0000
1100
,
0000
0000
1000
0010
0100
0001
0010
0100
0010
0001
1000
0100
,
0010
0100
1000
0100
0010
0001
0100
0001
0010
0100
1000
0100
,
0010
0001
0100
0001
0010
0100
1000
0100
0010
0001
0100
0001
,
0010
0000
0001
1000
0000
0010
0100
0000
0000
0001
0000
1000
,
0100
0000
1000
0010
0000
0100
0001
1000
0010
1000
0001
0010
,
0000
0000
0100
1000
0000
0010
0100
0000
0000
0001
0000
1000
,
0001
0000
0100
0010
0000
1000
0100
0010
0100
1000
0010
0100
,
0000
0000
0010
0100
0000
0001
0010
0000
0000
0100
0000
0010
,
0001
0000
0100
0010
0000
1000
0010
0100
0001
0010
0001
1000
,
0000
0000
0010
1000
0000
0001
0100
0000
0000
0001
0000
0000
,
0001
1000
0010
1000
0001
0010
0001
1000
0010
1000
0001
0010
,
0001
0000
0010
0100
0000
0010
0001
0000
1000
0010
0000
1000
,
0001
0000
0000
1100
0000
0000
0011
0000
0000
0101
0000
0010
,
1000
0000
0100
0010
0000
0100
1000
0000
0000
0101
0000
0010
,
1000
0000
0000
1100
0000
0010
0001
0000
0000
1001
0000
0001
,
0010
0001
0010
0001
0000
1000
0010
1000
0010
1000
0000
0001
,
0010
0001
0010
0001
0000
1000
0010
1000
0010
1000
0000
0000
,
0001
0000
0000
0011
0000
0000
1100
0000
0000
1010
0000
0010
,
1000
0000
0001
0100
0000
0001
0010
0000
0000
0011
0000
0100
,
1000
0000
0000
1010
0000
0100
0001
0000
0000
1001
0000
0010
,
1000
0100
0010
0001
0000
0001
0100
0010
1000
0001
0000
0010
,
0100
0001
1000
0010
0000
0100
1000
0010
0100
0010
0000
0100
,
0001
0010
0100
1000
0000
0010
1000
0001
0100
0010
0000
0100
,
0001
0100
0010
1000
0000
0001
0010
0001
1000
0100
0000
1000
,
0010
0100
0010
1000
0000
0001
0010
0100
0010
0001
0000
0100
,
0010
0000
0000
0000
,
0011
0000
0000
1010
0000
0000
1100
0000
0000
0101
0000
0010
,
0100
0000
0010
1000
0000
0010
0100
0000
0000
1100
0000
0010
,
0001
0000
0000
0101
0000
0010
1000
0000
0000
1001
0000
0000
,
0101
0000
0000
0000
;

//---------------dance-single - ----------------
#NOTES:
     dance-single:
     :
     Medium:
     7:
     0.448866,0.683597,0.188921,0.318183,0.576707,316.000000,297.000000,19.000000,32.000000,0.000000,0.000000,0.448866,0.683597,0.188921,0.318183,0.576707,316.000000,297.000000,19.000000,32.000000,0.000000,0.000000:
0000
0000
0000
0000
,
0000
0000
0000
0000
,
0020
0000
0000
0000
,
0031
0100
0001
0100
0001
0100
0010
1000
0010
1000
0010
1000
,
0010
1100
0010
0101
,
2000
0000
0000
3200
0000
0000
0320
0000
0000
0031
0000
0010
,
0100
1100
0010
0011
,
0200
0320
2030
3001
,
0001
0000
1000
0001
0000
0010
0001
0000
1000
0001
0000
0000
,
1000
0000
0010
1000
0000
0001
1000
0000
0010
1000
0000
0010
,
0200
0000
0000
0302
0000
0000
2003
0000
0000
3010
0000
0100
,
0010
1100
0010
0101
,
0002
0023
0230
2300
,
3010
0100
0010
0100
0010
0100
0010
0100
0010
0100
0010
0100
,
0010
0100
0010
0100
0010
0100
0010
0100
0010
0100
0000
0000
,
0001
1000
0010
1000
,
0100
0010
0001
1000
,
0010
1000
0100
0010
,
1000
0010
0001
0100
,
0010
0000
0000
0100
0000
0000
0001
0000
0000
0010
0000
0100
,
1000
0000
0010
0000
0000
0010
0000
0000
0010
0100
0000
0000
,
0000
0000
0001
0000
0000
0100
0001
0000
1000
0000
0000
0001
,
0000
0000
1000
0001
0000
0000
0010
0000
0000
0001
0000
0000
,
0000
0000
0100
0000
0000
0010
0000
0000
1000
0000
0000
0010
,
0100
0000
0010
0000
0000
1000
0000
0000
0001
0010
0000
0000
,
0000
0000
0001
0000
0000
0010
0100
0000
0010
0000
0000
0001
,
0000
0000
1000
0100
0000
0000
1000
0000
0000
0010
0000
0000
,
0100
0001
0100
0001
0100
0001
0100
0001
0100
0001
0100
0001
,
1000
0010
1000
0010
1000
0010
1000
0010
1000
0010
1000
0010
,
1000
0000
0000
0000
0000
0000
0010
0000
0100
0010
0000
0100
,
0010
0000
0000
0000
0000
0000
2000
0000
0000
3001
0000
1001
,
0000
0000
0000
0000
0000
0000
0001
0000
0010
0001
0000
0010
,
0001
0000
0000
0000
0000
0000
0200
0000
0000
0310
0000
0110
,
0000
0000
0000
0000
0000
0000
0100
0000
1000
0100
0000
1000
,
0100
0000
0000
0000
0000
0000
2000
0000
0000
3010
0000
1010
,
0000
0000
0000
0000
0000
0000
0001
0000
1000
0001
0000
0000
,
1000
0001
1000
0001
1000
0001
1000
0001
1000
0001
1000
0001
,
1000
0000
0010
1000
0000
0100
1000
0000
0010
1000
0000
0000
,
0002
0000
0000
2003
0000
0000
3020
0000
0000
0130
0000
0010
,
0100
0000
0001
0100
0000
0010
0100
0000
0001
0100
0000
0000
,
0020
0000
0000
2030
0000
0000
3002
0000
0000
0103
0000
0001
,
0010
1001
0100
1100
,
0010
0000
0000
0101
0000
0000
0010
0000
0000
0011
0000
0001
,
2000
0000
0000
3200
0000
0000
0320
0000
0000
0031
0000
1000
,
0001
0000
0100
0001
0000
0010
0100
0000
0000
1000
0000
0010
,
1000
0000
0000
0001
0000
0100
0001
0000
0000
1001
0000
0000
,
1000
0000
0100
1000
0000
0010
1000
0000
0001
1000
0000
0010
,
2000
0000
0000
3002
0000
0000
0203
0000
0000
0310
0000
1000
,
0001
0000
0010
0001
0000
0100
0001
0000
1000
0001
0000
0100
,
0002
0023
0230
1300
,
0010
1100
0010
0101
,
1010
0000
0000
0000
,
0010
0000
0100
0001
0000
1000
0010
0000
0000
1000
0000
0100
,
1000
0000
0010
0100
0000
0001
0010
0000
0000
0001
0000
0100
,
0001
0000
0000
1000
0000
0010
1000
0000
0000
1001
0000
0000
,
0101
0000
0000
0000
;

//---------------dance-single - ----------------
#NOTES:
     dance-single:
     :
     Easy:
     4:
     0.313922,0.473298,0.248581,0.238637,0.104404,221.000000,196.000000,25.000000,24.000000,0.000000,0.000000,0.313922,0.473298,0.248581,0.238637,0.104404,221.000000,196.000000,25.000000,24.000000,0.000000,0.000000:
0000
0000
0000
0000
,
0000
0000
0000
0000
,
0000
0000
0000
0000
,
0002
0000
0000
0000
,
1003
1000
1000
1000
,
1010
0010
0100
0001
,
0020
0001
0100
0031
,
0100
0001
1000
0010
,
0200
0010
1000
0310
,
0100
0100
0010
0010
,
1000
1000
0001
0001
,
2000
0010
0100
3001
,
1000
0001
0100
0010
,
0200
0001
0010
0301
,
1001
0110
1001
0110
,
1001
0110
1001
0110
,
0000
1000
0010
1000
,
0100
0010
0001
0100
,
0001
0010
0100
1000
,
0010
1000
0001
0100
,
0001
1000
0010
0100
,
0010
0000
0100
0000
0000
0010
0000
0000
0100
0000
0000
0000
,
0000
0000
0001
0000
0000
0010
0000
0000
0001
0000
0000
0100
,
0000
0001
0001
0001
,
0000
0000
0100
0000
0000
0010
0000
0000
1000
0000
0000
0001
,
0000
0000
0100
0000
0000
0001
0000
0000
1000
0000
0000
0000
,
0000
0000
0010
0000
0000
1000
0000
0000
0100
0000
0000
0010
,
0000
0001
0001
0001
,
0101
1010
0101
1010
,
0101
1010
0101
1010
,
1000
0000
0001
0010
,
0100
0000
0000
0000
0000
0000
0002
0000
0000
0010
0000
0103
,
0000
0000
1000
0100
,
0010
0000
0000
0000
0000
0000
2000
0000
0000
0100
0000
3010
,
0000
0000
0001
1000
,
0010
0000
0000
0000
0000
0000
0000
0000
0000
0000
0000
0000
0000
0000
0000
0000
0000
0000
0000
0000
0000
0000
0000
0000
0002
0000
0000
0000
0000
0000
0000
0000
0000
0000
0000
0000
1000
0000
0000
0000
0000
0000
0000
0000
0010
0003
0000
0000
,
0000
0000
0100
0010
,
1000
0010
0100
0001
,
0010
0100
0010
0001
,
2000
3020
0230
0302
,
0013
0100
1000
0010
,
0200
0302
2003
3020
,
0130
0100
0001
0001
,
1000
1000
0010
0010
,
0200
0320
2030
3002
,
0103
0001
1000
0010
,
2000
3020
0230
0302
,
0013
0100
1000
0010
,
0110
0100
0110
0010
,
0100
0001
1000
0010
,
1001
0001
1001
1000
,
0001
0001
0010
0010
,
0100
0000
0000
0000
,
0001
0101
0100
0101
,
0001
1000
0010
0100
,
1010
0010
1010
1000
,
0001
0000
0000
0000
;

//---------------dance-single - ----------------
#NOTES:
     dance-single:
     :
     Beginner:
     2:
     0.144887,0.184447,0.049716,0.029830,0.000000,102.000000,97.000000,5.000000,3.000000,0.000000,0.000000,0.144887,0.184447,0.049716,0.029830,0.000000,102.000000,97.000000,5.000000,3.000000,0.000000,0.000000:
2000
0000
0000
3000
,
1000
0000
0000
0000
,
0001
0000
0010
0000
,
0100
0100
0100
0000
,
0010
0000
1000
0000
,
0100
0100
0100
0000
,
1000
0000
0000
0000
,
0001
0000
0000
0000
,
0000
0000
0000
0000
,
0010
0000
1000
0000
,
0001
0001
0001
0000
,
0020
0000
0000
0000
,
0000
0000
0000
0030
,
0000
0100
0000
0000
,
1000
0000
0000
0000
,
0010
0000
0000
0000
,
0100
0000
0000
0000
,
0001
0000
0000
0000
,
0010
0000
0000
0100
,
0000
0000
0010
0000
,
0000
0001
0001
0001
,
0000
0000
0000
0000
,
1000
0000
0000
0010
,
0000
0000
0100
0000
,
0000
0010
0010
0010
,
0020
0000
0000
0000
,
0000
0000
0000
0030
,
0010
0000
1000
1000
,
1000
0000
1001
0000
,
0000
0000
0100
0100
,
0100
0000
0110
0000
,
0000
0000
0001
0001
,
0001
0000
1001
0000
,
0000
0000
0010
0010
,
0010
0000
0000
0000
,
1001
0000
0010
0000
,
0100
0100
0100
0000
,
0001
0000
1000
0000
,
0100
0100
0100
0000
,
1000
0000
0010
0000
,
0100
0000
0001
0000
,
0010
0010
0010
0000
,
0001
0000
1000
0000
,
0001
0001
0001
0000
,
1000
0000
0100
0000
,
0010
0010
0010
0000
,
0001
0000
0100
0000
,
1000
1000
1000
0000
,
0010
0000
0100
0000
,
0010
0000
0000
0000
,
0001
0001
0001
0000
,
0100
0000
0001
0000
,
1000
0000
0010
0000
,
1001
0000
0000
0000
;

//---------------dance-double - ----------------
#NOTES:
     dance-double:
     :
     Easy:
     4:
     0.284092,0.328126,0.059659,0.178978,0.000000,200.000000,194.000000,6.000000,18.000000,0.000000,0.000000,0.284092,0.328126,0.059659,0.178978,0.000000,200.000000,194.000000,6.000000,18.000000,0.000000,0.000000:
00000000
00000000
00000000
00000000
,
00000000
00000000
00000000
00000000
,
00000000
00000000
00000000
00000000
,
00022000
00000000
00000000
00033000
,
00010000
00000100
00001000
00001000
,
00000010
00000100
00001000
00010000
,
01000000
10000000
00010000
10000000
,
01000000
00010000
00001000
00000100
,
00000001
00000001
00001000
00001000
,
00000010
00000010
00000100
00000100
,
00001000
00010000
01000000
10000000
,
00100000
01000000
00100000
01000000
,
00010000
00010000
10000000
10000000
,
02000000
03020000
00032000
00003200
,
00000302
00000203
00002300
00023000
,
00030000
00000010
00000010
00000010
,
00000010
00000010
00000010
00000010
,
00000010
00000010
00000010
00000010
,
00000010
00000010
00000010
00000010
,
00000010
00000010
00000010
00000010
,
00010000
00001000
01000000
00100000
,
01000000
01000000
00100000
01000000
,
01000000
00010000
10000000
00010000
,
00100000
00001000
00001000
00001000
,
00010000
00000100
00001000
00000010
,
00000100
00000100
00000010
00000100
,
00000100
00000001
00001000
00000001
,
00000200
00002300
00023000
02030000
,
23000000
32000000
03020000
00032000
,
00013000
00000000
00001000
00100000
,
01000000
00000000
10000000
00010000
,
01000000
00000000
00001000
00010000
,
00000100
00000000
00001000
00000001
,
00000010
00000000
00000100
00010000
,
00001000
00000000
00100000
00010000
,
10000000
00000000
01000000
00010000
,
00001000
00000100
00000001
00000010
,
00000100
00000100
00001000
00001000
,
00000100
00010000
00001000
01000000
,
00100000
00100000
10000000
10000000
,
00100000
01000000
00001000
00010000
,
00000100
00001000
00000100
00001000
,
00000010
00000100
00000010
00000100
,
00000001
00000100
00001000
00000000
,
00010000
01000000
10000000
00100000
,
01000000
01000000
00010000
00010000
,
10000000
00100000
00010000
00100000
,
10000000
01000000
00010000
00001000
,
00000100
00000001
00000010
00000001
,
00000100
00001000
00010000
01000000
,
10000000
00100000
00010000
00001000
,
00011000
00000000
00000000
00000000
,
00010100
00001100
00000110
00000010
,
00000001
00000100
00001000
00010000
,
01000000
10000000
00010000
10000000
,
10010000
00000000
00000000
00000000
;

//---------------dance-double - ----------------
#NOTES:
     dance-double:
     :
     Medium:
     7:
     0.397729,0.628909,0.188921,0.109375,0.407672,280.000000,261.000000,19.000000,11.000000,0.000000,0.000000,0.397729,0.628909,0.188921,0.109375,0.407672,280.000000,261.000000,19.000000,11.000000,0.000000,0.000000:
00000000
00000000
00000000
00000000
,
00000000
00000000
00000000
00000000
,
00022000
00000000
00000000
00033000
,
00001000
00010000
00001000
00010000
00001000
00010000
00001000
00010000
00001000
00010000
00001000
00010000
,
00001000
01000000
00100000
00100000
,
10000000
01010000
11000000
00100000
,
00010000
00001000
00000010
00000001
,
00001000
00000001
00000101
00001100
,
00000001
00000000
00000100
00000001
00000000
00000010
00000001
00000000
00000100
00000001
00000000
00000000
,
00001000
00000000
00000010
00001000
00000000
00000100
00001000
00000000
00000010
00001000
00000000
00000000
,
00000020
00000230
00002300
00013000
,
02000000
23000000
32000000
13000000
,
00020000
00230000
02300000
13000000
,
00010000
10000000
00010000
10000000
00010000
10000000
00010000
10000000
00010000
10000000
00010000
10000000
,
00100000
01000000
00100000
01000000
00100000
01000000
00100000
01000000
00100000
01000000
00000000
00000000
,
00010000
00000000
10000000
00010000
00000000
10000000
00010000
00000000
10000000
00010000
00000000
10000000
,
00010000
00000000
10000000
00010000
00000000
10000000
00010000
00000000
10000000
00010000
00000000
10000000
,
00010000
00000000
10000000
00010000
00000000
10000000
00010000
00000000
10000000
00010000
00000000
10000000
,
00010000
00000000
10000000
00010000
00000000
10000000
00010000
00000000
10000000
00010000
00000000
10000000
,
00010000
00000000
10000000
00010000
00000000
10000000
00010000
00000000
10000000
00010000
00000000
00000000
,
01000000
00000000
00100000
00000000
00000000
10000000
00000000
00000000
01000000
00100000
00000000
00000000
,
00000000
00000000
00001000
00000000
00000000
00010000
00000000
00000000
00001000
00000000
00000000
00010000
,
00000000
00000000
00000010
00000100
00000000
00000000
00000100
00000000
00000000
00000100
00000000
00000000
,
00000000
00000000
00000001
00000000
00000000
00001000
00000000
00000000
00000001
00000000
00000000
00001000
,
00000000
00000000
00000010
00000000
00000000
00000100
00000000
00000000
00000010
00000000
00000000
00000000
,
00000000
00000000
00010000
00000000
00000000
00001000
00000000
00000000
00010000
00000000
00000000
00001000
,
00000000
01000000
01000000
01000000
,
00100000
10000000
00100000
10000000
,
00100000
10000000
00100000
10000000
,
10010000
00000000
00000000
00000000
00000000
00000000
10000000
00000000
10000000
01000000
00000000
01000000
,
00100000
00000000
00001000
00010000
,
00000010
00000000
00000000
00000000
00000000
00000000
00000100
00000000
00000100
00000001
00000000
00000001
,
00001000
00000000
00000100
00010000
,
00001000
00000000
00000000
00000000
00000000
00000000
00100000
00000000
00100000
00010000
00000000
00010000
,
10000000
00000000
01000000
00010000
,
00001000
00000000
00000000
00000000
00000000
00000000
00010000
00000000
00010000
00000010
00000000
00000010
,
00000100
00000001
00000100
00000001
00000100
00000001
00000100
00000001
00000100
00000001
00000100
00000001
,
00000100
00000010
00001000
00000100
,
00010100
00000100
00010100
00000100
,
00010000
00001000
01000000
00100000
,
01000000
01001000
01000000
01001000
,
00001000
00010000
00100000
10000000
,
01000000
00010000
00001000
00000100
,
00000001
00001000
00001001
00000000
,
00000010
00000010
00010000
00001000
,
01000000
01000000
00100000
00100000
,
10000000
00010000
01000000
00001000
,
00100000
00101000
00100000
00101000
,
00001000
00010000
00000010
00000100
,
00000010
00010010
00000010
00010010
,
00001000
00000100
00000010
00000001
,
00001001
00000000
00000000
00000000
,
10010000
01000000
10010000
01000000
,
00100000
10000000
01000000
00010000
,
00001000
00000100
00000001
00001000
,
00001001
00000000
00000000
00000000
;

//---------------dance-double - ----------------
#NOTES:
     dance-double:
     :
     Hard:
     9:
     0.585230,0.683597,0.238637,0.009943,0.984379,412.000000,388.000000,24.000000,1.000000,0.000000,0.000000,0.585230,0.683597,0.238637,0.009943,0.984379,412.000000,388.000000,24.000000,1.000000,0.000000,0.000000:
// measure 0
00000000
00000000
00000000
00000000
,  // measure 1
00000000
00000000
00000000
00000000
,  // measure 2
20000000
00000000
00000000
00000000
,  // measure 3
30010000
01000000
00100000
10000000
00100000
01000000
00010000
01000000
00100000
10000000
00100000
01000000
,  // measure 4
00010000
00000000
00010000
10000000
00000000
10000000
00010000
00000000
00010000
10000000
00000000
10000000
,  // measure 5
01000000
00000000
00000000
00010000
00000000
00000000
00001000
00000000
00000000
00000100
00000000
00000001
,  // measure 6
00001000
00000000
00001000
00000001
00000000
00000001
00001000
00000000
00001000
00000001
00000000
00000001
,  // measure 7
00000010
00000000
00000000
00001000
00000000
00000000
00010000
00000000
00000000
00100000
00000000
10000000
,  // measure 8
01000000
00000000
00010000
01000000
00000000
10000000
01000000
00000000
00010000
00001000
00000000
00000100
,  // measure 9
00000001
00000000
00000100
00001000
00000000
00000100
00000001
00000000
00000010
00000100
00000000
00001000
,  // measure 10
00000001
00001100
00000101
00000010
,  // measure 11
00001000
00000000
00000010
00000100
00000000
00000001
00000010
00000000
00000000
00001000
00000000
00010000
,  // measure 12
00100000
00000000
00000000
10000000
00000000
01000000
00010000
00000000
00000000
00001000
00000000
00000000
,  // measure 13
00010000
00001000
00010000
00001000
00010000
00001000
00010000
00001000
00010000
00001000
00010000
00001000
,  // measure 14
00010000
00001000
00010000
00001000
00010000
00001000
00010000
00001000
00010000
00001000
00000000
00000000
,  // measure 15
00000000
00000000
00010000
00000010
00000000
00000100
00000010
00000000
00010000
00000010
00000000
00000100
,  // measure 16
00000010
00000000
00010000
00001000
00000000
00100000
00001000
00000000
00010000
00001000
00000000
00100000
,  // measure 17
00001000
00000000
01000000
00100000
00000000
10000000
00100000
00000000
01000000
00100000
00000000
10000000
,  // measure 18
00100000
00000000
01000000
00010000
00000000
00100000
00010000
00000000
01000000
00010000
00000000
00100000
,  // measure 19
00010000
00000000
01000000
00001000
00000000
00010000
00001000
00000000
00100000
00001000
00000000
00010000
,  // measure 20
00000100
00000000
00001000
00000000
00000000
00001010
00000000
00000000
00000010
00000100
00000001
00001000
,  // measure 21
00000000
00000000
00001010
00000000
00000000
00000001
00000010
00000000
00000100
00000000
00000000
00010100
,  // measure 22
00000000
00000000
00001000
00100000
01000000
10000000
01000000
00100000
00001000
00100000
01000000
10000000
,  // measure 23
00000000
00000000
10100000
00000000
00000000
01010000
00000000
00000000
00100000
00000000
00000000
01000000
,  // measure 24
00010000
00000000
10000000
00000000
00000000
10010000
00000000
00000000
00100000
00001000
00010000
00000100
,  // measure 25
00000000
00000000
00001100
00000000
00000000
00001000
00000010
00000000
00001000
00000000
00000000
00000101
,  // measure 26
00000000
00000000
00000001
00000010
00000100
00010000
00000100
00000010
00000001
00000010
00000100
00010000
,  // measure 27
00001000
00010000
00001000
00010000
00001000
00010000
00001000
00010000
00001000
00010000
00001000
00010000
,  // measure 28
00001000
00010000
00001000
00010000
00001000
00010000
00001000
00010000
00001000
00010000
00000000
00000000
,  // measure 29
00011000
00000000
00001000
00100000
00000000
01000000
10000000
00100000
01000000
00010000
00100000
01000000
,  // measure 30
10000000
00000000
00100000
01000000
00000000
00001000
00010000
00000000
00000000
00000100
00000000
00001000
,  // measure 31
00000010
00000000
00000100
00000001
00000000
00001000
00000010
00000100
00000001
00000010
00000100
00001000
,  // measure 32
00000010
00000000
00000100
00000001
00000000
00000001
00001000
00000000
00000000
00000100
00000000
00010000
,  // measure 33
00001000
00000000
00100000
00010000
00000000
01000000
00100000
10000000
01000000
00100000
00010000
01000000
,  // measure 34
00100000
00000000
10000000
00010000
00000000
01000000
00100000
00000000
00000000
10000000
00000000
00010000
,  // measure 35
00100000
00000000
01000000
10000000
00000000
01000000
00010000
00000000
00001000
00000100
00000000
00000001
,  // measure 36
00001000
00000010
00000100
00000001
00000010
00000100
00010000
00001000
01000000
00100000
10000000
00100000
,  // measure 37
01000000
00000000
00010000
10000000
00000000
00100000
01000000
00000000
00010000
10000000
00000000
01000000
,  // measure 38
00010000
00000000
00000000
00001000
00000000
00000000
00000101
00000000
00000000
00001010
00000000
00001000
,  // measure 39
00000001
00000000
00000100
00000010
00000000
00000100
00001000
00000000
00010000
01000000
00000000
10000000
,  // measure 40
00010000
01010000
11000000
00100000
,  // measure 41
10000000
00000000
01000000
10000000
00000000
01000000
00100000
00000000
01000000
00010000
00000000
00001000
,  // measure 42
00000100
00000000
00000001
00000100
00000000
00000010
00000100
00000000
00000001
00001000
00000000
00000010
,  // measure 43
00000100
00000000
00000000
00001001
00000000
00000000
00000110
00000000
00000000
00000001
00000000
00000001
,  // measure 44
00001000
00000000
00001000
00000010
00000000
00000010
00000100
00000000
00000000
00001000
00000000
00010000
,  // measure 45
01000000
11000000
00100000
00100000
,  // measure 46
00010000
00000000
10000000
01000000
10000000
00010000
10000000
00000000
00010000
01000000
00010000
10000000
,  // measure 47
00010000
00000000
00000000
01000000
00000000
00100000
00010000
00000000
00000000
00001000
00000000
00000010
,  // measure 48
00000001
00000000
00001000
00000100
00001000
00000010
00001000
00000000
00000001
00000100
00000001
00000010
,  // measure 49
00000001
00000000
00000000
00000101
00000000
00000100
00001000
00000000
00000000
00010000
00000000
00000000
,  // measure 50
01000000
00000000
01000000
10000000
00000000
10000000
00100000
00000000
00100000
00010000
00000000
00010000
,  // measure 51
00001000
00000000
00000000
00000000
,  // measure 52
00101000
00000000
00000000
00011000
00000000
00000000
00010100
00000000
00000000
00000010
00000000
00000001
,  // measure 53
00000100
00000000
00000100
00001000
00000000
00001000
00010000
00000000
00000000
01000000
00000000
10000000
,  // measure 54
00010000
00000000
00000000
01100000
00000000
00001000
00010000
00000000
00000000
00000010
00000000
00000000
,  // measure 55
00001100
00000000
00000000
00000000
;
