#TITLE:All My Love;
#SUBTITLE:;
#ARTIST:Tomosuke x SABRINA;
#TITLETRANSLIT:;
#SUBTITLETRANSLIT:;
#ARTISTTRANSLIT:;
#GENRE:House;
#CREDIT:;
#BANNER:allmylove2-bn.png;
#BACKGROUND:allmylove2-bg.png;
#LYRICSPATH:;
#CDTITLE:;
#MUSIC:All My Love.ogg;
#OFFSET:-1.307000;
#SAMPLESTART:74.910004;
#SAMPLELENGTH:12.000000;
#SELECTABLE:YES;
#BPMS:0.000000=132.009995
;
#STOPS:
;
#BGCHANGES:;
#KEYSOUNDS:;
#ATTACKS:;

//---------------dance-single - ----------------
#NOTES:
     dance-single:
     :
     Hard:
     7:
     0.403889,0.441025,0.285899,0.211777,0.068827,267.000000,240.000000,27.000000,20.000000,0.000000,0.000000,0.403889,0.441025,0.285899,0.211777,0.068827,267.000000,240.000000,27.000000,20.000000,0.000000,0.000000:
0000
0000
0000
0000
,
0000
0000
0000
0000
,
0010
0000
0001
0000
0000
0100
0000
0000
0020
0000
0000
0000
0000
0000
0000
0000
,
1030
1000
1000
0000
0001
0000
1000
0100
,
1000
0000
0010
0000
0000
0100
0000
0000
0002
0000
0000
0000
0000
0000
0000
0000
,
0013
0000
0001
0000
0010
0000
0001
0010
,
0100
1000
0000
0000
0000
0000
0000
0000
0010
0100
0000
0000
0000
0000
0000
0000
,
1001
0000
0110
0000
1001
0000
0010
0100
,
0001
0010
0001
0100
0001
0010
0001
1000
,
0001
0100
0001
0010
0001
0100
0001
0000
,
1000
0100
0001
0100
,
1000
0000
0100
0000
1000
0000
0100
0000
0010
0001
0010
0000
0001
0000
0000
0000
,
1000
0100
1000
0010
1000
0100
1000
0001
,
1000
0100
1000
0010
1000
0100
1000
0000
,
0001
0010
1000
0010
,
0001
0000
0100
0000
0001
0000
0100
0000
0010
1000
0010
0000
1000
0000
0000
0000
,
0100
0000
0000
0000
1000
0000
0000
0000
0010
0000
0100
0000
0000
0001
0000
0000
,
0100
0000
0010
0000
1000
1000
1000
0000
,
1000
0000
0000
0000
0001
0000
0000
0000
0100
0000
0001
0000
0000
1000
0000
0000
,
0001
0000
0000
0000
1000
0000
0000
0000
0010
0000
1000
0000
0000
0001
0000
0000
,
1000
0000
0000
0000
0001
0000
0000
0000
0010
0000
0100
0000
0000
0010
0000
0000
,
0100
0000
0010
0000
0001
0001
0001
0000
,
0001
0000
0000
0000
1000
0000
0000
0000
0010
0000
1000
0000
0000
0001
0000
0000
,
1000
0000
0000
0000
0001
0000
0000
0000
0100
0000
0001
0000
0000
1000
0000
0000
,
0001
0100
0001
0100
0101
0000
1000
0100
,
0000
1000
0100
1000
1100
0000
1001
0000
,
0001
0010
0001
0010
0011
0000
0001
1000
,
0000
0010
1000
0000
0010
0100
0000
0000
,
0010
0100
0010
0100
0110
0000
0001
0010
,
0000
0100
1000
0100
1100
0000
1001
0000
,
0100
0010
0100
0010
0110
0000
0001
1000
,
0000
0010
0100
0000
0001
0010
0100
1000
,
2100
0000
3000
0120
0000
0030
0000
0102
,
0000
0003
0000
0210
0000
0300
0010
2000
,
0000
3000
0100
0020
0000
0030
0001
2000
,
0000
3000
0000
0010
0100
0001
0100
0010
,
0100
0000
0010
0100
0010
1000
0010
0200
,
0000
0000
0000
0000
0000
0000
0000
0000
0301
0000
0000
0100
0000
0000
0010
0000
,
0000
2002
0000
0000
0000
0000
0000
3003
,
1100
0000
0101
0000
,
1100
0101
1100
0101
,
2000
0000
3200
0000
0320
0000
0031
1000
,
0000
1001
0000
0000
0010
0100
0010
0100
,
0110
0000
0100
0001
0000
1000
0000
2002
,
0000
0000
3003
0000
0001
0010
0001
0010
,
0002
0000
0023
0000
0230
0000
1300
0001
,
0000
1001
0000
0000
0000
0000
0010
0100
,
0000
0000
0001
0010
0000
0100
1000
0100
,
1000
1000
1000
0000
0001
0000
1000
0000
,
0110
0000
0000
0000
;

//---------------dance-single - ----------------
#NOTES:
     dance-single:
     :
     Beginner:
     1:
     0.099838,0.285369,0.137655,0.042355,0.000000,66.000000,53.000000,13.000000,4.000000,0.000000,0.000000,0.099838,0.285369,0.137655,0.042355,0.000000,66.000000,53.000000,13.000000,4.000000,0.000000,0.000000:
0000
0000
0000
0000
,
0000
0000
0000
0000
,
1001
0000
0000
0000
,
0000
0000
0000
0000
,
0110
0000
0000
0000
,
0000
0000
0000
0000
,
1001
0000
1001
0000
,
1001
1001
1001
0000
,
0020
0000
0000
0000
,
0030
0000
0000
0000
,
0000
0000
0000
0000
,
1000
0000
0000
0000
,
0200
0000
0000
0000
,
0300
0000
0000
0000
,
0000
0000
0000
0000
,
0010
0000
0000
0000
,
0001
0000
0000
0000
,
1000
0000
0000
0000
,
0001
0000
0000
0000
,
0100
0000
0000
0000
,
0010
0000
0000
0000
,
1000
0000
0000
0000
,
0010
0000
0000
0000
,
0100
0000
0000
0000
,
0001
0001
0001
0000
,
0000
0000
0000
0000
,
1000
1000
1000
0000
,
0000
0000
0010
0000
,
0010
0010
0010
0000
,
0000
0000
0000
0000
,
1000
1000
1000
0000
,
0000
0000
0000
0000
,
0002
0000
0000
0000
,
0000
0000
0003
0000
,
2000
0000
0000
0000
,
0000
0000
3000
0000
,
0010
0000
0000
0000
,
0100
0000
0000
0000
,
0000
0000
0000
0000
,
1001
0000
1001
0000
,
1001
1001
1001
0000
,
0001
0001
0001
0000
,
0000
0000
0100
0000
,
0010
0000
0000
0000
,
0000
0000
0000
0000
,
1000
1000
1000
0000
,
0000
0000
0000
0010
,
0000
0100
0000
0001
,
0000
0000
0000
0000
,
0110
0000
0000
0000
;

//---------------dance-single - ----------------
#NOTES:
     dance-single:
     :
     Easy:
     3:
     0.229929,0.337255,0.095300,0.042355,0.000000,152.000000,143.000000,9.000000,4.000000,0.000000,0.000000,0.229929,0.337255,0.095300,0.042355,0.000000,152.000000,143.000000,9.000000,4.000000,0.000000,0.000000:
0000
0000
0000
0000
,
0000
0000
0000
0000
,
1000
0100
1000
0100
,
1000
0100
1000
0000
0100
0000
1000
0000
,
0001
0100
0001
0100
,
0001
0100
0001
0100
,
0001
0000
1000
0000
,
1001
1001
1001
1001
,
0010
0100
0010
1000
,
0010
0100
0010
1000
,
0001
0000
1000
0000
,
0001
1000
0001
1000
,
0100
0010
0100
0001
,
0100
0010
0100
1000
,
0100
0000
1000
0000
,
0010
0100
0010
0000
,
1000
0100
0010
0000
,
1000
0100
0000
1000
,
1000
0000
0000
0000
,
0000
0000
0000
0000
,
0001
0010
0100
0000
,
0001
0010
0000
0001
,
0001
0000
0000
0000
,
0000
0000
0000
0000
,
0010
0100
0010
0100
,
0001
0010
0001
0010
,
0100
1000
0100
1000
,
0010
0100
0010
0010
,
1000
0100
1000
0100
,
0010
0001
0010
0001
,
0100
0010
0100
0010
,
1000
0001
1000
1000
,
0002
0000
0003
0200
0000
0300
0000
0020
,
0000
0030
0000
2000
0000
3000
0010
0000
,
0000
0100
0000
0001
,
0000
0000
0010
0100
,
0010
0000
0001
0010
,
0001
0000
1000
0100
,
1000
0000
0000
0000
,
0010
0000
0100
0000
,
0110
0110
0110
0110
,
1000
0100
0001
0100
,
1000
0000
0001
0001
,
0001
0100
1000
0100
,
0001
0000
0100
0100
,
0100
0010
1000
0010
,
0100
0000
0000
0010
,
0000
0100
0000
0001
,
0000
0000
1000
0001
,
1001
0000
0000
0000
;

//---------------dance-single - ----------------
#NOTES:
     dance-single:
     :
     Medium:
     5:
     0.334305,0.363197,0.190599,0.042355,0.000000,221.000000,203.000000,18.000000,4.000000,0.000000,0.000000,0.334305,0.363197,0.190599,0.042355,0.000000,221.000000,203.000000,18.000000,4.000000,0.000000,0.000000:
0000
0000
0000
0000
,
0000
0000
0000
0000
,
0001
1000
0010
0100
,
0001
1000
0010
0000
0100
0000
0001
1000
,
0100
0010
0001
1000
,
0100
0010
0001
1000
,
1100
0000
0011
0000
,
1100
0011
1100
0011
,
0001
0000
0100
0000
0001
0010
0001
0000
,
0100
0000
0001
0000
0010
0001
0010
0000
,
0001
0100
0010
1000
,
0001
0100
0010
1000
0001
0000
0001
0000
,
1000
0000
0100
0000
1000
0010
1000
0000
,
0100
0000
1000
0000
0010
1000
0010
0000
,
0100
0010
1000
0001
,
0100
0010
1000
0001
0100
0000
0100
0000
,
0010
0010
1000
0100
,
1000
0000
1000
0000
0010
0000
0100
0001
,
1000
1000
1000
0101
,
0001
0001
0001
1100
,
0010
0010
0100
0001
,
0100
0000
0100
0000
0001
0000
0100
0010
,
0100
0100
0100
0011
,
0010
0010
0010
1100
,
1000
0100
1000
0100
1000
0000
1000
0000
,
0001
0000
0001
0100
0001
0000
0001
0000
,
1000
0100
0001
0100
,
1000
0000
0001
0000
1000
0001
1000
0000
,
0001
0010
0001
0010
0001
0000
0001
0000
,
1000
0000
1000
0100
1000
0000
1000
0000
,
0001
0010
1000
0010
,
0001
0000
1000
0000
0001
1000
0001
1000
,
0002
0000
0003
2001
0000
3000
0000
2000
,
0000
3000
0000
1002
0000
0003
0001
1000
,
0000
0000
0010
0100
0000
0000
0001
1000
,
0000
0000
0010
0010
,
0100
0010
0010
0010
,
0100
0000
0001
1000
,
0010
0000
0000
0000
,
0101
0000
1010
0000
,
0101
1010
0101
1010
,
0001
0001
1000
1000
,
0001
1000
0001
0000
1000
0000
0001
0000
,
1000
1000
0001
0001
,
1000
0001
1000
0000
0010
0000
0100
0000
,
0010
0010
0100
0100
,
0010
0100
0010
0000
1000
0000
0001
1000
,
0010
0000
0100
0001
0010
0000
0100
1000
,
0010
0000
0100
0100
,
0010
0000
0000
0000
;

//---------------dance-double - ----------------
#NOTES:
     dance-double:
     :
     Easy:
     1:
     0.110427,0.285369,0.116477,0.042355,0.000000,73.000000,62.000000,11.000000,4.000000,0.000000,0.000000,0.110427,0.285369,0.116477,0.042355,0.000000,73.000000,62.000000,11.000000,4.000000,0.000000,0.000000:
00000000
00000000
00000000
00000000
,
00000000
00000000
00000000
00000000
,
00010000
00000000
00020000
00000000
,
00030000
00000000
00000000
00000000
,
00001000
00000000
00002000
00000000
,
00003000
00000000
00000000
00000000
,
00000110
00000000
00000110
00000000
,
00000110
00000110
00000110
00000000
,
00000002
00000000
00000000
00000000
,
00000003
00000000
00000001
00000001
,
00000001
00000000
00000000
00000000
,
00000010
00000000
00000000
00000000
,
00000200
00000000
00000000
00000000
,
00000300
00000000
00000100
00000100
,
00000100
00000000
00000000
00000000
,
00001000
00000000
00000000
00000000
,
00010000
00000000
00000000
00000000
,
00100000
00000000
00000000
00000000
,
01000000
00000000
00000000
00000000
,
00000000
00000000
00000000
00000000
,
10000000
00000000
00000000
00000000
,
00100000
00000000
00000000
00000000
,
01000000
00000000
00000000
00000000
,
00000000
00000000
00000000
00000000
,
00010000
00010000
00000000
00000000
,
00001000
00001000
00000000
00000000
,
00010000
00010000
00000000
00000000
,
00000000
00000000
00000000
00000000
,
00000100
00000100
00000000
00000000
,
00001000
00001000
00000000
00000000
,
00000100
00000100
00000000
00000000
,
00000000
00000000
00001000
00001000
,
00001000
00000000
00000000
00000000
,
00000000
00000000
00000000
00000010
,
00000000
00000010
00000000
00000010
,
00000000
00000000
00000100
00000100
,
00000100
00000000
00000000
00000000
,
00000010
00000000
00000000
00000000
,
00010000
00000000
00000000
00000000
,
01100000
00000000
01100000
00000000
,
01100000
01100000
01100000
00000000
,
00010000
00000000
00000000
00000000
,
00000000
00000000
00001000
00000000
,
00001000
00000000
00000000
00000000
,
00000000
00000000
00000100
00000000
,
00000100
00000000
00000000
00000000
,
00000000
00000000
00000000
00000000
,
00000000
00000010
00000000
00001000
,
00000100
00000000
00000000
00000000
,
00011000
00000000
00000000
00000000
;

//---------------dance-double - ----------------
#NOTES:
     dance-double:
     :
     Medium:
     6:
     0.325229,0.415083,0.275310,0.074122,0.026472,215.000000,189.000000,26.000000,7.000000,0.000000,0.000000,0.325229,0.415083,0.275310,0.074122,0.026472,215.000000,189.000000,26.000000,7.000000,0.000000,0.000000:
00000000
00000000
00000000
00000000
,
00000000
00000000
00000000
00000000
,
00000000
00000000
00010000
00000000
00000000
00010000
00000000
00000000
00020000
00000000
00000000
00000000
00000000
00000000
00000000
00000000
,
00000000
00000000
00030000
00000000
,
00000000
00000000
00001000
00000000
00000000
00001000
00000000
00000000
00002000
00000000
00000000
00000000
00000000
00000000
00000000
00000000
,
00000000
00000000
00003000
00000000
,
00000101
00000000
00001010
00000000
,
00010100
00011000
00101000
01010000
,
00010000
00100000
00010000
00000000
00010000
01000000
00010000
00000000
,
00010000
00001000
00010000
00000000
00010000
01000000
00010000
00000000
,
10010000
00000000
01000000
00100000
10000000
00010000
00000000
00000000
,
00100000
00010000
00100000
00000000
00001000
00010000
00001000
00000000
,
00000100
00001000
00000100
00000000
00000100
00000010
00000100
00000000
,
00000100
00010000
00000100
00000000
00000100
00001000
00000100
00000000
,
00001001
00000000
00000010
00000100
00000001
00001000
00000000
00000000
,
00000100
00001000
00000100
00000000
00001000
00000001
00001000
00000000
,
00000001
00000010
00000001
00000100
,
00000101
00000000
00000000
00000000
00000000
00000001
00001000
00000001
,
00001000
00000000
00000000
00000000
00000000
00000000
00000000
00000000
00000000
00000000
00000010
00000000
00000000
00000010
00000000
00000000
,
00000010
00000000
00000000
00000000
00000000
00000000
00000000
00000000
00000000
00000000
00010000
00000000
00000000
00010000
00000000
00000000
,
00010000
00000100
00010000
00001000
,
00011000
00000000
00000000
00000000
00000000
00100000
00010000
00100000
,
00010000
00000000
00000000
00000000
00000000
00000000
00000000
00000000
00000000
00000000
10000000
00000000
00000000
10000000
00000000
00000000
,
10000000
00000000
00000000
00000000
00100000
01000000
00100000
01000000
,
00100000
00000000
00100000
00000000
00100000
10000000
10010000
00000000
,
00100000
00010000
10010000
00000000
00100000
10000000
10010000
00000000
,
00100000
00001000
00010000
00000000
00001000
00100000
00010000
00000000
,
00100000
00001000
00010000
00000000
00000010
00000000
00000010
00000000
,
00000100
00000000
00000100
00000000
00000100
00000001
00001001
00000000
,
00000100
00001000
00001001
00000000
00000100
00000001
00001001
00000000
,
00000100
00010000
00001000
00000000
00010000
00000100
00001000
00000000
,
00000100
00010000
00001000
00000000
00010000
00000000
00001000
00000000
,
00022000
00000000
00033000
00200000
00000000
00300000
00000000
00020000
,
00000000
00030000
00000000
00002000
00000000
00003000
00000100
00001000
,
00000000
00000000
00000010
00000100
00000000
00000000
00000001
00000010
,
00000000
00000000
00000100
00010000
,
00000100
00010000
00001000
00010000
,
00001000
00100000
00001000
00100000
,
00010000
00000000
00000000
00000000
,
11000000
00000000
00110000
00000000
,
00101000
00011000
00010100
00001010
,
00001000
00000000
00000100
00000000
00000010
00000000
00000001
00000100
,
00000000
00001010
00000000
00000000
00000010
00000000
00000010
00000000
,
00010000
00000000
00001000
00010000
00000000
01000000
00000000
00010000
,
00000000
00000000
00001000
00001000
,
00010000
00000000
00100000
00000000
01000000
00000000
10000000
00100000
,
00000000
01010000
00000000
00000000
00000000
00000000
00010000
00001000
,
00000000
00000000
00000100
00001000
00000000
00000000
00000010
00000100
,
00000000
00000000
00000001
00000100
,
00000101
00000000
00000000
00000000
;

//---------------dance-double - ----------------
#NOTES:
     dance-double:
     :
     Hard:
     8:
     0.500701,0.544796,0.307077,0.095300,0.127066,331.000000,302.000000,29.000000,9.000000,0.000000,0.000000,0.500701,0.544796,0.307077,0.095300,0.127066,331.000000,302.000000,29.000000,9.000000,0.000000,0.000000:
// measure 0
00000000
00000000
00000000
00000000
,  // measure 1
00000000
00000000
00000000
00000000
,  // measure 2
00100000
00000000
00001000
00000000
00000000
00010000
00000000
00000000
00022000
00000000
00000000
00000000
00033000
00000000
00000000
00000000
,  // measure 3
00000100
00000100
00000100
00000000
00000001
00000000
00000100
00000000
,  // measure 4
00001000
00000000
00000010
00000000
00000000
00001000
00000000
00000000
00002020
00000000
00000000
00000000
00003030
00000000
00000000
00000000
,  // measure 5
00000100
00010000
00001000
00000000
01000000
00001000
00010000
00001000
,  // measure 6
00011000
00000000
00100000
00010000
01010000
00000000
00100000
00001000
,  // measure 7
00011000
00010010
00001100
00001001
,  // measure 8
00000010
00000000
00000100
00000001
00000100
00000000
00000010
00000000
00000100
00000000
00000010
00001000
00000010
00000000
00000100
00000000
,  // measure 9
00000010
00000000
00000100
00000001
00000100
00000000
00000010
00000000
00000100
00000000
00000010
00001000
00000010
00000000
00000000
00000000
,  // measure 10
00000100
00010000
00001000
00100000
00000000
00010000
01000000
00000000
,  // measure 11
00010000
00000000
10000000
00000000
01000000
00000000
00100000
00000000
01000000
10000000
01000000
00000000
10000000
00000000
00100000
00000000
,  // measure 12
01000000
00000000
00100000
10000000
00100000
00000000
01000000
00000000
00100000
00000000
01000000
00010000
01000000
00000000
00100000
00000000
,  // measure 13
01000000
00000000
00100000
10000000
00100000
00000000
01000000
00000000
00100000
00000000
01000000
00010000
01000000
00000000
00000000
00000000
,  // measure 14
00001000
00010000
01000000
00010000
00000000
00000100
00001000
00000000
,  // measure 15
00000010
00000000
00000100
00000000
00000001
00000000
00001000
00000000
00000100
00001000
00000100
00000000
00010000
00000000
00001000
00000000
,  // measure 16
00010000
00000000
00000000
00000100
00000000
00000000
00001000
00000000
00000010
00000000
00000000
00000100
00000000
00000000
00000001
00000000
,  // measure 17
00000010
00000000
00000000
00001000
00000000
00000000
00000000
00000000
00010000
00000000
00100000
00000000
10000000
00000000
00000000
00000000
,  // measure 18
10010000
00000000
00000000
00000000
00100000
00000000
10000000
00000000
00010000
00000000
01000000
00000000
00000000
00010000
00000000
00000000
,  // measure 19
01010000
00000000
00000000
00000000
00100000
00000000
00001000
00000000
00010000
00000000
00001000
00010000
00000000
00010000
00000000
00000000
,  // measure 20
00000100
00000000
00000000
00001000
00000000
00000000
00000010
00000000
00000100
00000000
00000000
00000001
00000000
00000000
00000010
00000000
,  // measure 21
00000100
00000000
00000000
00001000
00000000
00000000
00000000
00000000
00010000
00000000
00100000
00000000
01000000
00000000
00000000
00000000
,  // measure 22
10010000
00000000
00000000
00000000
00100000
00000000
00001000
00000000
00010000
00000000
00000100
00000000
00000000
00001000
00000000
00000000
,  // measure 23
00001100
00000000
00000010
00000100
00000001
00000010
00000001
00000010
,  // measure 24
00000001
00000001
00000100
00000100
00001000
00001000
00010000
00001000
,  // measure 25
00010000
00010000
01000000
01000000
10000000
10000000
00010000
10000000
,  // measure 26
00100000
00100000
01000000
01000000
00010000
00010000
00100000
00001000
,  // measure 27
00000000
00001000
00100000
00000000
00100000
00001000
00010000
00000100
,  // measure 28
00010000
00010000
00001000
00001000
00000100
00000100
00001000
00010000
,  // measure 29
01000000
01000000
10000000
10000000
00010000
00010000
00100000
00001000
,  // measure 30
00010000
00010000
00000010
00000010
00000100
00000100
00001000
00010000
,  // measure 31
00000000
00010000
00001000
00000000
00001000
00100000
00010000
00100000
,  // measure 32
00010000
01000000
00000000
00120000
00000000
01030000
00000000
00012000
,  // measure 33
00000000
00103000
00000000
00021000
00000000
00030100
00001000
00000100
,  // measure 34
00000000
00001000
00000010
00001000
00000000
00000001
00000010
00000001
,  // measure 35
00000000
00000100
00000010
00000000
00001000
00000100
00001000
00000100
,  // measure 36
00001100
00000000
00010000
00100000
00010000
00100000
01000000
10000000
,  // measure 37
00000000
00000000
01000000
00000000
00000000
00000000
00100000
00000000
01000000
00000000
00000000
10000000
00000000
00000000
00100000
00000000
,  // measure 38
00000000
22000000
00000000
33000000
00100000
01000000
00010000
00000000
,  // measure 39
00110000
00000000
00101000
00000000
,  // measure 40
00010010
00001100
00001010
00000101
,  // measure 41
00000001
00000010
00000001
00000100
00000010
00001000
00000010
00000100
,  // measure 42
00000001
00001000
00000010
00000000
00010000
00000100
00010000
00000100
,  // measure 43
00010100
00000000
00001000
00100000
00010000
00100000
00000000
00010000
,  // measure 44
01000000
10000000
01000000
00000000
01000000
00010000
01000000
00010000
,  // measure 45
01010000
00000000
01001000
00000000
00011000
00000000
00000100
00010000
,  // measure 46
00000000
00010010
00000000
00000000
00000010
00001000
00000010
00001000
,  // measure 47
00000000
00000000
00000100
00001000
00000000
00000001
00000010
00000100
,  // measure 48
00001000
00000000
00001000
00000000
00010000
00000000
00010000
00000000
00100000
01000000
00000000
00000000
10000000
00000000
00010000
00000000
,  // measure 49
10010000
00000000
00000000
00000000
;
