#VERSION:0.81;
#TITLE:Wrecking Ball;
#SUBTITLE:;
#ARTIST:Miley Cyrus;
#TITLETRANSLIT:;
#SUBTITLETRANSLIT:;
#ARTISTTRANSLIT:;
#GENRE:Electro-Pop;
#ORIGIN:;
#CREDIT:;
#BANNER:Wrecking Ball.png;
#BACKGROUND:Wrecking Ball-bg.png;
#PREVIEWVID:;
#JACKET:Wrecking Ball-jacket.png;
#CDIMAGE:;
#DISCIMAGE:;
#LYRICSPATH:;
#CDTITLE:;
#MUSIC:Wrecking Ball.mp3;
#OFFSET:-0.082252;
#SAMPLESTART:40.779968;
#SAMPLELENGTH:15.000000;
#SELECTABLE:YES;
#DISPLAYBPM:60.000000;
#BPMS:0.000=60.000,
41.000=61.426,
42.000=60.000;
#STOPS:;
#DELAYS:;
#WARPS:;
#TIMESIGNATURES:0.000=4=4,
40.000=2=4,
42.000=4=4;
#TICKCOUNTS:0.000=4;
#COMBOS:0.000=1;
#SPEEDS:0.000=1.000=0.000=0;
#SCROLLS:0.000=1.000;
#FAKES:;
#LABELS:0.000=Song Start;
#BGCHANGES:-0.250=Wrecking Ball.avi=1.000=0=0=0=StretchNoLoop====,
99999=-nosongbg-=1.000=0=0=0 // don't automatically add -songbackground-;
#KEYSOUNDS:;
#ATTACKS:
;

//---------------dance-single - ----------------
#NOTEDATA:;
#CHARTNAME:;
#STEPSTYPE:dance-single;
#DESCRIPTION:;
#CHARTSTYLE:;
#DIFFICULTY:Beginner;
#METER:1;
#RADARVALUES:0.120647,0.180018,0.200020,0.288918,0.000000,32.000000,18.000000,26.000000,0.000000,0.000000,0.000000,0.000000,0.000000,0.120647,0.180018,0.200020,0.288918,0.000000,32.000000,18.000000,26.000000,0.000000,0.000000,0.000000,0.000000,0.000000;
#CREDIT:;
#DISPLAYBPM:60.000000;
#NOTES:
// measure 0
0000
0000
0000
0000
,  // measure 1
0000
0000
0000
0000
,  // measure 2
1000
0000
1000
0000
,  // measure 3
2000
0000
3000
0000
,  // measure 4
0001
0000
0001
0000
,  // measure 5
0002
0000
0003
0000
,  // measure 6
0010
0000
0010
0000
,  // measure 7
0020
0000
0030
0000
,  // measure 8
0100
0000
0100
0000
,  // measure 9
0200
0000
0300
0000
,  // measure 10
0000
0000
1001
0000
,  // measure 11
1001
0000
0110
0000
,  // measure 12
0110
0000
1001
0000
,  // measure 13
1001
0000
0110
0000
,  // measure 14
0110
0000
2002
3003
,  // measure 15
2002
3003
0220
0330
,  // measure 16
0220
0330
2002
3003
,  // measure 17
2002
3003
0220
0330
,  // measure 18
0220
0330
2002
3003
,  // measure 19
2002
3003
0020
0030
,  // measure 20
0200
0300
0000
0000
;

//---------------dance-single - ----------------
#NOTEDATA:;
#CHARTNAME:;
#STEPSTYPE:dance-single;
#DESCRIPTION:;
#CHARTSTYLE:;
#DIFFICULTY:Easy;
#METER:4;
#RADARVALUES:0.168271,0.172934,0.133347,0.288918,0.000000,68.000000,12.000000,26.000000,0.000000,0.000000,0.000000,0.000000,0.000000,0.168271,0.172934,0.133347,0.288918,0.000000,68.000000,12.000000,26.000000,0.000000,0.000000,0.000000,0.000000,0.000000;
#CREDIT:;
#DISPLAYBPM:60.000000;
#NOTES:
0000
0000
0000
0000
,
0000
0000
0000
0000
,
1000
0100
1000
0100
,
0020
0100
0130
0000
,
0001
0100
0001
0100
,
0020
0100
0130
0000
,
0020
1030
0020
0031
,
0010
1000
0001
0000
,
0020
0031
0020
1030
,
0010
0001
1000
0000
,
0000
0000
1000
1000
2002
0000
3003
0000
,
0001
0000
0100
0100
0220
0000
0330
0000
,
0010
0000
1000
1000
2200
0000
3300
0000
,
0100
0000
0010
0010
0022
0000
0033
0000
,
1001
0000
1000
1000
2020
0000
3030
0000
,
0010
0000
0100
0100
0202
0000
0303
0000
,
0001
0000
1000
1000
2002
0000
3003
0000
,
0001
0000
0100
0100
0220
0000
0330
0000
,
0110
0000
0010
0010
2020
0000
3030
0000
,
1001
0000
0001
0001
0020
0000
0000
0000
,
0230
0000
0000
0300
;

//---------------dance-single - ----------------
#NOTEDATA:;
#CHARTNAME:;
#STEPSTYPE:dance-single;
#DESCRIPTION:;
#CHARTSTYLE:;
#DIFFICULTY:Medium;
#METER:8;
#RADARVALUES:0.230182,0.233357,0.077786,0.111122,0.166683,128.000000,7.000000,10.000000,0.000000,0.000000,0.000000,0.000000,0.000000,0.230182,0.233357,0.077786,0.111122,0.166683,128.000000,7.000000,10.000000,0.000000,0.000000,0.000000,0.000000,0.000000;
#CREDIT:;
#DISPLAYBPM:60.000000;
#NOTES:
0000
0000
0000
0000
,
0000
0000
0000
0000
0000
0000
0000
0010
,
0100
0010
0100
1000
0001
1000
0001
0100
,
0020
0000
0000
0000
1030
0000
0010
0000
0000
1000
0000
0000
0000
0000
0001
0000
,
1000
0001
1000
0100
0010
0100
0010
0001
,
0200
0000
0000
0000
0310
0000
0010
0000
0000
1000
0000
0000
0000
0000
0000
0000
,
0001
0001
0010
0100
0010
0010
0001
0100
,
0010
0010
1000
0001
1000
0000
0000
0000
,
0100
0100
1000
0100
0010
0010
0100
1000
,
0010
0010
0100
0001
1000
0000
0000
0000
,
0000
0000
0000
0001
1000
0001
1000
0000
1002
0000
0000
0000
0103
0000
0000
0000
,
0001
0000
0000
1000
0001
1000
0001
0000
2001
0000
0000
0000
3100
0000
0000
0000
,
0100
0000
0010
0100
0010
0100
0010
0000
0120
0000
0000
0000
0031
0000
0000
0000
,
0010
0000
0000
0000
0000
0000
0001
0000
0000
1000
0000
0000
0001
0000
0000
1000
0000
0000
0001
0000
0000
1000
0000
0000
0000
0000
0000
0000
0000
0000
0000
0000
0000
0000
0000
0000
0010
0000
0000
0000
0010
0000
0000
0000
0010
0000
0000
0000
,
0010
0000
0000
0100
0010
0100
0010
0000
2010
0000
0000
0000
3001
0000
0000
0000
,
1000
0000
0000
0100
0010
0100
0010
0000
0210
0000
0000
0000
1300
0000
0000
0000
,
0100
0000
1000
0001
1000
0001
1000
0000
1002
0000
0000
0000
0103
0000
0000
0000
,
0001
0000
0000
0000
0000
0000
0010
0000
0000
0100
0000
0000
0010
0000
0000
0100
0000
0000
0010
0000
0000
0100
0000
0000
0000
0000
0000
0000
0000
0000
0000
0000
0000
0000
0000
0000
1000
0000
0000
0000
1000
0000
0000
0000
1000
0000
0000
0000
,
0001
0000
0000
0000
0000
0000
0000
0000
0000
0000
0000
0000
0000
0000
0000
0000
0000
0000
0100
0000
0000
0001
0000
0000
0000
0000
0000
0000
0000
0000
0000
0000
0000
0000
0000
0000
0001
0000
0000
0000
0001
0000
0000
0000
0001
0000
0000
0000
,
1000
0000
0000
0000
0000
0000
0000
0000
0000
0000
0000
0000
0000
0000
0000
0000
0000
0000
0100
0000
0000
1000
0000
0000
0000
0000
0000
0000
0000
0000
0000
0000
0000
0000
0000
0000
0010
0000
0000
0000
0010
0000
0000
0000
0010
0000
0000
0000
,
0220
0000
0000
0000
,
0330
0000
0000
0000
;

//---------------dance-single - ----------------
#NOTEDATA:;
#CHARTNAME:;
#STEPSTYPE:dance-single;
#DESCRIPTION:;
#CHARTSTYLE:;
#DIFFICULTY:Hard;
#METER:11;
#RADARVALUES:0.407977,0.382260,0.355591,0.188908,0.494494,208.000000,32.000000,17.000000,0.000000,0.000000,0.000000,0.000000,0.000000,0.407977,0.382260,0.355591,0.188908,0.494494,208.000000,32.000000,17.000000,0.000000,0.000000,0.000000,0.000000,0.000000;
#CREDIT:;
#DISPLAYBPM:60.000000;
#NOTES:
0000
0000
0000
0000
,
0000
0000
0000
0000
0000
0000
0000
0110
,
1000
0000
0011
0000
1000
0000
0101
0000
1000
0000
0011
0000
1000
0000
0001
2000
,
0010
3000
0000
0000
0100
0010
0100
2000
0000
3001
0000
0000
1000
0010
0110
0000
,
0001
0000
1010
0000
0001
0000
1100
0000
0001
0000
1010
0000
0001
0000
1000
0002
,
0010
0003
0000
0000
0100
0010
0100
0002
0000
1003
0000
0000
0001
0001
0010
0001
,
0100
0010
0100
0010
1000
0010
0100
0010
1000
0001
1000
0001
0010
0001
1000
0100
,
0010
0100
0010
0100
1000
0100
0010
0002
0000
1003
0000
0001
0010
0100
1000
0010
,
0100
0010
0100
0010
1000
0100
0010
0100
1000
0001
1000
0001
0100
0001
1000
0100
,
0010
0100
0010
0100
1000
0010
0100
0001
2002
0000
0000
0000
0000
0000
0000
0000
,
0000
0000
3003
0001
0001
1000
0100
0010
0210
0000
0000
1300
0100
0000
1000
0000
,
1001
0000
0001
0001
0100
0001
0100
0010
0120
0000
0000
1030
0010
0000
1000
0000
,
1001
0000
0000
0000
1000
0000
0100
0000
0001
0000
0100
0000
0010
0000
0001
0000
0200
0000
0000
0000
0000
0000
0310
0000
0110
0000
0000
0000
0010
0000
1000
0010
,
0100
0000
0000
0000
0000
0000
0001
0000
0000
0001
0000
0000
1000
0000
0000
0100
0000
0000
1000
0000
0000
0001
0000
0000
0100
0000
0000
0000
0000
0000
0010
0000
0000
0100
0000
0000
0110
0000
0000
0000
1010
0000
0000
0000
0101
0000
0000
0000
,
0011
0000
0010
0010
0100
0010
0001
1000
1020
0000
0000
0130
0010
0000
1000
0001
,
1001
0000
0000
0000
0001
0000
0001
0000
0010
0000
0100
0000
0010
0000
0001
0000
0201
0000
0000
0000
0000
0000
0310
0000
0100
0000
0000
0000
0001
0000
1000
0001
,
1000
0000
0000
0000
0100
0000
0100
0000
1000
0000
0100
0000
0010
0000
0001
0000
2001
0000
0000
0000
0000
0000
3010
0000
1000
0000
0000
0000
0100
0000
0000
0010
,
0100
0000
0000
0000
0000
0000
1000
0000
0000
0100
0000
0000
0001
0000
0000
1000
0000
0000
0010
0000
0000
0001
0000
0000
1000
0000
0000
0000
0000
0000
0010
0000
0000
0100
0000
0000
0110
0000
0000
0000
0101
0000
0000
0000
1010
0000
0000
0000
,
1100
0000
0000
0000
0000
0000
0100
0000
0000
0000
0000
0000
0020
0000
0000
0000
0000
0000
0130
0000
0000
0010
0000
0000
0002
0000
0000
0000
0000
0000
0000
0000
0000
1003
0000
0000
1001
0000
0000
0000
0101
0000
0000
0000
1010
0000
0000
0000
,
1100
0000
0000
0000
0000
0000
0000
0000
0000
0000
0000
0000
0110
0000
0000
0000
0000
0000
0100
0000
0000
1000
0000
0000
0000
0000
0000
0000
0000
0000
0000
0000
0000
1000
0000
0000
0001
0000
0000
0000
0100
0000
0000
0000
0010
0000
0000
0000
,
0220
0000
0000
0000
,
0000
0000
0330
0000
;
