#TITLE:Wiggle (feat. Snoop Dogg);
#SUBTITLE:;
#ARTIST:Jason Derulo;
#TITLETRANSLIT:;
#SUBTITLETRANSLIT:;
#ARTISTTRANSLIT:;
#GENRE:R&B;
#CREDIT:~*padu*~;
#BANNER:Wiggle (feat. Snoop Dogg).png;
#BACKGROUND:Wiggle feat. Snoop Dogg-bg.png;
#LYRICSPATH:;
#CDTITLE:;
#MUSIC:Wiggle (feat. Snoop Dogg).mp3;
#OFFSET:-0.061568;
#SAMPLESTART:60.009979;
#SAMPLELENGTH:15.000000;
#SELECTABLE:YES;
#DISPLAYBPM:82.000000;
#BPMS:0.000000=82.000000
,46.000000=328.000000
,48.000000=82.000000
,65.500000=164.000000
,66.500000=82.000000
,69.500000=164.000000
,70.500000=82.000000
,73.500000=164.000000
,74.500000=82.000000
,95.000000=328.000000
,97.000000=82.000000
,100.500000=164.000000
,101.000000=82.000000
,104.500000=246.000000
,106.000000=82.000000
,115.500000=164.000000
,116.500000=82.000000
,119.500000=164.000000
,120.500000=82.000000
,123.500000=164.000000
,124.500000=82.000000
,159.000000=328.000000
,161.000000=492.000000
,164.000000=82.000000
;
#STOPS:30.000000=3.659000,
46.000000=0.365852,
65.500000=0.365852,
69.500000=0.365852,
73.500000=0.365852,
79.000000=2.927000,
95.000000=0.365852,
100.500000=0.182930,
115.500000=0.365852,
119.500000=0.365852,
123.500000=0.365852,
129.000000=2.927000,
159.000000=0.274391,
159.500000=0.274391,
160.000000=0.274391,
160.500000=0.274391
;
#BGCHANGES:-0.500=Wiggle (feat. Snoop Dogg).avi=1.000=0=0=0=StretchNoLoop====,
99999=-nosongbg-=1.000=0=0=0 // don't automatically add -songbackground-
;
#KEYSOUNDS:;
#ATTACKS:;

//---------------dance-single - ----------------
#NOTES:
     dance-single:
     :
     Beginner:
     2:
     0.042290,0.047034,0.007790,0.031161,0.000000,33.000000,1.000000,4.000000,0.000000,0.000000,0.000000,0.042290,0.047034,0.007790,0.031161,0.000000,33.000000,1.000000,4.000000,0.000000,0.000000,0.000000:
0000
0000
0000
0000
,
0000
0000
0000
0000
,
0000
0000
0000
0000
,
0000
0000
0000
0000
,
2000
0000
0000
0000
,
3000
0000
0000
0000
,
0002
0000
0000
0000
,
0003
0000
0000
1000
,
0000
0000
0000
1000
,
0000
0000
0000
0001
,
0000
0000
0000
0002
,
0000
0000
0000
0000
,
0003
0000
0000
0000
,
0001
0000
0000
0000
,
1000
0000
0000
0000
,
1000
0000
0000
0000
,
0100
0000
0000
0000
,
0100
0000
0000
0000
,
0010
0000
0000
0000
,
0010
0000
0000
0000
,
0100
0000
0000
0000
,
1000
0000
0000
0000
,
0001
0000
0000
0000
,
0200
0000
0000
0000
,
0000
0300
0000
0000
,
0000
0100
0000
0000
,
0000
0000
0000
0000
,
1000
0000
1000
0000
,
0000
0000
0001
0000
,
0000
0000
0100
0000
,
0000
0000
0010
0000
,
0000
0000
1000
0000
,
0000
0000
0001
0000
,
0000
0000
0001
0000
,
0000
0000
0100
0000
,
0000
0000
0100
0000
,
0000
0000
1000
0000
,
0000
0000
1000
0000
,
0000
0000
0010
0000
,
0000
0000
0010
0000
,
0000
0110
0000
0000
;

//---------------dance-single - ----------------
#NOTES:
     dance-single:
     :
     Challenge:
     14:
     0.526401,0.576676,0.342773,0.272660,0.592062,394.000000,44.000000,35.000000,0.000000,0.000000,0.000000,0.526401,0.576676,0.342773,0.272660,0.592062,394.000000,44.000000,35.000000,0.000000,0.000000,0.000000:
0000
0000
0000
0000
,
0000
0000
0000
0000
,
0000
0000
0000
0000
,
0000
0000
0000
0000
,
1000
0000
0000
0000
0000
0000
1000
0000
0010
0000
0000
0000
1000
0000
0000
0000
0001
0000
0000
0000
0000
0000
0001
0000
0010
0000
0000
0000
0100
0010
0100
0010
,
0100
0000
0000
0000
0000
0000
0100
0000
1000
0000
0000
0000
0000
0000
0001
1000
0001
0000
0100
0000
0020
0000
0000
0000
1030
0000
0000
0000
0000
0000
0010
1000
,
0001
0000
0000
0000
0000
0000
0010
0000
0001
0000
0000
0000
0100
0000
0000
0000
0010
0000
0000
0000
0000
0000
1000
0000
0010
0000
0000
0000
1000
0001
1000
0001
,
1000
0000
0000
0000
0000
0000
0100
0000
0010
0000
0000
0000
0000
0000
0001
1000
0002
0000
0000
0000
0000
0000
0000
0000
0103
0000
0001
0000
0010
0000
0000
0000
,
0021
0000
0030
1020
0000
0030
0001
0001
0010
0010
0100
0100
1000
0001
1000
0000
,
1200
0000
0300
0201
0000
0300
1000
1000
0010
0010
0100
0100
0001
0100
0010
0000
,
1020
0000
0030
0021
0000
0030
1000
1000
0010
0010
0100
0100
0001
1000
0001
0000
,
0010
0001
0010
0000
0001
0100
1000
0000
1002
0000
0000
0000
0000
0000
0000
0000
,
0013
0010
1000
0000
0010
0010
1000
0000
1100
0000
0101
0000
1100
0000
0000
0000
,
1000
0001
1000
0100
0010
0000
0100
1000
0010
0000
0100
0000
0101
0000
0000
0000
,
0001
0001
1000
0000
0001
0001
1000
0001
0100
0000
0010
0000
0110
0000
0000
0000
,
0010
1000
0001
0010
0100
0000
0001
0100
1000
0000
0001
0000
1001
0000
0000
0000
,
0001
0000
0100
0010
0100
0000
1001
0000
0000
0000
0001
0000
0010
0001
0100
0000
,
0010
0000
0100
0010
0100
0000
1001
0000
0000
0000
0001
0000
0010
0100
1000
0000
,
0010
0000
0000
0000
0100
0000
0010
0000
0100
0000
0000
0000
1001
0000
0000
0000
0000
0000
0000
0000
0002
0000
0000
0000
0013
0001
0010
0000
0100
0000
0000
0000
,
1000
0001
1000
0000
0001
0100
0001
0000
0100
0010
1000
0001
0020
0000
0000
0000
,
0130
0010
0100
0000
1200
0000
0300
0201
0000
0300
1000
1000
0100
0100
0010
0010
,
0001
0100
0001
0000
0201
0000
0300
1200
0000
0300
0001
0001
0010
0010
0100
0100
,
1000
0010
1000
0000
1020
0000
0030
0021
0000
0030
1000
1000
0010
0010
0100
0100
,
0001
1000
0001
0000
0010
0001
0010
0000
0100
0010
0100
0000
2002
0000
0000
0000
,
0000
0000
3003
0000
1000
0100
1000
0000
0001
0100
0001
0000
1010
0000
0011
0000
,
1010
0000
0210
0000
0301
0000
0100
0001
0010
0000
0100
0010
0100
0000
1000
0000
,
1000
0000
1002
0000
0000
0000
0000
0000
0103
0000
0100
0000
0001
0010
0001
0000
,
1000
0000
0010
0200
0000
0000
0000
0301
0100
0001
0010
0001
0010
0000
0100
0020
,
0000
0000
0130
0000
0010
0000
0100
1000
0001
0000
0000
0000
0000
0000
0000
0000
0100
0000
0000
0000
0010
0000
0100
0000
0010
0000
0000
0000
1001
0000
0000
0000
,
0000
0000
0001
0000
0010
0100
1000
0000
0010
0000
0100
0010
0100
0000
1001
0000
,
0000
0000
0001
0000
0100
0001
0010
0000
0100
0000
0010
0100
0010
0000
1001
0000
,
0000
0000
0000
0000
2000
0000
0000
0000
3010
1000
0010
0000
0100
0000
0000
0000
0001
0000
1000
0000
0001
0000
0000
0000
0010
0000
0001
0000
0010
0000
0000
0000
,
0100
0010
0100
1000
2002
0000
3003
0000
0001
0100
0001
1000
1200
0000
0301
0201
,
0000
0300
1000
1000
0100
0100
0010
0010
0001
0100
0001
1000
1020
0000
0031
0021
,
0000
0030
1000
1000
0010
0010
0100
0100
0001
0001
1000
0100
1200
0001
1300
2100
,
0000
0000
3000
0000
0001
0000
0001
0000
1000
0000
1000
0000
0010
0000
0010
0000
0100
0000
0010
0100
0010
0000
0100
0000
0001
0000
0010
0000
0100
0000
1000
0000
,
0002
0103
0001
0001
0010
0010
0100
0100
1000
0001
1000
0001
0100
0000
0101
0001
,
0010
0000
0100
0100
0010
0010
0001
0001
1000
0010
1000
0010
0100
0000
0101
0001
,
1000
0000
0100
0100
1000
1000
0010
0010
0100
0010
0100
0010
1000
0010
1010
1000
,
0001
0000
0010
0010
0001
0001
0100
0100
0010
0100
0010
0100
0101
0001
1000
0000
,
1100
0100
0010
0000
2002
0000
0000
0000
0000
0000
0000
0000
0000
0000
0000
0000
,
0000
3003
0000
0000
0000
0000
0000
0000
;

//---------------dance-single - ----------------
#NOTES:
     dance-single:
     :
     Easy:
     4:
     0.119080,0.189304,0.101274,0.031161,0.000000,90.000000,13.000000,4.000000,0.000000,0.000000,0.000000,0.119080,0.189304,0.101274,0.031161,0.000000,90.000000,13.000000,4.000000,0.000000,0.000000,0.000000:
0000
0000
0000
0000
,
0000
0000
0000
0000
,
0000
0000
0000
0000
,
0000
0000
0000
0000
,
0000
1000
0000
1000
,
0000
0001
0000
0001
,
0000
0010
0000
0010
,
0000
0100
0100
0000
,
0010
0000
0010
0000
,
0001
0000
0001
0000
,
1000
0000
1000
0000
,
0010
0000
0020
0000
,
0030
0000
0000
0000
,
0100
0100
0001
0000
,
0001
0001
1000
0000
,
1000
1000
0100
0000
,
0010
0000
0000
0110
0000
0000
0000
0000
,
0100
0000
0000
0110
0000
0000
0000
0000
,
1000
0000
0000
1001
0000
0000
0000
0000
,
0001
0001
0001
0001
,
0000
1000
0000
1000
,
0000
0100
0000
0100
,
0000
0010
0000
0010
,
0000
0001
0000
0002
,
0000
0003
0000
1000
,
0000
1001
0000
0000
0000
0000
1000
0000
,
0200
0000
0300
0000
,
0010
0010
0100
1000
,
0001
0000
0000
0000
0100
0000
0000
0101
,
0000
0000
0000
0000
0001
0000
0000
1001
,
0000
0000
0000
0000
1000
0000
0000
1100
,
0000
0000
0100
0000
,
0010
0000
0010
0000
0000
0001
0000
0001
,
0000
0000
1000
0000
0000
0010
0000
0010
,
0000
0100
0000
0001
,
1000
0001
0010
0100
,
0010
0100
0110
0110
,
0100
0100
1100
1100
,
1000
1000
1001
1001
,
0001
0001
0100
0001
,
0010
2000
3000
0000
;

//---------------dance-single - ----------------
#NOTES:
     dance-single:
     :
     Medium:
     6:
     0.242612,0.272319,0.194757,0.077903,0.023371,183.000000,25.000000,10.000000,0.000000,0.000000,0.000000,0.242612,0.272319,0.194757,0.077903,0.023371,183.000000,25.000000,10.000000,0.000000,0.000000,0.000000:
0000
0000
0000
0000
,
0000
0000
0000
0000
,
0000
0000
0000
0000
,
0000
0000
0000
0000
,
1000
1100
1000
1100
,
1000
1001
1000
1001
,
0001
0101
0001
0101
,
0100
0000
0110
0000
2002
3003
1000
0000
,
0100
0000
0000
0100
0000
0000
0010
0000
0000
0000
0000
0000
0001
0000
0000
0000
,
1000
0000
0000
1000
0000
0000
0010
0000
0000
0000
0000
0000
0100
0000
0000
0000
,
0001
0000
0000
0001
0000
0000
1000
0000
0000
0000
0000
0000
0100
0000
0100
0000
,
0010
0010
0100
0100
0110
0000
0000
0000
,
0000
0000
0100
0000
1000
0001
1000
0000
,
0001
0010
1000
0010
0001
1000
0001
0000
,
0100
0000
0010
0000
1000
0010
0001
0000
,
0010
0010
0100
0001
0100
1000
0100
0000
,
0010
0010
0000
1010
0000
0000
1000
0000
,
0001
0001
0000
0011
0000
0000
0010
0000
,
0100
0100
0000
1100
0000
0000
1000
0000
,
0001
0001
0100
0100
1000
1000
0220
0330
,
0010
0000
0000
0000
1000
0000
0000
1000
0000
0000
0001
0000
0000
0000
0000
0000
,
0010
0000
0000
0000
0100
0000
0000
0100
0000
0000
1000
0000
0000
0000
0000
0000
,
0001
0000
0000
0000
0100
0000
0000
0100
0000
0000
0010
0000
0000
0000
0000
0000
,
1000
1000
0100
0100
0001
0001
0220
0000
,
0000
0000
0330
0000
0010
0000
0001
1000
,
0001
0100
0010
0000
0010
0000
1000
1000
,
0010
2000
0000
0000
3000
0000
0001
0000
,
0010
0100
0010
0000
0001
0100
1000
0100
,
0001
0010
0100
0000
1000
1000
0000
1001
,
0000
0000
0001
0000
0100
0100
0000
0110
,
0000
0000
0010
0000
1000
1000
0000
1100
,
0000
0000
0100
0000
0010
0010
0100
0100
,
1000
1000
2002
3003
0000
0101
0000
1100
,
0000
0100
0010
0100
0000
0110
0000
1010
,
0000
0010
1000
0001
0000
0010
0010
0100
,
0000
0010
0001
0100
0001
0001
0000
1000
,
1000
0001
0010
0001
1000
1000
0100
0000
,
0010
0010
0100
0000
1000
1000
0010
0000
,
0100
0100
0010
0000
1000
1000
0010
1000
,
0001
0000
0010
0010
0100
1000
1001
0000
,
0101
1200
0000
0000
,
0000
0300
0000
0000
0000
0000
0000
0000
;

//---------------dance-single - ----------------
#NOTES:
     dance-single:
     :
     Hard:
     11:
     0.425127,0.415222,0.444046,0.140225,0.311611,307.000000,57.000000,18.000000,0.000000,0.000000,0.000000,0.425127,0.415222,0.444046,0.140225,0.311611,307.000000,57.000000,18.000000,0.000000,0.000000,0.000000:
// measure 0
0000
0000
0000
0000
,  // measure 1
0000
0000
0000
0000
,  // measure 2
0000
0000
0000
0000
,  // measure 3
0000
0000
0000
0000
,  // measure 4
1000
0000
0000
0001
0000
0000
0010
0000
0000
0000
0200
0000
0000
0000
0000
0000
,  // measure 5
1300
0100
0020
0000
0000
0000
0031
0000
0010
0001
0100
0000
0001
0000
0010
0100
,  // measure 6
0010
0000
0000
0100
0000
0000
1000
0000
0000
0000
0002
0000
0000
0000
0000
0000
,  // measure 7
1003
0001
0200
0000
0000
0000
0000
0000
0320
0000
0000
0000
1030
0010
1000
0000
,  // measure 8
0100
0000
0000
0100
0000
0000
0110
0000
0011
0000
1010
0000
0010
0100
0010
0000
,  // measure 9
0100
0000
0000
0100
0000
0000
1100
0000
1010
0000
0110
0000
0010
0100
0010
0000
,  // measure 10
0100
0000
0000
0100
0000
0000
0101
0000
0011
0000
0110
0000
0100
0010
0100
0000
,  // measure 11
1000
0100
1000
0000
0001
1000
0001
0000
2002
0000
0000
0000
0000
0000
3003
0000
,  // measure 12
1000
0100
1000
0000
0001
0100
0001
0000
1000
0000
1000
0000
1100
0000
0000
0000
,  // measure 13
0100
0010
0100
1000
0010
0000
0100
0010
0100
0000
0001
0000
0101
0000
0000
0000
,  // measure 14
0001
1000
0001
0000
1000
0100
1000
0000
0100
0000
0100
0000
0110
0000
0000
0000
,  // measure 15
0010
0001
0100
0001
1000
0000
0100
1000
0100
0000
0010
0000
0110
0000
0000
0000
,  // measure 16
0010
0000
0001
1000
0000
0000
1001
0000
0000
0000
1000
0000
0001
1000
0100
0000
,  // measure 17
0010
0000
0100
0010
0000
0000
0110
0000
0000
0000
0100
0000
1000
0001
0100
0000
,  // measure 18
0001
0000
0010
0001
0000
0000
0011
0000
0000
0000
0010
0000
0100
1000
0001
0000
,  // measure 19
0100
0001
0100
0000
0010
0100
0010
0000
1000
0010
1000
0010
0220
0000
0330
0000
,  // measure 20
0100
0001
0100
0000
0001
0000
0000
0001
0000
0000
1001
0000
1100
0000
0101
0000
,  // measure 21
0100
0010
0100
0000
0010
0000
0000
0010
0000
0000
0011
0000
0101
0000
1100
0000
,  // measure 22
0100
0010
0100
0000
0010
0000
0000
0010
0000
0000
1010
0000
1100
0000
0110
0000
,  // measure 23
0010
0001
0010
0000
0001
0100
0001
0000
0100
0010
0100
0000
0220
0000
0000
0000
,  // measure 24
0000
0000
0330
0000
0010
1000
0010
0000
1000
0010
1000
0000
1010
0000
1001
0000
,  // measure 25
0011
0000
0020
0000
0130
0000
0010
0001
0010
0000
0001
0100
1000
0000
0100
0000
,  // measure 26
0100
0000
0020
0000
0000
0000
0000
0000
1030
0000
1000
0000
0010
1000
0001
0000
,  // measure 27
0010
0000
0100
0010
0000
0000
0000
0100
1000
0001
1000
0001
1000
0000
0001
0100
,  // measure 28
0000
0100
0020
0000
1030
0000
0000
0000
0010
0000
0100
0010
0000
0000
0110
0000
,  // measure 29
0000
0000
0010
0000
1000
0001
0010
0000
0100
0000
0010
0100
0000
0000
0110
0000
,  // measure 30
0000
0000
0100
0000
1000
0100
0010
0000
0001
0000
0100
0001
0000
0000
0101
0000
,  // measure 31
0000
0000
0100
0000
0010
0100
0001
0000
0010
0001
0010
0000
0100
0010
0100
0000
,  // measure 32
1000
0100
1000
0100
0220
0000
0330
0000
0100
0000
1000
0100
0000
0000
0100
0010
,  // measure 33
0000
0000
0011
0000
0101
0000
1001
0000
0000
0000
0001
1000
0000
0000
1000
0100
,  // measure 34
0000
0000
0110
0000
1100
0000
1001
0000
0000
0000
0001
0100
0000
0000
0100
0010
,  // measure 35
0000
0110
1010
0101
0001
0001
0010
1000
,  // measure 36
1000
0000
1010
0000
0011
0000
0101
0000
0001
1000
0001
1000
0001
0000
0010
0000
,  // measure 37
0100
0000
0110
0000
1100
0000
1001
0000
0001
0100
0001
0100
0001
0000
0010
0000
,  // measure 38
0100
0000
0110
0000
0011
0000
1001
0000
0001
1000
0001
1000
0001
0100
0001
0000
,  // measure 39
1000
0000
0100
0000
0010
0000
0010
0000
0100
1000
0100
1000
1001
0000
1001
0000
,  // measure 40
1001
0001
0202
0000
0000
0000
0000
0000
,  // measure 41
0303
0000
0000
0000
;
