#TITLE:WAP;
#SUBTITLE:(feat. Megan Thee Stallion);
#ARTIST:Cardi B.;
#TITLETRANSLIT:;
#SUBTITLETRANSLIT:;
#ARTISTTRANSLIT:;
#GENRE:Hiphop;
#CREDIT:RIME (Cut & Beginner-Expert);
#BANNER:bn.png;
#BACKGROUND:bg.png;
#LYRICSPATH:;
#CDTITLE:;
#MUSIC:song.ogg;
#OFFSET:-0.023000;
#SAMPLESTART:100.250000;
#SAMPLELENGTH:15.000000;
#SELECTABLE:YES;
#DISPLAYBPM:0.000000:133.000000;
#BPMS:0.000000=133.000000
,190.000000=141.000000
,191.000000=133.000000
;
#STOPS:
;
#BGCHANGES:;
#KEYSOUNDS:;
#ATTACKS:;

//---------------dance-single - RIME----------------
#NOTES:
     dance-single:
     :
     Beginner:
     2:
     0.083614,0.136697,0.000000,0.030805,0.000000,76.000000,76.000000,0.000000,4.000000,0.000000,0.000000,0.083614,0.136697,0.000000,0.030805,0.000000,76.000000,76.000000,0.000000,4.000000,0.000000,0.000000:
0000
0000
0000
0000
,
0000
0000
0000
0000
,
0000
0000
0000
0000
,
0000
0000
0000
0000
,
1000
0000
0000
0000
,
1000
0000
0000
0000
,
0001
0000
0000
0000
,
0001
0000
0000
0100
,
0000
0100
0000
0100
,
0000
0100
0000
0100
,
0000
0000
0000
0000
,
0010
0000
0000
0000
,
1000
0000
0000
0000
,
0010
0000
0000
0000
,
1000
0000
0000
0000
,
0001
0000
0000
0000
,
0010
0000
0000
0000
,
0010
0000
0000
0000
,
0100
0000
0000
0000
,
1000
0000
0000
0000
,
0010
0000
0000
0000
,
0010
0000
0000
0000
,
0100
0000
0000
0000
,
0001
0000
0000
0000
,
1000
0000
0000
0000
,
0100
0000
0000
0000
,
1000
0000
0000
0000
,
0100
0000
0000
0000
,
0010
0000
0000
0000
,
0001
0000
0000
0000
,
0010
0000
0000
0000
,
0001
0000
0000
0000
,
1000
0000
1000
0000
,
1000
0000
0000
0000
,
1000
0000
1000
0000
,
1000
0000
0000
0000
,
0010
0000
0010
0000
,
0010
0000
0000
0000
,
0010
0000
0010
0000
,
0010
0000
0000
0000
,
0100
0000
0000
0000
,
0100
0000
0000
0000
,
0001
0000
0000
0000
,
0001
0000
0000
0000
,
1000
0000
0000
0000
,
1000
0000
0000
0000
,
0001
0000
0000
0000
,
0001
0000
0000
0100
,
0000
0000
0000
0100
,
0000
0100
0000
0100
,
0000
0000
0000
0000
,
0010
0000
0000
0000
,
1000
0000
0000
0000
,
0010
0000
0000
0000
,
1000
0000
0000
0000
,
0001
0000
0000
0000
,
0010
0000
0010
0000
,
0010
0000
0000
0000
,
0010
0000
0010
0000
,
0010
0000
0000
0000
,
0100
0100
0100
0000
,
0100
0000
0000
0000
,
0100
0000
0100
0000
,
0100
0000
0000
0000
,
2000
0000
0000
0000
,
3000
0000
0000
0000
,
2000
0000
0000
0000
,
3000
0000
0000
0000
,
0002
0000
0000
0000
,
0003
0000
0000
0000
,
0002
0000
0000
0000
,
0003
0000
0000
0000
;

//---------------dance-single - RIME----------------
#NOTES:
     dance-single:
     :
     Easy:
     7:
     0.289347,0.330384,0.169428,0.061610,0.000000,263.000000,241.000000,22.000000,8.000000,0.000000,0.000000,0.289347,0.330384,0.169428,0.061610,0.000000,263.000000,241.000000,22.000000,8.000000,0.000000,0.000000:
0000
0000
0000
0000
,
0000
0000
0000
0000
,
0000
0000
0000
0000
,
0000
0000
0000
1000
,
0010
0100
0010
0000
,
0100
0010
0100
0000
,
0001
0001
0001
0000
,
1000
1000
0100
0010
,
0000
0100
0000
0100
,
0000
0100
0000
0100
,
0000
0100
1000
0001
,
1000
0010
0100
0001
,
0010
0010
0001
0100
,
0010
1000
0001
0100
,
0010
0010
1000
0100
,
0010
0100
0010
0001
,
0100
0100
0010
1000
,
0100
0100
0010
0001
,
1000
1000
0001
0100
,
0001
0001
1000
0010
,
0110
0100
0001
1000
,
0100
0010
0100
0020
,
0031
0020
0130
0200
,
1300
2000
3001
1000
,
0010
0001
0010
0100
,
0001
0010
0001
0100
,
0220
0000
0000
0330
,
0010
1000
0001
1001
,
0100
0001
0010
0100
,
0100
0010
0001
0200
,
0310
0020
0130
0110
,
0010
1010
1000
0001
,
0010
1000
0001
0100
,
1000
0001
0100
1000
,
0100
0010
1000
0001
,
0010
0100
1000
0001
,
0101
0100
0010
1000
,
0001
0001
0010
0100
,
1000
0010
0001
0010
,
0100
0001
0010
0100
,
0110
0100
1000
0010
,
0100
0001
1000
0001
,
0010
0010
0100
1000
,
0001
0100
0010
1000
,
0001
0001
1000
0100
,
0010
0100
1000
0010
,
0001
0010
0100
0001
,
1000
1000
0100
0010
,
0000
0000
0110
0100
,
0000
0100
0000
0100
,
0000
0100
1000
0001
,
0100
0100
0010
1000
,
0100
0100
0010
0100
,
1000
1000
0001
0100
,
0010
0010
1000
0001
,
0010
0100
0010
0001
,
0011
0010
0100
1000
,
0001
0001
0100
0010
,
0110
0100
0001
1000
,
0100
0100
0010
0001
,
0011
0011
0011
0001
,
1000
0010
0100
0010
,
0010
1000
0001
0010
,
0001
0001
0100
0110
,
0000
0000
1010
1000
,
0000
0001
1001
0000
,
0000
0000
0011
0010
,
0000
0100
0110
0000
,
0000
0000
1100
1000
,
0000
0001
1001
0000
,
0000
0000
0101
0100
,
0000
0010
0110
0000
;

//---------------dance-single - RIME----------------
#NOTES:
     dance-single:
     :
     Medium:
     10:
     0.480778,0.495576,0.369660,0.007701,0.084714,437.000000,389.000000,48.000000,1.000000,0.000000,0.000000,0.480778,0.495576,0.369660,0.007701,0.084714,437.000000,389.000000,48.000000,1.000000,0.000000,0.000000:
0000
0000
0000
0000
,
0000
0000
0000
0000
,
0000
0000
0000
0000
,
0000
0000
0000
0000
0000
0000
0000
0000
0000
1000
0000
0000
0010
0000
0000
0000
,
0100
0000
0000
0100
0000
0000
0100
0000
0000
0000
0000
0000
0001
0000
0000
0000
,
1000
0000
0000
1000
0000
0000
1000
0000
0000
0000
0000
0000
0100
0000
0000
0000
,
0010
0000
0000
0100
0000
0000
0010
0000
0000
0000
0000
0000
0001
0000
0000
0000
,
1000
0000
0000
0010
0000
0000
0100
0000
0000
0000
0000
0000
0110
0000
0000
0000
,
0100
0101
0001
1001
,
1000
1100
0100
0110
,
0010
0000
0001
0010
0100
1000
0001
0000
,
0100
0001
0000
0100
0001
0000
1000
0000
,
1100
0011
0101
0001
,
1000
0010
0000
1000
0010
0000
0100
0000
,
0110
1001
0110
0010
,
1000
0000
0001
0000
0000
0000
1000
0000
0001
0000
0000
0000
0010
0000
0000
0100
,
0000
1000
0000
0000
0001
0000
0000
0100
0000
0000
0000
0000
0001
0000
0000
0010
,
0000
0000
0001
0000
0100
0000
0000
0010
0000
0000
0000
0000
0100
0000
0000
0001
,
0000
0000
1000
0000
0100
0000
0000
0010
0000
0000
0000
0000
0100
0000
0000
1000
,
0000
0000
0010
0000
0100
0000
0000
0001
0000
0000
0000
0000
0010
0000
0000
0000
,
0011
0000
0000
0001
1000
0001
1000
0000
0000
0010
0000
0000
,
0110
0000
0000
0000
0000
0000
0010
0000
1000
0000
0010
0000
1000
0000
0000
0000
0000
0000
0100
0000
0000
0010
0000
0000
,
0011
0000
0001
1000
1001
0000
1000
1000
,
0010
0000
0100
0001
1000
0000
0001
0010
,
0001
0000
0100
0100
0010
0000
0010
1000
,
0001
0000
0010
0010
0001
0000
0100
0010
,
1000
0000
0000
0001
0000
0000
1000
0000
0000
0001
0000
0000
0100
0000
0000
0000
,
0001
0000
0001
0010
0000
0010
0100
0000
0000
0110
0000
0000
,
1001
0101
1001
1100
,
1000
0010
0110
0100
,
0011
0100
1010
1001
,
0100
0000
1001
0000
0010
0000
0001
0010
,
0100
0010
0001
1000
0010
1000
0001
0001
,
0010
0100
1000
0001
0100
0010
0100
0001
,
1000
1000
0100
0010
0001
0010
0100
1000
,
0001
0100
1000
0100
0010
0010
1000
0001
,
1001
0000
0001
0010
0011
0000
0010
0100
,
1000
0100
0001
0100
1000
0001
0100
0010
,
1000
1000
0001
0010
0100
0000
0010
0010
,
0001
1000
0010
0100
0010
0100
0100
0001
,
0010
0000
0001
0100
0010
0000
0100
0001
,
1000
0100
0000
1000
0100
0010
0010
0100
,
2000
0000
3010
1000
0001
0001
0100
0010
,
1000
0001
0000
1000
0001
0010
0010
0001
,
0100
0010
1000
0100
0001
0100
1000
0001
,
0100
0010
0000
0100
0010
1000
0100
0010
,
0001
0000
0010
0001
0100
0100
0010
1000
,
0001
0100
0000
0001
0100
0000
0101
0000
,
0001
0000
1000
0100
0010
0000
0110
0000
,
0100
1100
1000
1001
,
0001
0000
0100
0010
1000
1000
0001
0010
,
0100
0010
0000
0100
0010
0000
0001
0000
,
0011
0000
1100
0000
1001
0000
0001
0100
,
0010
1000
0000
0010
1000
0000
1100
0000
,
0110
0000
0011
0000
1001
0000
0001
0100
,
0010
1000
0000
0010
1000
0001
0011
0000
,
0100
0000
1010
0000
0100
0000
1000
0001
,
0100
0010
0000
0100
0010
1000
1100
0000
,
0011
0000
0101
0000
1010
0000
1000
0001
,
0010
0100
0000
0010
0100
0010
0001
0100
,
0101
0000
0101
0000
0101
0000
0001
1000
,
0100
1000
0000
0100
1000
0000
0010
0010
,
1000
0001
0010
1000
0001
0000
0100
1000
,
0001
0100
0000
0001
0100
0000
0110
0000
,
0010
0000
1000
0100
0010
0000
0100
1000
,
0010
0000
1000
0100
0010
0000
0100
1000
,
0001
0000
0100
0001
1000
0000
0100
1000
,
0001
0000
0100
0001
1000
0000
0001
0010
,
0100
0000
0010
0001
0100
0000
0001
0010
,
0100
0000
0010
0001
0100
0000
0001
1000
,
0100
0000
1000
0001
0100
0000
0001
1000
,
0100
0000
1000
0001
0100
0000
0000
0000
;

//---------------dance-single - RIME----------------
#NOTES:
     dance-single:
     :
     Hard:
     15:
     0.656807,0.853491,0.300349,0.161726,0.542938,597.000000,558.000000,39.000000,21.000000,0.000000,0.000000,0.656807,0.853491,0.300349,0.161726,0.542938,597.000000,558.000000,39.000000,21.000000,0.000000,0.000000:
// measure 0
0000
0000
0000
0000
,  // measure 1
0000
0000
0000
0000
,  // measure 2
0000
0000
0000
0000
,  // measure 3
0000
0000
0000
0000
0000
0000
0000
0000
0000
1000
0000
0000
0002
0000
0013
0000
,  // measure 4
0001
0100
0000
0001
1000
0000
0100
0000
0010
0000
0000
0000
0100
0000
1000
0000
,  // measure 5
0001
0100
0000
0010
1000
0100
0010
0000
0100
0000
0000
0000
1000
0000
0001
0000
,  // measure 6
0101
0000
0000
1010
0000
0000
1002
0000
0100
0000
0003
0000
0001
0000
0010
0000
,  // measure 7
0001
0100
0000
0010
1000
0000
0002
0000
0013
0000
0000
0000
0011
0000
0001
0000
,  // measure 8
0100
0000
0010
1000
0001
0000
0101
0100
,  // measure 9
0010
0000
0000
1000
0000
0000
0100
0000
0000
0010
0100
0010
0100
0000
0000
0000
0000
0000
0110
0000
0000
0100
0000
0000
,  // measure 10
1000
0000
0001
0100
1000
1000
0001
0010
,  // measure 11
1000
0000
0002
0000
0000
0000
0013
0000
0001
0000
0000
0000
0100
0010
0000
0000
,  // measure 12
1000
0001
0000
0000
0001
0010
0000
0000
0110
0000
0000
0000
0100
0000
1000
0000
,  // measure 13
0001
0000
0000
0000
0000
0000
0100
0000
0000
0000
0000
0000
1000
0000
0000
0000
0000
0000
0001
0000
0010
0000
0001
0000
0010
0000
0000
0000
0000
0000
0000
0000
0000
0000
0000
0000
1000
0000
0000
0001
0000
0000
0000
0000
0000
0000
0000
0000
,  // measure 14
0010
0100
0000
0000
0100
1000
0000
0000
1001
0000
0000
0000
0001
0000
0100
0000
,  // measure 15
1000
0000
0000
0001
0000
0000
0010
0000
0000
1000
0000
0000
0100
0000
0000
0000
0000
0000
0010
0000
0100
0000
1000
0000
,  // measure 16
0000
0000
0000
0000
0010
0000
0000
0000
0010
0000
0000
0000
0100
0000
0000
0001
0000
0000
0000
0000
0000
0001
0000
0000
1000
0000
0000
0000
0000
0000
0000
0000
0000
0000
0000
0000
0100
0000
0000
0000
0000
0000
0010
0000
0000
0100
0000
0000
,  // measure 17
0010
0000
0000
0001
0000
0000
0100
0000
0000
0001
1000
0001
1000
0000
0000
0000
0000
0000
0100
0000
0010
0000
0001
0000
,  // measure 18
0001
0000
0000
0000
1000
0000
0000
0000
0000
0000
0000
0000
0010
0000
0000
0100
0000
0000
0000
0000
0000
0001
0000
0000
0010
0000
0000
0000
0000
0000
0000
0000
0000
0000
0000
0000
0001
0000
0000
0000
0000
0000
1000
0000
0000
0010
0000
0000
,  // measure 19
0000
0000
0000
0000
1000
0000
0000
0000
1000
0000
0000
0000
0001
0000
0100
0000
0001
0000
0100
0000
0000
0010
0000
0000
1000
0000
0000
0000
0000
0000
0000
0000
0000
0000
0000
0000
0100
0000
0000
0000
0000
0000
0010
0000
0000
0000
0000
0000
,  // measure 20
0110
0000
0000
0010
0001
0100
0010
0000
0000
0010
1000
0100
,  // measure 21
0010
0000
0000
0000
0010
0000
0000
0000
0000
0000
0000
0000
0100
0000
0000
0000
0010
0000
0001
0000
0100
0000
0001
0000
0100
0000
0000
0000
0000
0000
0000
0000
0000
0000
0000
0000
0010
0000
0000
1000
0000
0000
0010
0000
0000
0000
0000
0000
,  // measure 22
0110
0000
0000
0000
0100
0001
0100
0000
0110
0000
0000
0010
1000
0001
0010
0000
,  // measure 23
0100
0000
0000
0100
0010
0001
1000
0000
1001
0000
0000
0000
0001
0000
0100
0000
,  // measure 24
0101
0000
0000
0001
1000
0000
0100
0000
0010
0000
0000
0000
0100
0000
1000
0000
,  // measure 25
1100
0000
0000
0000
0000
0000
0000
0000
0000
1000
0000
0000
0001
0000
0000
0000
0000
0000
0100
0000
0001
0000
0100
0000
0001
0000
0000
0000
0000
0000
0000
0000
0000
0100
0000
0000
0010
0000
0000
1000
0000
0000
0100
0000
0000
0000
0000
0000
,  // measure 26
1100
0000
0000
0011
0000
0000
0101
0000
0000
1010
0000
0000
1001
0000
0000
0000
,  // measure 27
1000
0000
0000
0000
0100
0000
0000
0000
0001
0000
0000
0000
1000
0000
0000
0010
0000
0000
0001
0000
0000
0000
0000
0000
1000
0000
0000
0000
0000
0000
0000
0000
0000
0000
0000
0000
1001
0000
0000
0001
0000
0000
0000
0000
0000
0000
0000
0000
,  // measure 28
0100
0000
0000
0000
0010
0010
0000
0000
1000
0000
0000
0000
0001
0001
0000
0000
,  // measure 29
0010
0000
0000
0100
0000
0000
0000
0000
0000
0100
0000
0000
1000
0000
0000
0001
0000
0000
1000
0000
0001
0000
1000
0000
0100
0000
0000
0000
0000
0000
1000
0000
0000
0000
0000
0000
0010
0000
0000
1000
0000
0000
0000
0000
0000
0000
0000
0000
,  // measure 30
0001
0000
0000
0000
0100
0001
0000
0000
1000
0000
0000
0001
0010
0000
0100
0000
,  // measure 31
0010
0000
0000
0000
0000
0000
0000
0000
0000
0000
0001
0000
0000
0000
0000
0000
0000
0000
0000
1000
0000
0000
0000
0000
0000
0000
0000
0000
0000
0000
0000
0000
0001
0000
0000
0000
0000
0000
0000
0000
0000
0000
0000
0000
0000
0000
0000
0000
0100
0000
0000
0000
0000
0000
0000
0000
0000
0000
0000
0000
0000
0000
0000
0000
0000
0000
0000
0000
0000
0000
0000
0000
0010
0000
0000
0000
0000
0000
0000
0000
0000
0000
0000
0000
0000
0000
0000
0000
0000
0000
0000
0000
0000
0000
0000
0000
1000
0000
0000
0000
0000
0000
0000
0000
0000
0000
0000
0000
0000
0000
0000
0000
0000
0000
0000
0000
0000
0000
0000
0000
0000
0000
0000
0000
0000
0000
0000
0000
0000
0000
0000
0000
0000
0000
0000
0000
0000
0000
0000
0000
0000
0000
0000
0000
0001
0000
0000
0000
0000
0000
0000
0000
0000
0000
0000
0000
0000
0000
0000
0000
0010
0000
0000
0000
0000
0000
0000
0000
0000
0000
0000
0000
0000
0000
0000
0000
0001
0000
0000
0000
0000
0000
0000
0000
0000
0000
0000
0000
0000
0000
0000
0000
,  // measure 32
1000
0010
1000
0000
0001
0000
0001
0100
0010
1000
0010
0000
0100
0000
0001
0000
,  // measure 33
1000
0000
0100
0010
0100
1000
0010
0100
0001
1000
0100
0010
0010
0001
1000
0001
,  // measure 34
0100
0010
1000
0001
0100
0010
1000
0100
1000
0001
0100
0010
0100
0000
0001
0000
,  // measure 35
0010
0100
1000
0001
0100
1000
0100
0000
0010
1000
0100
0000
0010
0000
0001
0000
,  // measure 36
1001
0000
0001
0100
0110
0000
0010
1000
,  // measure 37
0100
0000
0010
0100
1000
0000
0010
0000
0001
0000
0010
0100
0010
0010
1000
0000
,  // measure 38
0001
0010
0100
1000
0001
0000
0100
0010
0100
0000
0000
0001
0010
0000
0001
1000
,  // measure 39
0010
1000
0100
0000
1000
0100
0010
0000
0110
0000
0100
0000
1000
0000
0001
0000
,  // measure 40
0101
0000
0100
0010
1010
0000
1000
0001
,  // measure 41
0010
0000
0000
0200
0000
0000
0010
0000
0000
1300
0100
1000
0100
0000
0000
1000
0000
0000
0001
0000
0000
0100
0000
0000
,  // measure 42
0120
0000
1030
0010
0100
0100
0001
1000
,  // measure 43
0200
0000
0000
0010
0000
0000
1300
0100
1000
0100
0000
0000
1000
0000
0000
0001
0000
0000
0001
0000
0000
0100
0000
0000
,  // measure 44
0010
1000
0001
0010
0100
1000
0001
0010
,  // measure 45
0001
0000
0000
0200
0000
0000
0010
0000
0000
0301
0100
0001
0100
0000
0000
0010
0000
0000
1000
0000
0000
0001
0000
0000
,  // measure 46
2001
0000
3010
1000
0100
0100
0010
0100
,  // measure 47
1000
0001
0100
0001
1000
0000
1010
0000
,  // measure 48
0020
0000
0130
0010
1010
0000
1100
0100
,  // measure 49
0020
0000
0031
0010
0110
0000
1001
0001
,  // measure 50
0200
0000
0310
0100
0001
0001
1000
0100
,  // measure 51
0001
0000
1000
0000
0010
0000
0100
0000
1000
0000
0000
0000
0001
0100
0000
0000
,  // measure 52
0010
1000
0000
0000
0001
0010
0000
0000
0100
0000
0000
0000
0010
0000
0001
0000
,  // measure 53
1000
0000
0010
0000
0001
0000
1000
0000
0100
0000
0000
0000
0010
1000
0000
0000
,  // measure 54
0001
0100
0000
0000
0001
0010
0000
0000
0110
0000
0000
0000
0100
0000
1000
0000
,  // measure 55
0001
0000
0000
0000
0000
0000
0100
0000
0000
0000
0000
0000
1000
0000
0000
0000
0000
0000
0001
0000
0000
0000
0000
0000
0010
0000
0000
0000
0100
0000
0000
0000
0000
0000
0000
0000
0001
0000
0000
1000
0000
0000
0000
0000
0000
0000
0000
0000
,  // measure 56
1001
0000
0000
0000
0000
0000
0001
0000
0010
0000
0000
0000
0110
0000
0000
0000
0000
0000
0100
0000
0000
1000
0000
0000
,  // measure 57
0001
0000
0000
0000
0000
0000
0100
0000
0000
0000
0000
0000
1000
0000
0000
0000
0000
0000
0100
0000
0010
0000
0100
0000
0010
0000
0000
0000
0000
0000
1000
0000
0000
0000
0000
0000
0001
0000
0000
0010
0000
0000
0000
0000
0000
0000
0000
0000
,  // measure 58
0100
1000
0000
0000
0001
0100
0000
0000
0010
0000
0000
0000
1000
0000
0001
0000
,  // measure 59
0010
0000
0000
0100
0000
0000
0010
0001
0010
0001
0000
0000
0100
0000
0000
0010
0000
0000
1000
0000
0000
0100
0000
0000
,  // measure 60
1100
0000
1010
0000
0101
0000
0001
0010
,  // measure 61
0100
0000
0000
0001
0000
0000
1000
0000
0000
0010
0001
0010
0001
0000
0000
0000
0000
0000
0100
0000
0000
0010
0000
0000
,  // measure 62
2000
0000
0000
0100
0000
0000
3001
0000
1000
0000
0000
0000
1001
0000
0000
0000
0000
0000
0001
0000
0000
0100
0000
0000
,  // measure 63
0010
0000
0000
1000
0000
0000
0100
0001
0100
0001
0000
0000
0100
0000
0000
0000
0000
0000
0010
0000
0000
0001
0000
0000
,  // measure 64
0200
0000
0310
0100
0001
0000
0010
0001
,  // measure 65
2000
0000
0000
0000
0000
0000
3010
0000
0000
1000
0100
1000
0100
0000
0000
0000
0000
0000
0100
0000
0000
1000
0000
0000
,  // measure 66
0020
0000
0130
0010
1000
0000
0010
1000
,  // measure 67
0002
0000
0000
0100
0000
0000
0103
0001
0100
0001
0000
0000
0010
0000
0000
0000
0000
0000
0100
0000
0000
0010
0000
0000
,  // measure 68
0002
0000
1003
0001
0100
0000
0001
0010
,  // measure 69
0200
0000
0310
0100
1000
0000
0100
1000
,  // measure 70
0020
0000
0130
0010
1000
0000
0010
1000
,  // measure 71
0002
0000
0013
0001
0100
0000
0000
0000
;
