#TITLE:Timber;
#SUBTITLE:;
#ARTIST:Pitbull feat. KE$HA;
#TITLETRANSLIT:;
#SUBTITLETRANSLIT:;
#ARTISTTRANSLIT:;
#GENRE:Country-Dance;
#CREDIT:;
#BANNER:Timber.png;
#BACKGROUND:;
#LYRICSPATH:;
#CDTITLE:;
#MUSIC:Timber.mp3;
#OFFSET:-0.763214;
#SAMPLESTART:88.440041;
#SAMPLELENGTH:15.000000;
#SELECTABLE:YES;
#BPMS:0.000000=130.000000
;
#STOPS:
;
#BGCHANGES:-2.000=Timber.avi=1.000=0=0=0=StretchNoLoop====,
99999=-nosongbg-=1.000=0=0=0 // don't automatically add -songbackground-
;
#KEYSOUNDS:;
#ATTACKS:;

//---------------dance-single - ----------------
#NOTES:
     dance-single:
     :
     Easy:
     5:
     0.237191,0.238528,0.031180,0.085745,0.000000,198.000000,4.000000,11.000000,0.000000,0.000000,0.000000,0.237191,0.238528,0.031180,0.085745,0.000000,198.000000,4.000000,11.000000,0.000000,0.000000,0.000000:
0000
0000
0000
0000
,
0000
0000
0000
0000
,
0000
0000
0000
0000
,
0000
0000
0000
0001
,
0001
0000
0000
0010
,
0020
0000
0000
0130
,
0100
0000
0000
0010
,
0110
0000
0000
0010
,
0010
0000
0000
0001
,
0002
0000
0000
1003
,
1000
0000
0000
0010
,
0110
0000
0000
0000
,
0010
1000
0100
0000
,
1000
0100
0010
0000
,
0010
0001
0100
0010
,
0100
0001
1000
0000
,
0100
1000
0010
0000
,
0100
0010
1000
0000
,
0001
0010
0100
0010
,
0001
1000
0010
0000
,
0100
0100
0001
0000
,
1000
1000
0100
0000
,
0010
0010
0100
1000
,
0001
0001
0100
0000
,
0001
1000
0001
0000
,
1000
0001
1000
0000
,
0010
1000
0001
0000
,
0100
0001
1000
0000
,
0100
0100
1000
0010
,
0001
0010
1000
0100
,
0010
0010
0001
0100
,
1000
0100
0001
0010
,
0100
0100
1000
0010
,
0001
0010
1000
0100
,
0001
0001
0100
0010
,
0001
0100
1000
0001
,
0010
0000
0000
0100
,
0200
0000
0000
0301
,
0001
0000
0000
1000
,
1001
0000
0000
1000
,
1000
0000
0000
0100
,
0200
0000
0000
0310
,
0010
0000
0000
0001
,
2001
0000
0000
3010
,
0010
0100
0100
0001
,
0002
0000
1003
1000
,
0001
0010
0010
0100
,
0100
1000
0001
0100
,
0100
0010
0010
1000
,
0020
0000
0130
0100
,
0010
1000
0001
0010
,
0000
0001
0000
0010
0000
0100
0000
2000
,
0000
0001
3001
0000
,
1000
0100
1000
0000
,
0100
0010
0100
1000
,
0010
0000
0100
0000
0001
0000
0000
0020
,
0000
0100
0130
0000
,
0010
0001
0010
0000
,
0001
0100
1000
0100
,
0010
0000
1000
0000
0001
0000
0000
0020
,
0000
0100
0130
0000
,
0010
0001
0100
0000
,
0001
1000
0100
1000
,
0010
0000
0100
0000
0001
0000
0000
2000
,
0000
0100
3100
0000
,
0000
1000
0000
0010
0000
0100
0000
0001
,
0000
1000
1000
0100
,
0010
0100
1000
0001
,
0100
0000
0000
0000
;

//---------------dance-single - ----------------
#NOTES:
     dance-single:
     :
     Hard:
     13:
     0.653668,0.636074,0.428726,0.210466,0.265031,505.000000,55.000000,27.000000,0.000000,0.000000,0.000000,0.653668,0.636074,0.428726,0.210466,0.265031,505.000000,55.000000,27.000000,0.000000,0.000000,0.000000:
0000
0000
0000
0000
,
0000
0000
0000
0000
,
0000
0000
0000
0000
,
0000
0000
0000
0000
0000
0000
0000
0000
0000
0000
0100
0000
1000
0010
1000
0000
,
0001
0000
0000
0000
1001
0000
0000
0000
0001
0000
0010
0000
0100
0010
0100
0000
,
1000
0020
0100
0000
0130
0010
1000
0001
,
0020
0000
0000
0000
0130
0000
0010
0000
0000
0000
0001
0000
0010
0100
1000
0000
,
0002
0000
1000
0000
0100
0000
1003
0000
0000
0000
0001
0000
0010
0100
0010
0000
,
0001
0000
0000
0000
1001
0000
0001
0000
1000
0000
0100
0000
0001
0100
0001
0000
,
0100
0020
0001
0000
0031
0010
0100
1000
,
0020
0000
0000
0000
0130
0000
0010
0000
0000
0000
0010
0000
1000
0010
1000
0000
,
0001
0000
0020
0000
0000
0000
0000
0000
0130
0000
0010
0000
0001
1000
0002
0000
,
0010
0000
0000
0000
1000
0000
0100
0000
1003
0000
0001
0000
1000
0001
0100
0000
,
0001
0000
0100
0000
0010
1000
0010
0000
1000
0000
0000
0000
1001
0000
0000
0000
,
0001
0000
0010
0000
0100
0000
0001
0000
1000
0000
0010
0000
0001
1000
0001
0000
,
0100
0000
1000
0000
0001
1000
0001
0000
1000
0000
0100
0000
0010
0100
0020
0000
,
1000
0000
0100
1000
0130
0000
0101
0000
,
0001
0000
1000
0000
0100
0010
0100
0000
1000
0000
0000
0000
1010
0000
0000
0000
,
0010
0000
0100
0000
0001
0000
1000
0000
0100
0000
0001
0000
1000
0001
1000
0000
,
0100
0000
1000
0000
0010
0100
0010
0000
2000
0000
0000
0000
3001
0000
0000
1000
,
0100
1000
0010
0100
0000
0010
0100
0010
1000
0100
0000
0000
0110
0000
0010
0000
,
0001
0010
0001
0100
0000
0001
0100
0001
0010
0100
0000
0000
0110
0000
0100
0000
,
1000
0100
1000
0000
0100
0000
0010
0100
0000
0100
1000
0000
0010
0000
0000
0000
,
0100
0010
0100
0010
0100
0000
0100
0001
0000
0000
0000
0000
1001
0000
1000
0000
,
0100
0000
0000
0101
0000
0000
1000
0000
0010
0001
0000
0000
1001
0000
1000
0000
,
0010
0000
0100
0010
0000
0010
1000
0000
1000
0002
0000
0003
1100
0000
1000
0000
,
0001
0100
1000
0100
0001
0000
1000
0000
0001
0000
0010
0100
0010
0000
0100
1000
,
0000
0000
1000
0010
1000
0000
0010
0001
0000
0000
0010
0000
0110
0000
0100
0000
,
0101
0001
0011
0010
1010
1000
1001
0000
,
0010
0000
0001
0100
1000
0000
0100
0000
0010
0000
1000
0000
1001
0000
0000
0000
,
0011
0010
0100
1000
0010
0001
0100
0000
,
0010
0000
1000
0001
1000
0000
0100
0000
1000
0000
0010
0000
0110
0000
0000
0000
,
1010
1000
1100
0100
0101
0001
1001
0000
,
0001
0000
0100
1000
0010
0000
0200
0000
0310
0000
2000
0000
3001
0000
0020
0000
,
1030
0010
0011
0100
0001
0010
1000
0010
,
0100
0000
1000
0100
0010
0000
0001
0000
1000
0000
0001
0000
0100
0000
0010
0000
,
0110
0000
0000
0000
0010
0000
1010
0000
0000
0000
1000
0000
0001
1000
0100
0000
,
0010
0200
0000
0000
1300
0100
0010
1000
,
0020
0000
0000
0000
0031
0000
0010
0000
0000
0000
0001
0000
1000
0001
0100
0000
,
0010
0000
0100
0000
0000
0000
0110
0000
0000
0000
0010
0000
1000
0001
1000
0000
,
0100
0000
0000
0000
1000
0000
1100
0000
0000
0000
0100
0000
1000
0001
0100
0000
,
0001
0020
0000
0000
0130
0010
0010
0100
,
1000
0000
0001
1000
0000
0001
0100
0001
,
0020
0200
0000
0000
0330
0010
0001
1000
,
1001
0000
0001
0000
0011
0000
0010
0000
0110
0000
0010
0000
0001
0010
0100
0000
,
2000
0001
0100
0000
3100
1000
0010
0100
,
0110
0000
0000
0000
0110
0000
0000
0000
0100
0000
0001
0000
1000
0001
1000
0000
,
0100
0010
0100
1000
1010
0010
0100
0001
,
1000
0000
0001
0000
0001
0000
0010
0000
0100
0000
0010
0000
0001
1000
0001
0000
,
0100
0020
0000
0000
1030
0010
0010
0100
,
0010
0000
1000
0000
1000
0000
0001
0000
0100
0000
0001
0000
1000
0001
0100
0000
,
0001
0011
0000
0110
0000
1100
0000
1000
,
0120
0000
0031
0010
0001
0100
1010
1000
,
0001
0000
0010
0000
0100
0010
0100
0000
1000
0000
0001
0000
0110
0000
0010
0000
,
0001
0000
0100
0000
1000
0000
0100
0000
0001
0000
0010
0000
0100
1000
0100
0000
,
1000
0000
0010
0000
0100
0001
0100
0000
0001
0000
1001
0000
0110
0000
0020
0000
,
1000
0000
0130
0010
0100
0001
0120
1030
,
0010
0000
1000
0000
0001
1000
0001
0000
0010
0000
0000
0000
1001
0000
0000
0000
,
1000
0000
0100
0000
0001
0000
0100
0000
1000
0000
0010
0000
0100
0001
0100
0000
,
0001
0000
0010
0000
0100
1000
0100
0000
1000
0000
0001
0000
1000
0000
0100
0000
,
0011
0001
1001
0001
0101
0000
0110
0100
,
0010
0000
1000
0000
0001
1000
0001
0000
0010
0000
0000
0000
0010
0100
0000
0000
,
1100
0000
1000
0000
1001
0000
1000
0000
1010
0000
0010
0000
0100
0010
0100
0000
,
0001
0000
0010
0000
0100
0010
0100
0000
1000
0000
0100
0000
0100
0000
0001
0000
,
2001
0000
0010
0001
3010
0000
0110
0100
,
1000
2010
0001
3100
0000
0012
1000
0103
,
0000
0000
0001
0000
1000
0000
0010
0000
0100
0000
0010
0000
1000
0001
0010
0000
,
0100
0000
0010
0000
0001
1000
0010
0000
0100
0000
0001
0000
0100
0002
0000
0000
,
1003
0000
0000
0000
;

//---------------dance-single - ----------------
#NOTES:
     dance-single:
     :
     Beginner:
     2:
     0.086859,0.079509,0.007795,0.015590,0.000000,75.000000,1.000000,2.000000,0.000000,0.000000,0.000000,0.086859,0.079509,0.007795,0.015590,0.000000,75.000000,1.000000,2.000000,0.000000,0.000000,0.000000:
0000
0000
0000
0000
,
0000
0000
0000
0000
,
0000
0000
0000
0000
,
0000
0000
0000
0000
,
0100
0000
0000
0000
,
0010
0000
0000
0000
,
0001
0000
0000
0000
,
1000
0000
0000
0000
,
0010
0000
0000
0000
,
0100
0000
0000
0000
,
0001
0000
0000
0000
,
1000
0000
0000
0000
,
0001
0000
0001
0000
,
0001
0000
0000
0000
,
0001
0000
0001
0000
,
0001
0000
0000
0000
,
1000
0000
1000
0000
,
1000
0000
0000
0000
,
1000
0000
1000
0000
,
1000
0000
0000
0000
,
0100
0000
0000
0000
,
0100
0000
0000
0000
,
0010
0000
0000
0000
,
0010
0000
0000
0000
,
0001
0000
0000
0000
,
1000
0000
0000
0000
,
0001
0000
0000
0000
,
1000
0000
0000
0000
,
0001
0000
0000
0000
,
0100
0000
0000
0000
,
1000
0000
0000
0000
,
0010
0000
0000
0000
,
0001
0000
0000
0000
,
0100
0000
0000
0000
,
1000
0000
0000
0000
,
0010
0000
0000
0000
,
0200
0000
0000
0000
,
0300
0000
0000
0000
,
0001
0000
0000
0000
,
0001
0000
0000
0000
,
2000
0000
0000
0000
,
3000
0000
0000
0000
,
0010
0000
0000
0000
,
0010
0000
0000
0000
,
0100
0000
0000
0000
,
0100
0000
0000
0000
,
0001
0000
0000
0000
,
0001
0000
0000
0000
,
0010
0000
0000
0000
,
0010
0000
0000
0000
,
0100
0000
0000
0000
,
0100
0000
0000
0000
,
1000
0000
1000
0000
,
1000
0000
0000
0000
,
1000
0000
1000
0000
,
1000
0000
0000
0000
,
0001
0000
0001
0000
,
0001
0000
0000
0000
,
0001
0000
0001
0000
,
0001
0000
0000
0000
,
0010
0000
0010
0000
,
0010
0000
0000
0000
,
0010
0000
0010
0000
,
0010
0000
0000
0000
,
0100
0000
0100
0000
,
0100
0000
0000
0000
,
0100
0000
0100
0000
,
0100
0000
0000
0000
,
1001
0000
0000
0000
;

//---------------dance-single - ----------------
#NOTES:
     dance-single:
     :
     Medium:
     8:
     0.440976,0.424049,0.124720,0.148105,0.023385,361.000000,16.000000,19.000000,0.000000,0.000000,0.000000,0.440976,0.424049,0.124720,0.148105,0.023385,361.000000,16.000000,19.000000,0.000000,0.000000,0.000000:
// measure 0
0000
0000
0000
0000
,  // measure 1
0000
0000
0000
0000
,  // measure 2
0000
0000
0000
0000
,  // measure 3
0000
0000
0000
0000
0000
0001
0010
0100
,  // measure 4
1000
0000
0000
0000
0000
0001
0010
0100
,  // measure 5
0010
0002
0000
0000
0000
1003
0001
0100
,  // measure 6
0010
0000
0000
0000
0000
1000
0010
0100
,  // measure 7
0100
0000
0000
0000
0000
0001
0100
0010
,  // measure 8
1000
0000
0000
0000
0000
0001
0100
0010
,  // measure 9
0100
0002
0000
0000
0000
1003
0001
0010
,  // measure 10
0100
0000
0000
0000
0000
0010
0100
1000
,  // measure 11
0010
0200
0000
0000
0000
0301
0100
0020
,  // measure 12
0000
0000
1030
0010
1000
0000
0001
0000
,  // measure 13
0000
0010
0100
0010
0100
0000
1100
0000
,  // measure 14
0000
1000
0001
0100
0001
1000
0100
1000
,  // measure 15
0100
0010
0100
0010
0001
0000
1000
0002
,  // measure 16
0000
0000
0103
0001
0100
0000
0010
0000
,  // measure 17
0000
1000
0010
1000
0100
0000
0010
0000
,  // measure 18
0000
0100
1000
0001
0100
0001
0010
0100
,  // measure 19
0010
0001
0100
0001
0010
0000
0100
0000
,  // measure 20
0010
0000
0000
0100
0000
0000
1000
0000
0001
0000
0000
0000
1001
0000
0000
0000
,  // measure 21
0001
0000
0000
0100
0000
0000
0010
0000
1000
0000
0000
0000
1100
0000
0000
0000
,  // measure 22
0100
0010
0100
0000
1000
0001
1000
0000
,  // measure 23
0001
0100
1000
0100
0001
0000
0101
0000
,  // measure 24
0001
0000
0000
0010
0000
0000
0100
0000
1000
0000
0000
0000
1001
0000
0000
0000
,  // measure 25
1000
0000
0000
0010
0000
0000
0100
0000
0000
0001
0000
0000
1001
0000
0000
0000
,  // measure 26
1000
0000
0100
0000
0001
0000
0100
0000
1000
0000
0000
0000
0010
0000
0000
0010
,  // measure 27
0000
0100
0010
1000
0001
0000
1000
0100
,  // measure 28
1000
1000
0010
0000
0001
0010
1000
0000
,  // measure 29
0001
0010
1000
0010
0001
0100
0100
0000
,  // measure 30
0010
0010
1000
0000
0001
0010
1000
0000
,  // measure 31
0010
0010
0001
0100
1000
0100
0100
0000
,  // measure 32
0010
0010
1000
0000
1000
0100
0001
0000
,  // measure 33
0100
0010
0001
0200
0000
0320
0000
2030
,  // measure 34
0000
3001
1000
0000
0100
0001
1000
0000
,  // measure 35
0010
0001
0100
0001
1000
0100
0010
0001
,  // measure 36
2000
0000
0000
3001
0000
1000
0010
0100
,  // measure 37
0010
2000
0000
0000
3001
1000
0100
1000
,  // measure 38
0001
0000
0000
0100
0000
0001
0100
0001
,  // measure 39
0020
0000
0000
0130
0000
0010
0001
0100
,  // measure 40
0010
0000
0000
0010
0000
1000
0010
0100
,  // measure 41
0001
2000
0000
0000
0000
3001
1000
0100
,  // measure 42
1000
0000
0000
0100
0000
0010
0100
0010
,  // measure 43
0001
2000
0000
0000
0000
3010
1000
0001
,  // measure 44
0100
0000
0001
1000
0001
0010
0100
1000
,  // measure 45
0001
0200
0000
0000
0000
0310
0100
0010
,  // measure 46
1000
0000
0000
0000
0000
0001
1000
0100
,  // measure 47
1000
0000
0100
0010
0100
1000
0010
0100
,  // measure 48
0001
0000
1000
0001
1000
0100
1000
0010
,  // measure 49
0100
0020
0000
0000
0000
1030
0010
1000
,  // measure 50
0001
0000
0010
0100
0010
0001
0010
0100
,  // measure 51
0000
0110
0000
1001
0000
0101
0000
2010
,  // measure 52
0000
0000
3001
1000
0001
0000
0010
0000
,  // measure 53
0000
0001
0010
0001
1000
0000
1010
0000
,  // measure 54
0000
0010
0100
0001
0100
0010
1000
0001
,  // measure 55
0010
0001
0010
0100
1000
0001
1000
0020
,  // measure 56
0000
0000
0130
0010
0100
0000
0010
0000
,  // measure 57
0000
1000
0010
0100
0001
0000
1000
0000
,  // measure 58
0000
0100
1000
0100
0010
1000
0010
0001
,  // measure 59
0100
0010
1000
0001
1000
0000
0001
0020
,  // measure 60
0000
0000
0130
0010
0100
0000
1000
0100
,  // measure 61
0000
1000
0001
0100
0001
0000
0010
0000
,  // measure 62
0000
0100
0010
0100
1000
0010
0100
0010
,  // measure 63
1000
0100
0001
0100
1000
0010
0010
0200
,  // measure 64
0000
0000
0301
0100
0001
0000
0010
0100
,  // measure 65
0000
0110
0000
1100
0000
1001
0000
0101
,  // measure 66
0000
0001
0100
1000
0100
0010
1000
0001
,  // measure 67
0010
0100
1000
0001
0100
0000
0010
0000
,  // measure 68
0110
0000
0000
0000
;
