#TITLE:That's What I Like;
#SUBTITLE:;
#ARTIST:Bruno Mars;
#TITLETRANSLIT:;
#SUBTITLETRANSLIT:;
#ARTISTTRANSLIT:;
#GENRE:R&B;
#CREDIT:;
#BANNER:That's What I Like.png;
#BACKGROUND:;
#LYRICSPATH:;
#CDTITLE:;
#MUSIC:That's What I Like.ogg;
#OFFSET:-0.073000;
#SAMPLESTART:66.342003;
#SAMPLELENGTH:15.000000;
#SELECTABLE:YES;
#BPMS:0.000000=134.000000
;
#STOPS:
;
#BGCHANGES:;
#KEYSOUNDS:;
#ATTACKS:;

//---------------dance-single - ----------------
#NOTES:
     dance-single:
     :
     Beginner:
     2:
     0.095995,0.165864,0.204141,0.144600,0.000000,79.000000,55.000000,24.000000,17.000000,0.000000,0.000000,0.095995,0.165864,0.204141,0.144600,0.000000,79.000000,55.000000,24.000000,17.000000,0.000000,0.000000:
0000
0000
0000
0000
,
0000
0000
0000
0000
,
1000
0000
0000
0000
,
0100
0000
0000
0000
,
1000
0000
0000
0000
,
0100
0000
0000
0000
,
0010
0000
0000
0000
,
0001
0000
0000
0000
,
0010
0000
0000
0000
,
0001
0000
0000
0000
,
0100
0000
0000
0000
,
0010
0000
0000
0000
,
0100
0000
0000
0000
,
0010
0000
0000
0000
,
1000
0000
0000
0000
,
0001
0000
0000
0000
,
1000
0000
0000
0000
,
0001
0000
0000
0000
,
0010
0000
0000
0000
,
0010
0000
0000
0000
,
0100
0000
0000
0000
,
1000
0000
0000
0000
,
0010
0000
0000
0000
,
0010
0000
0000
0000
,
0100
0000
0000
0000
,
0001
0000
0000
0000
,
2002
0000
0000
3003
,
0000
0000
0000
0000
,
2002
0000
0000
3003
,
0000
0000
0000
0000
,
0110
0000
0000
0110
,
0000
0000
0000
0000
,
0110
0000
0000
0110
,
0000
0000
0000
0000
,
2002
0000
0000
3003
,
0000
0000
0000
0000
,
2002
0000
0000
3003
,
0000
0000
0000
0000
,
0110
0000
0000
0110
,
0000
0000
0000
0000
,
0110
0000
0000
0110
,
0000
0000
0000
0000
,
0020
0000
0000
0030
,
0000
0000
0000
0000
,
0010
0000
0000
0000
,
0010
0000
0000
0000
,
0100
0000
0000
0000
,
0100
0000
0000
0000
,
1000
0000
0000
0000
,
0001
0000
0000
0000
,
2002
0000
0000
3003
,
0000
0000
0000
0000
,
2002
0000
0000
3003
,
0000
0000
0000
0000
,
0110
0000
0000
0110
,
0000
0000
0000
0000
,
0110
0000
0000
0110
,
0000
0000
0000
0000
,
2002
0000
0000
3003
,
0000
0000
0000
0000
,
2002
0000
0000
3003
,
0000
0000
0000
0000
,
0110
0000
0000
0110
,
0000
0000
0000
0000
,
0110
0000
0000
0000
,
0110
0000
0000
0000
;

//---------------dance-single - ----------------
#NOTES:
     dance-single:
     :
     Easy:
     6:
     0.281909,0.332367,0.255176,0.102070,0.000000,232.000000,202.000000,30.000000,12.000000,0.000000,0.000000,0.281909,0.332367,0.255176,0.102070,0.000000,232.000000,202.000000,30.000000,12.000000,0.000000,0.000000:
0000
0000
0000
0000
,
0000
0000
0000
0000
,
1000
1000
0100
0000
,
1000
1000
0010
0000
,
0100
0100
0001
0000
,
0100
0100
0010
0000
,
0100
0001
1000
0000
,
0100
1000
0001
0000
,
0010
0001
1000
0000
,
0010
1000
0001
0000
,
0001
0001
0100
0000
,
0001
0001
0010
0000
,
0100
0100
0010
0000
,
0100
0100
1000
0000
,
0100
1000
0001
0000
,
0100
0001
1000
0000
,
0010
1000
0001
0000
,
0010
0001
1000
0000
,
0010
1000
0100
0001
,
0010
0010
0010
0000
,
0000
1000
0100
0001
,
0010
0010
0010
0000
,
1000
0020
0130
0010
,
2000
3001
0000
1000
,
0200
0000
0320
0030
,
0110
0110
0000
0000
1001
0000
0000
0000
,
1000
0100
0001
0101
,
0000
0100
0001
0100
,
0001
0100
1000
1100
,
0000
1000
0001
0100
,
0110
0000
0010
0110
,
0000
0100
0010
1000
,
1001
0000
0001
1001
,
0001
0010
0100
1000
,
0001
0010
1000
1010
,
0000
0010
1000
0010
,
1000
0010
0001
0011
,
0000
0001
0100
0010
,
0110
0000
0100
0110
,
0000
0100
0001
1000
,
0200
0000
0320
0000
,
0032
0000
2003
3010
,
1020
0000
0100
2030
,
0000
0000
0001
3010
,
1000
1000
0001
0010
,
0001
0001
1000
0010
,
0110
0100
0001
0000
,
0100
0100
0001
1000
,
0000
0001
0010
0100
,
0110
0110
0000
0000
1001
0000
0000
0000
,
1000
0100
0001
0101
,
0000
0100
0001
0100
,
0001
0100
1000
1100
,
0000
1000
0001
0100
,
0110
0000
0010
0110
,
0000
0100
0010
1000
,
1001
0000
0001
1001
,
0001
0010
0100
1000
,
0001
0010
1000
1010
,
0000
0010
1000
0010
,
1000
0010
0001
0011
,
0000
0001
0100
0010
,
0110
0000
0100
0110
,
0000
0100
0001
1000
,
0200
0000
0320
0030
,
0110
0110
0000
0000
0000
0000
0000
0000
;

//---------------dance-single - ----------------
#NOTES:
     dance-single:
     :
     Medium:
     9:
     0.364537,0.387761,0.059541,0.119082,0.017012,300.000000,293.000000,7.000000,14.000000,0.000000,0.000000,0.364537,0.387761,0.059541,0.119082,0.017012,300.000000,293.000000,7.000000,14.000000,0.000000,0.000000:
0000
0000
0000
0000
,
0000
0000
0000
0000
0000
0001
1000
0000
,
0010
0000
0010
0000
0100
0001
0000
0000
,
0010
0000
0010
0000
0100
1000
0000
0000
,
0010
0000
0100
0000
0001
1000
0000
0000
,
0100
0000
0010
0000
0001
1000
0000
0000
,
0010
1000
0010
0000
0100
0000
0100
0000
,
0010
1000
0010
0000
0100
0000
0001
0000
,
0010
0001
0010
0000
0100
0000
0100
0000
,
0010
0001
0010
0000
0100
0000
1000
0000
,
0010
0000
0010
0000
0100
0001
0000
0000
,
0010
0000
0010
0000
0100
1000
0000
0000
,
0010
0000
0010
0000
1000
0001
0000
0000
,
0010
0000
0010
0000
0001
1000
0000
0000
,
0100
1000
0100
0000
0010
0000
0010
0000
,
0100
1000
0100
0000
0010
0000
0001
0000
,
0100
0001
0100
0000
0010
0000
0010
0000
,
0100
0001
0100
0000
0010
0000
1000
0000
,
0001
0000
0001
0000
0010
0100
1000
0000
,
0001
1000
0001
1000
0001
0000
1000
0000
,
0000
0010
1000
0100
,
0010
0100
0010
0100
0010
0000
0001
0000
,
1000
0010
1000
0000
0001
0000
0001
0000
,
1000
0010
2000
0000
0000
0000
3001
0000
,
1000
0000
0100
0000
0001
0000
0100
0000
1000
0000
0001
0000
,
1000
1000
0010
0000
0110
0000
0100
0000
,
0001
0010
0100
1000
,
0000
0001
0010
0100
,
1000
0000
0010
0000
0100
0001
0100
0000
,
0000
0001
1000
0000
0100
0010
0100
0000
,
1000
0000
0000
0100
0010
0100
0010
0000
,
0000
0001
1000
0000
0001
0000
0100
0010
,
0100
0000
0000
0010
0100
0010
0100
0000
,
0010
2000
3002
0103
,
0101
0001
0010
0100
,
0000
0010
0100
1000
,
0010
0000
0100
0000
0001
1000
0001
0000
,
0000
0010
0100
0000
0010
0001
0010
0000
,
0001
0000
0000
1000
0010
1000
0010
0000
,
0000
1000
0001
0000
0010
0100
0010
0000
,
0002
0013
2000
3010
,
0002
0000
0103
0000
0001
0010
0100
1000
,
0002
0000
0100
2003
,
0000
0000
0000
0000
3100
1000
0010
0100
,
0001
1000
0001
0000
1000
0000
1000
0000
,
0001
1000
0001
0000
1000
0000
1000
0000
,
0000
0000
0001
0010
0001
0010
0000
0000
,
0100
1000
0100
1000
0001
0000
0100
0000
,
0000
0000
0010
0100
0010
0100
0010
0000
,
0110
0110
0200
0000
0302
0000
1003
0000
,
0001
0010
0100
1000
,
0000
0001
0010
0100
,
1000
0000
0010
0000
0100
0001
0100
0000
,
0000
0001
1000
0000
0100
0010
0100
0000
,
1000
0000
0000
0100
0010
0100
0010
0000
,
0000
0001
1000
0000
0001
0000
0100
0010
,
0100
0000
0000
0010
0100
0010
0100
0000
,
0010
2000
3002
0103
,
0101
0001
0010
0100
,
0000
0010
0100
1000
,
0010
0000
0100
0000
0001
1000
0001
0000
,
0000
0010
0100
0000
0010
0001
0010
0000
,
0001
0000
0000
1000
0010
1000
0010
0000
,
0000
1000
0001
0000
0010
0100
0010
0000
,
0002
0013
2000
3010
,
1010
1010
0000
0000
0000
0000
0000
0000
;

//---------------dance-single - ----------------
#NOTES:
     dance-single:
     :
     Hard:
     13:
     0.611207,0.664733,0.314717,0.221152,0.216899,503.000000,466.000000,37.000000,26.000000,0.000000,0.000000,0.611207,0.664733,0.314717,0.221152,0.216899,503.000000,466.000000,37.000000,26.000000,0.000000,0.000000:
// measure 0
0000
0000
0000
0000
,  // measure 1
0000
0000
0000
0000
0000
0001
0010
0100
,  // measure 2
1000
1000
0010
0001
0010
0100
0001
0000
,  // measure 3
1000
0100
0001
0100
1000
1000
0001
0000
,  // measure 4
0100
0001
0100
0000
0010
0000
1000
0000
0001
0000
0010
0000
0100
0000
0010
0000
,  // measure 5
0010
0001
0100
1000
0001
0010
1000
0100
,  // measure 6
0001
0001
0100
1000
0001
0000
0101
0000
,  // measure 7
0001
0000
0100
0000
1000
0000
0001
0000
0000
0000
0010
0001
0010
0000
1000
0000
,  // measure 8
0001
0010
1000
0010
0001
0000
1001
0000
,  // measure 9
0001
1000
0100
0010
0000
0100
1000
1000
,  // measure 10
0010
0100
0001
0010
1000
0010
0200
1300
,  // measure 11
0100
0100
0010
0001
0100
0010
1000
0000
,  // measure 12
0001
0001
0010
0001
0100
0010
0001
0001
,  // measure 13
0010
0100
0010
0000
1000
0000
0100
0000
0001
0000
0100
0000
1000
0000
0001
0000
,  // measure 14
0100
0100
0010
1000
0010
1000
0100
0000
,  // measure 15
0010
0010
0001
0100
0010
0010
1000
0001
,  // measure 16
0010
0010
0100
1000
0001
0100
0001
0001
,  // measure 17
0010
1000
0001
0100
1000
0001
0100
0000
,  // measure 18
0101
0000
0001
0001
1000
1000
0100
0000
,  // measure 19
0010
0010
0100
0100
2000
0000
0010
3001
,  // measure 20
1001
0000
0001
0001
0100
0100
0010
0000
,  // measure 21
0100
0100
0001
0001
2000
0000
0100
3001
,  // measure 22
1000
0100
0001
0100
1000
1000
0001
0100
,  // measure 23
1000
0100
0002
0000
1000
0000
0013
0001
,  // measure 24
0100
0000
0010
0000
1000
0000
0100
0000
0010
0000
0001
0100
,  // measure 25
0110
0000
0110
0000
0020
0000
0000
1030
0010
0000
0000
0000
1000
0000
0000
0000
,  // measure 26
0021
0100
1030
1010
,  // measure 27
0000
0000
0000
0000
0010
0000
0000
0000
0011
0000
0000
0000
0001
1000
0000
0000
,  // measure 28
1020
0000
0100
0000
0031
0010
1000
0000
,  // measure 29
0001
1000
1000
0100
0001
0100
0010
0010
,  // measure 30
0001
0000
0100
0010
0010
1000
0001
0000
,  // measure 31
0010
0100
0100
1000
1001
0001
0100
0010
,  // measure 32
1000
0000
1000
0100
0010
0100
0110
0000
,  // measure 33
0010
0000
0000
0000
0001
0000
0000
0000
0010
0000
0000
0000
0001
0000
0000
0000
0100
0000
0000
0000
0001
0000
0000
0000
0100
0000
0000
0010
0000
0000
0000
0000
0000
0000
0000
0000
0100
0000
0000
0010
0000
0000
0000
0000
0000
0000
0000
0000
,  // measure 34
0100
0100
0001
1000
1100
0100
0101
0000
,  // measure 35
0100
1000
0001
0100
0010
1000
0100
0010
,  // measure 36
0001
0001
1000
0010
1020
0001
1030
0000
,  // measure 37
0010
1000
1000
0001
0010
0100
1000
0010
,  // measure 38
1010
0000
0010
1000
0100
0010
0011
0000
,  // measure 39
0001
1000
1000
0010
0010
0100
0002
0013
,  // measure 40
0012
0000
1000
0100
2003
0000
0010
0001
,  // measure 41
3020
0000
0031
0010
1000
0100
0001
1000
,  // measure 42
0020
0000
0000
0000
0130
0010
0002
0000
,  // measure 43
1000
0000
0000
0000
0103
0000
0000
0000
0001
0010
0001
0000
0100
0000
0010
0000
,  // measure 44
1000
0100
0001
0000
0101
0000
1100
0000
,  // measure 45
1000
0010
0001
0000
0011
0000
1010
0000
,  // measure 46
1001
0000
0001
0010
0100
1000
1001
0000
,  // measure 47
1000
0010
0100
0010
2000
0000
3100
0000
,  // measure 48
1200
0000
0010
0301
0100
1000
0001
0000
,  // measure 49
1001
0000
0000
1001
0000
0000
0001
0000
0100
0000
0010
0000
2010
0000
0000
0000
0000
0000
3001
0000
0000
0000
0000
0000
,  // measure 50
1000
0000
0000
0100
0000
0000
0010
0000
0000
0001
0000
0000
0100
0000
0000
0000
0000
0000
0100
0000
0000
0000
0000
0000
0020
0000
0000
0000
0000
0000
0000
0000
0000
0000
0000
0000
1030
0000
0000
0000
0010
0000
0000
0000
0100
0000
0000
0000
,  // measure 51
0010
1000
0000
1000
0001
0000
0010
0000
0100
0000
0000
0000
1000
0000
0000
0000
,  // measure 52
0100
1000
0010
0000
0100
0000
0001
0000
1000
0000
0000
0000
1002
0000
0000
0000
,  // measure 53
0013
0002
0103
0001
0010
0010
0100
1000
,  // measure 54
0010
0000
0000
0000
2010
0000
0000
0000
3001
0000
1000
0001
0010
0100
0000
0100
,  // measure 55
0010
0001
0010
0000
0001
0000
0100
0000
1000
0000
0100
0000
0001
0000
1000
0000
,  // measure 56
1001
0000
0102
1003
0001
0010
0210
1300
,  // measure 57
0100
0000
0000
0000
0010
0000
0000
0000
0100
0000
0000
0000
1000
0000
0000
0000
0001
0000
0000
0000
1000
0000
0000
0000
0001
0000
0000
0010
0000
0000
0000
0000
0000
0000
0000
0000
0001
0000
0000
0010
0000
0000
0000
0000
0000
0000
0000
0000
,  // measure 58
0001
0100
1000
0100
0001
1000
0100
0001
,  // measure 59
0200
0000
0310
0100
1000
0010
0100
0010
0100
0000
0100
0000
0101
0000
0001
0000
,  // measure 60
1000
0000
0100
0000
0010
0000
0100
0000
1000
0000
0010
0100
0001
0000
0100
0010
,  // measure 61
1000
0100
0010
0001
0200
0000
0010
0000
0310
0000
0100
0010
1000
0000
0100
0000
,  // measure 62
0001
0000
0000
0000
0201
0000
1000
0000
1300
0000
0100
1000
0010
0000
0100
0001
,  // measure 63
0010
0001
0010
0000
0100
0000
0100
0000
0010
0000
0001
0000
1000
0000
0010
0000
,  // measure 64
0100
0000
0010
0100
0000
0010
0100
0000
0010
0000
1000
0001
0000
1000
0001
0000
,  // measure 65
1001
1001
0000
0000
0000
0000
0000
0000
;
