#VERSION:0.81;
#TITLE:Sing;
#SUBTITLE:;
#ARTIST:Ed Sheeran;
#TITLETRANSLIT:;
#SUBTITLETRANSLIT:;
#ARTISTTRANSLIT:;
#GENRE:Acoustic Pop;
#ORIGIN:;
#CREDIT:;
#BANNER:Sing.png;
#BACKGROUND:Sing-bg.png;
#PREVIEWVID:;
#JACKET:Sing-jacket.png;
#CDIMAGE:;
#DISCIMAGE:;
#LYRICSPATH:;
#CDTITLE:;
#MUSIC:Sing.mp3;
#OFFSET:-0.069660;
#SAMPLESTART:71.500107;
#SAMPLELENGTH:15.000000;
#SELECTABLE:YES;
#BPMS:0.000=120.000;
#STOPS:;
#DELAYS:;
#WARPS:;
#TIMESIGNATURES:0.000=4=4;
#TICKCOUNTS:0.000=4;
#COMBOS:0.000=1;
#SPEEDS:0.000=1.000=0.000=0;
#SCROLLS:0.000=1.000;
#FAKES:;
#LABELS:0.000=Song Start;
#BGCHANGES:-0.500=Sing.avi=1.000=0=0=0=StretchNoLoop====,
99999=-nosongbg-=1.000=0=0=0 // don't automatically add -songbackground-
;
#KEYSOUNDS:;
#ATTACKS:
;

//---------------dance-single - ----------------
#NOTEDATA:;
#CHARTNAME:;
#STEPSTYPE:dance-single;
#DESCRIPTION:;
#CHARTSTYLE:;
#DIFFICULTY:Beginner;
#METER:1;
#RADARVALUES:0.090347,0.123971,0.009582,0.000000,0.000000,65.000000,1.000000,0.000000,0.000000,0.000000,0.000000,0.000000,0.000000,0.090347,0.123971,0.009582,0.000000,0.000000,65.000000,1.000000,0.000000,0.000000,0.000000,0.000000,0.000000,0.000000;
#CREDIT:;
#NOTES:
0000
0000
0000
0000
,
0000
0000
0000
0000
,
0000
0000
0000
0000
,
0000
0000
0000
0000
,
1000
0000
1000
0000
,
1000
0000
0000
0000
,
0001
0000
0001
0000
,
0001
0000
0000
0000
,
0100
0000
0100
0000
,
0100
0000
0000
0000
,
0010
0000
0010
0000
,
0010
0000
0000
0000
,
1000
0000
1000
0000
,
0100
0000
0000
0000
,
0010
0000
0010
0000
,
0001
0000
0000
0000
,
0100
0000
0100
0000
,
0010
0000
0000
0000
,
1000
0000
1000
0000
,
0001
0000
0000
0000
,
0010
0000
0000
0000
,
0100
0000
0000
0000
,
1000
0000
0000
0000
,
0001
0000
0000
0000
,
0100
0000
0000
0000
,
0000
0000
0000
0000
,
0010
0000
0000
0000
,
0000
0000
0000
0000
,
1000
0000
0000
0000
,
0100
0000
0000
0000
,
0010
0000
0000
0000
,
0001
0000
0000
0000
,
0100
0000
0000
0000
,
0000
0000
0000
0000
,
0010
0000
0000
0000
,
0000
0000
0000
0000
,
1000
0000
1000
0000
,
1000
0000
1000
0000
,
0001
0000
0001
0000
,
0001
0000
0001
0000
,
0100
0000
0100
0000
,
0100
0000
0100
0000
,
0010
0000
0010
0000
,
0010
0000
0010
0000
,
1000
0000
1000
0000
,
0100
0000
0000
0000
,
0010
0000
0010
0000
,
0001
0000
0000
0000
,
0100
0000
0100
0000
,
0010
0000
0000
0000
,
1000
0000
1000
0000
,
0001
0000
0000
1001
;

//---------------dance-single - ----------------
#NOTEDATA:;
#CHARTNAME:;
#STEPSTYPE:dance-single;
#DESCRIPTION:;
#CHARTSTYLE:;
#DIFFICULTY:Easy;
#METER:6;
#RADARVALUES:0.188908,0.223148,0.057494,0.000000,0.000000,132.000000,6.000000,0.000000,0.000000,0.000000,0.000000,0.000000,0.000000,0.188908,0.223148,0.057494,0.000000,0.000000,132.000000,6.000000,0.000000,0.000000,0.000000,0.000000,0.000000,0.000000;
#CREDIT:;
#NOTES:
0000
0000
0000
0000
,
0000
0000
0000
0000
,
0000
0000
0000
0000
,
0000
0000
0000
0000
,
1000
0000
1000
0001
,
0100
0000
0010
0100
,
0001
0000
1000
0100
,
0010
0000
0000
0001
,
0100
0010
0100
0000
,
0001
1000
0100
0000
,
0010
0100
1000
0000
,
0010
0000
0010
0000
,
1000
1000
0100
0100
,
0010
0000
0001
0001
,
0100
0000
0001
0001
,
0010
0001
0100
0000
,
0010
0010
0100
0100
,
0001
0000
1000
0100
,
0010
0000
0010
0001
,
0100
0010
0010
0000
,
1000
0000
1000
0000
,
0001
0000
0001
0000
,
0100
0000
0100
0000
,
0010
0000
0010
0000
,
1000
0000
0000
0000
,
0001
0000
0000
0000
,
0100
0000
0000
0000
,
0010
0000
0000
0000
,
1000
0000
1000
0000
,
0100
0000
0100
0000
,
0010
0000
0010
0000
,
0001
0000
0001
0000
,
0100
0000
0000
0000
,
0100
0000
0000
0000
,
0010
0000
0000
0000
,
0010
0000
0000
1001
,
1000
0100
1000
0100
,
0010
0001
0010
0000
,
0001
0100
0001
0100
,
0010
0100
0010
1001
,
1000
0100
1000
0010
,
0100
0001
0010
0011
,
0010
0001
0100
0010
,
1000
0100
0010
0110
,
0010
0100
1000
0100
,
0001
0100
1000
0000
,
0001
0100
0010
0100
,
1000
0100
0001
1001
,
1000
0100
0010
0000
,
0010
0001
0100
0000
,
0100
0001
0010
0000
,
0010
0100
1000
1001
;

//---------------dance-single - ----------------
#NOTEDATA:;
#CHARTNAME:;
#STEPSTYPE:dance-single;
#DESCRIPTION:;
#CHARTSTYLE:;
#DIFFICULTY:Medium;
#METER:8;
#RADARVALUES:0.309372,0.297531,0.047912,0.076658,0.000000,213.000000,5.000000,8.000000,0.000000,0.000000,0.000000,0.000000,0.000000,0.309372,0.297531,0.047912,0.076658,0.000000,213.000000,5.000000,8.000000,0.000000,0.000000,0.000000,0.000000,0.000000;
#CREDIT:;
#NOTES:
0000
0000
0000
0000
,
0000
0000
0000
0000
,
0000
0000
0000
0000
,
0000
0000
0000
0000
,
1000
0100
0010
0100
,
1000
0000
0001
0001
0001
0000
0000
0000
,
0001
0100
0010
0100
,
0001
0000
1000
1000
1000
0000
0000
0000
,
0001
0010
0100
0000
,
1000
0100
0010
0000
,
0001
0001
1000
1000
,
0010
0000
0010
0100
0100
0000
0000
0000
,
0002
0023
0230
2300
,
3100
0000
0010
0100
,
1000
1000
0001
0000
0100
0000
0010
0000
,
0100
0000
0001
0001
0010
0000
0000
0000
,
0002
0203
0320
0230
,
0301
0000
0000
0000
1000
0000
0100
0100
,
0010
0000
0000
0000
0100
0100
1000
0000
,
0010
0000
0100
0000
0001
0000
0000
1000
,
0100
0000
0100
1000
0000
1000
0010
0100
,
0001
0000
0100
0001
0000
0000
0001
0010
,
0100
0000
0100
1000
0000
1000
0100
0010
,
0001
0000
0100
0010
0000
0010
0100
0001
,
1000
1000
0001
0001
,
0100
0100
0010
0010
,
1000
1000
0100
0100
,
0010
0010
0001
0001
,
1000
0000
0010
0100
0000
0100
0001
0100
,
0010
0000
0010
1000
0000
0000
1000
0001
,
0010
0000
0010
0100
0000
0100
0010
0001
,
0100
0000
0100
0010
0000
0010
0100
0001
,
1000
1000
0001
0001
,
0100
0100
0010
0010
,
0100
0001
0010
0100
,
1000
0100
0010
1001
,
0001
0000
0100
0000
0010
0000
0100
0001
,
0010
0100
1000
0000
,
0001
0000
1000
0000
0010
0000
0100
0010
,
1000
0100
0010
1001
,
0001
0000
1000
0000
0100
0000
0100
0010
,
0001
0100
0010
1010
,
0010
0000
0100
0000
0001
0000
0001
0010
,
0100
1000
0001
1001
,
0001
0000
1000
0100
0000
0100
1000
0001
,
1000
0000
0001
0010
0000
0000
0001
1000
,
0010
0000
1000
0010
0000
0010
0100
0010
,
0100
0000
0001
0100
0000
0100
0001
0000
,
0010
0100
1000
0010
,
0100
0001
0100
0010
,
1000
1000
0001
0001
,
0010
0100
1000
1001
;

//---------------dance-single - ----------------
#NOTEDATA:;
#CHARTNAME:;
#STEPSTYPE:dance-single;
#DESCRIPTION:;
#CHARTSTYLE:;
#DIFFICULTY:Hard;
#METER:11;
#RADARVALUES:0.422990,0.396708,0.095823,0.000000,0.186855,299.000000,10.000000,0.000000,0.000000,0.000000,0.000000,0.000000,0.000000,0.422990,0.396708,0.095823,0.000000,0.186855,299.000000,10.000000,0.000000,0.000000,0.000000,0.000000,0.000000,0.000000;
#CREDIT:;
#NOTES:
0000
0000
0000
0000
,
0000
0000
0000
0000
,
0000
0000
0000
0000
,
0000
0000
0000
0000
,
1000
0000
0100
0000
0010
0000
0001
0000
0100
0000
0000
0000
0010
0000
0000
1000
,
0000
1000
0000
0000
0100
0000
1000
0000
0010
0000
0000
0000
1001
0000
0000
0000
,
0001
0000
0100
0000
0010
0000
0100
0000
0001
0000
0000
0000
0010
0000
0000
0100
,
0000
0100
0000
0000
0001
0000
0100
0000
1000
0000
0000
0000
1001
0000
0000
0000
,
0001
0000
1000
0000
0010
0000
0100
0000
0010
0000
0000
0000
0100
0000
0000
0001
,
0000
0010
0000
0000
0100
0000
1000
0000
0010
0000
0000
0000
0101
0000
0000
0000
,
0001
0000
0010
0000
0100
0000
1000
0000
0010
0000
0000
0000
0100
0000
0000
0001
,
0000
0010
0000
0000
0100
0000
1000
0000
0010
0000
0000
0000
1100
0000
0000
0000
,
0001
0001
1000
1000
0100
0100
1000
1000
,
0001
0100
0010
1000
0100
0100
0010
0000
,
0010
0100
1000
0100
0001
0100
1000
0001
,
0100
1000
0100
0001
1000
0000
1000
0001
,
1000
1000
0010
0010
0100
0100
0001
0001
,
0010
0100
1000
0100
0001
0100
1000
0000
,
0001
0100
0010
0100
0001
0010
0100
1000
,
0100
0010
0010
0000
,
0001
0000
0000
0000
1000
0000
0000
0100
0000
0100
0000
0000
1000
0000
0000
0000
,
0001
0000
0000
0000
1000
0000
0000
0010
0000
0010
0000
0000
1000
0000
0000
0000
,
0001
0000
0000
0000
0010
0000
0000
0100
0000
0100
0000
0000
1000
0000
0000
0000
,
0001
0000
0000
0000
0100
0000
0000
0010
0000
0010
0000
0000
1000
0000
0000
0000
,
0001
0000
0000
0001
0010
0000
0000
0100
0000
0000
0000
0000
1000
0000
0000
0000
,
0010
0000
0000
0010
0100
0000
0000
0001
0000
0000
0000
0000
1000
0000
0000
0000
,
0100
0000
0000
0100
0010
0000
0000
0100
0000
0000
0000
0000
1000
0000
0000
0000
,
0001
0000
0000
0001
0100
0000
0000
0010
0000
0000
0000
0000
0100
0000
0000
0000
,
0001
0000
0000
0000
0010
0000
0000
0100
0000
1000
0000
0000
0001
0000
0000
0000
,
0100
0000
0000
0000
0010
0000
0000
0100
0000
0001
0000
0000
1000
0000
0000
0000
,
0100
0000
0000
0000
1000
0000
0000
0010
0000
0100
0000
0000
0001
0000
0000
0000
,
0010
0000
0000
0000
0100
0000
0000
0010
0000
0001
0000
0000
1000
0000
0000
0000
,
0010
0000
0000
0010
0100
0000
0000
0001
0000
0000
0000
0000
0010
0000
0000
0000
,
0100
0000
0000
0100
1000
0000
0000
0100
0000
0000
0000
0000
0001
0000
0000
0000
,
0100
0000
0000
0100
1000
0000
0000
0010
0000
0000
0000
0000
0100
0000
0000
0000
,
0001
0000
0000
0001
0010
0000
0000
0000
0100
0000
0000
0000
1001
0000
0000
0000
,
0001
0010
1000
0001
0100
1000
0010
0100
,
0001
0100
1000
0100
0001
0000
1000
0000
,
0001
0010
0100
1000
0010
0100
1000
0100
,
0001
0010
0100
1000
0100
0000
1001
0000
,
1000
0100
0001
0100
1000
0010
0100
0001
,
0010
0100
1000
0100
0010
0000
1001
0000
,
0001
1000
0010
0100
0001
0010
0100
0001
,
0100
1000
0010
0100
0010
0000
1001
0000
,
0001
1000
0100
1000
0010
0100
0001
0010
,
0100
1000
0100
0010
0001
0000
0001
1000
,
0010
0100
1000
0100
0001
0010
0100
0001
,
0100
1000
0001
0100
0010
0000
1010
1000
,
0100
0010
0100
1000
0010
0100
0001
0100
,
0010
1000
0100
0010
0100
0000
0100
0010
,
0001
0100
1000
0100
0001
1000
0100
0001
,
0100
1000
0010
0100
0010
0000
1001
0000
;

//---------------dance-single - ----------------
#NOTEDATA:;
#CHARTNAME:;
#STEPSTYPE:dance-single;
#DESCRIPTION:;
#CHARTSTYLE:;
#DIFFICULTY:Challenge;
#METER:14;
#RADARVALUES:0.537978,0.471090,0.076658,0.000000,0.579730,385.000000,8.000000,0.000000,0.000000,0.000000,0.000000,0.000000,0.000000,0.537978,0.471090,0.076658,0.000000,0.579730,385.000000,8.000000,0.000000,0.000000,0.000000,0.000000,0.000000,0.000000;
#CREDIT:;
#NOTES:
// measure 0
0000
0000
0000
0000
,  // measure 1
0000
0000
0000
0000
,  // measure 2
0000
0000
0000
0000
,  // measure 3
0000
0000
0000
0000
,  // measure 4
1000
0000
0100
0000
0010
0000
0001
0000
0100
0000
0000
0000
0010
0000
0000
0100
,  // measure 5
0000
0001
0000
0010
0100
0000
1000
0000
0001
0000
0000
0000
1000
0000
0000
0000
,  // measure 6
0010
0000
0100
0000
0001
0000
0010
0000
0100
0000
0000
0000
0001
0000
0000
0100
,  // measure 7
0000
1000
0000
0001
0100
0000
0010
0000
0100
0000
0000
0000
0001
0000
0000
0000
,  // measure 8
0010
0000
0001
0000
0100
0000
0010
0000
1000
0000
0000
0000
0100
0000
0000
1000
,  // measure 9
0000
0010
0000
0100
0001
0000
0100
0000
0010
0000
0000
0000
1000
0000
0000
0000
,  // measure 10
0001
0000
0100
0000
0001
0000
0010
0000
0100
0000
0000
0000
1000
0000
0000
0001
,  // measure 11
0000
1000
0000
0010
1000
0000
0100
0000
0010
0000
0000
0000
1001
0000
0000
0000
,  // measure 12
0001
0000
0001
0000
0100
0000
0100
0000
0010
0000
0010
0000
1000
0000
1000
0100
,  // measure 13
0000
0100
0000
1000
0010
0000
0010
0000
0100
0000
0100
0000
0001
0000
0000
0000
,  // measure 14
0010
0000
0010
0000
0001
0000
0001
0000
0100
0000
0100
0000
0010
0000
0100
0001
,  // measure 15
0000
0001
0000
0100
0010
0000
0010
0000
1000
0000
1000
0000
0001
0000
0000
0000
,  // measure 16
1000
0000
0100
0000
0010
0000
0100
0000
1000
0000
0001
0000
0100
0000
0010
0001
,  // measure 17
0000
0010
0000
0100
0001
0000
0010
0000
0100
0000
1000
0000
0001
0000
0000
0000
,  // measure 18
1000
0000
0010
0000
0100
0000
1000
0000
0100
0000
0001
0000
0010
0000
0100
0001
,  // measure 19
0000
0100
0000
1000
0001
0000
0100
0000
0010
0000
0000
0000
1001
0000
0000
0000
,  // measure 20
0001
0000
0000
1000
0010
0000
1000
0100
0000
0010
0000
0010
0100
0000
0000
0100
,  // measure 21
1000
0000
0000
1000
0001
0000
0001
0100
0000
0010
0000
0010
0100
0000
0000
0100
,  // measure 22
0001
0000
0000
0001
0010
0000
0010
0100
0000
0100
0000
1000
0001
0000
0000
0001
,  // measure 23
1000
0000
0000
1000
0010
0000
0010
0100
0000
0100
0000
0001
0010
0000
0000
0001
,  // measure 24
0100
0000
0000
0100
0010
0000
0010
1000
0000
1000
0000
0100
1000
0000
0000
0001
,  // measure 25
0100
0000
0000
0010
0100
0000
0001
0010
0000
0010
0000
0001
1000
0000
0000
1000
,  // measure 26
0100
0000
0000
0100
0010
0000
0010
0100
0000
0100
0000
1000
0001
0000
0000
0001
,  // measure 27
0100
0000
0000
0100
0010
0000
0010
0100
0000
0100
0000
0001
1000
0000
0000
0000
,  // measure 28
1001
0000
0000
0001
0010
0000
0100
1000
0000
0010
0000
0100
1000
0000
0000
0100
,  // measure 29
0001
0000
0000
0010
0100
0000
0001
0100
0000
1000
0000
0001
1000
0000
0000
0010
,  // measure 30
0100
0000
0000
0001
1000
0000
0100
1000
0000
0010
0000
0100
0001
0000
0000
0010
,  // measure 31
0100
0000
0000
1000
0100
0000
0001
0100
0000
1000
0000
0001
0100
0000
0000
0010
,  // measure 32
1000
0000
0000
1000
0100
0000
0010
0100
0000
1000
0000
0001
0100
0000
0000
0010
,  // measure 33
0100
0000
0000
1000
0100
0000
0001
0010
0000
0100
0000
1000
0100
0000
0000
0001
,  // measure 34
0100
0000
0000
1000
0001
0000
0100
0010
0000
0001
0000
0010
1000
0000
0000
0001
,  // measure 35
0010
0000
0000
0100
1000
0000
0001
0100
0010
0000
0100
0000
1001
0000
0000
0000
,  // measure 36
0001
0000
0010
0000
0100
0000
1000
0010
0000
0010
0100
0000
1000
0000
0100
0000
,  // measure 37
0001
0010
0100
1000
0001
0000
0001
0000
,  // measure 38
1000
0000
0010
0000
0100
0000
0001
0010
0000
0010
0100
0000
0001
0000
0100
0000
,  // measure 39
1000
0001
0100
0010
0100
0000
1001
0000
,  // measure 40
1000
0000
0010
0000
0100
0000
0001
0010
0000
0010
0100
0000
0001
0000
0100
0000
,  // measure 41
1000
0001
0100
0010
0100
0000
1010
0000
,  // measure 42
0010
0000
0100
0000
0001
0000
0010
0100
0000
0100
0001
0000
0100
0000
1000
0000
,  // measure 43
0001
0100
1000
0100
0001
0000
0101
0000
,  // measure 44
0001
0000
0010
0000
0100
0000
1000
0100
0000
0001
0100
0000
1000
0000
0001
0000
,  // measure 45
0100
0010
0100
0001
0010
0000
0001
1000
,  // measure 46
0010
0000
0100
0000
1000
0000
0100
0001
0000
0010
0100
0000
0001
0000
0100
0000
,  // measure 47
1000
0000
0001
0000
0100
0000
0010
0000
1000
0000
0001
0000
0010
0100
1000
0000
,  // measure 48
0100
0000
0010
0000
0001
0000
0100
0010
0000
0100
0001
0000
0010
0000
0100
0000
,  // measure 49
1000
0000
0010
0000
0001
0000
0010
0000
1000
0000
0001
0000
0100
0010
0100
0000
,  // measure 50
0001
0000
0010
0000
0100
0000
0001
0000
0100
1000
0000
1000
0001
0000
0100
1000
,  // measure 51
0000
1000
0000
0100
0001
0000
0010
0000
0100
0000
0000
0000
1001
0000
0000
0000
;
