#VERSION:0.81;
#TITLE:Shake it Off;
#SUBTITLE:;
#ARTIST:Taylor Swift;
#TITLETRANSLIT:;
#SUBTITLETRANSLIT:;
#ARTISTTRANSLIT:;
#GENRE:Pop;
#ORIGIN:;
#CREDIT:;
#BANNER:Shake it Off.png;
#BACKGROUND:Shake it Off-bg.png;
#PREVIEWVID:;
#JACKET:Shake it Off-jacket.png;
#CDIMAGE:;
#DISCIMAGE:;
#LYRICSPATH:;
#CDTITLE:;
#MUSIC:Shake it Off.mp3;
#OFFSET:-0.094021;
#SAMPLESTART:48.060001;
#SAMPLELENGTH:15.000000;
#SELECTABLE:YES;
#BPMS:0.000=160.000;
#STOPS:208.000=1.500;
#DELAYS:;
#WARPS:;
#TIMESIGNATURES:0.000=4=4;
#TICKCOUNTS:0.000=4;
#COMBOS:0.000=1;
#SPEEDS:0.000=1.000=0.000=0;
#SCROLLS:0.000=1.000;
#FAKES:;
#LABELS:0.000=Song Start;
#BGCHANGES:-0.750=Shake it Off.avi=1.000=0=0=0=StretchNoLoop====,
99999=-nosongbg-=1.000=0=0=0 // don't automatically add -songbackground-
;
#KEYSOUNDS:;
#ATTACKS:
;

//---------------dance-single - ----------------
#NOTEDATA:;
#CHARTNAME:;
#STEPSTYPE:dance-single;
#DESCRIPTION:;
#CHARTSTYLE:;
#DIFFICULTY:Hard;
#METER:13;
#RADARVALUES:0.669356,0.587775,0.759399,0.410076,0.030376,463.000000,100.000000,54.000000,0.000000,0.000000,0.000000,0.000000,0.000000,0.669356,0.587775,0.759399,0.410076,0.030376,463.000000,100.000000,54.000000,0.000000,0.000000,0.000000,0.000000,0.000000;
#CREDIT:;
#NOTES:
0000
0000
0000
0000
,
0000
0000
0000
0000
,
0000
0000
0000
0000
,
0000
0000
0000
0000
0001
0010
0100
1000
,
0002
0100
0103
0000
0110
0000
0010
0100
,
0110
0000
0110
1000
0001
0010
1000
0010
,
0002
1000
1003
0000
1001
0000
0001
1000
,
1001
0000
1001
0000
0001
0010
0100
1000
,
0020
0100
0130
0000
0101
0000
0002
0000
,
2003
0000
3000
0000
1000
0100
0010
0001
,
2000
0010
3010
0000
0110
0000
0101
0000
,
1001
0200
0320
2030
,
3020
1000
1030
0000
1100
0000
0100
0010
,
0012
0103
2010
3100
,
0020
0001
0031
0000
1001
0000
0100
0010
,
2010
3100
0012
0103
,
0020
1000
1030
0000
1001
0000
0010
0001
,
0100
0000
1010
0000
0101
0000
1100
0100
,
0010
0000
0001
1000
0010
1000
0000
0200
,
0000
0010
0010
0310
,
0001
0100
1000
0100
0001
0000
0101
0000
,
1000
1100
0001
0011
,
1000
0010
0001
0010
1000
0000
1010
0000
,
0001
0011
1000
1100
,
0001
0010
1000
0010
0001
0000
0101
0000
,
1000
1100
0001
0011
,
1000
0100
0002
0000
0103
1000
0001
0100
,
2000
0000
3100
0002
0000
2003
0000
3000
,
0100
1000
0100
0001
0100
0000
0011
0000
,
0100
1010
0100
0011
,
0010
1000
0010
0001
0010
0000
1100
0000
,
0010
0101
0010
1100
,
0010
0001
0010
1000
0010
0000
1100
0000
,
0010
0101
0010
1100
,
0001
0010
2000
0000
3010
0001
1000
0010
,
0002
0000
0013
2000
0000
3002
0000
1003
,
0100
0000
0001
0100
0000
0000
1000
0001
,
0100
0000
1000
0100
0000
0100
0001
0000
,
1000
0000
0100
0001
0000
0000
0100
1000
,
0001
0000
0010
1000
0000
0010
0001
0100
,
1000
0000
0100
0001
0000
0000
1000
0100
,
0001
0000
0100
1000
0000
0001
0100
0000
,
0120
1030
2100
3001
,
1001
0000
0001
0010
0001
0100
0001
0000
,
2001
0000
3002
0000
0203
0000
0310
1000
,
0001
0000
2000
0000
3200
0000
0310
0001
,
2000
3020
0130
0101
,
1000
0100
1000
0100
1000
0010
0100
0001
,
0010
0001
0100
0001
0010
0000
0100
1000
,
0001
0100
0010
0000
2000
0000
3100
1000
,
0001
0010
1000
0010
0001
0100
0010
0100
,
0101
0000
0000
1100
0000
0000
0220
0000
,
0330
0001
0001
0001
,
1100
0100
0010
0001
0011
0000
0101
0000
,
1100
1010
0011
0101
,
0011
0010
0100
1000
1100
0000
1010
0000
,
0011
0101
1100
1010
,
1100
0100
0010
0001
0101
0000
0011
0000
,
1010
1100
0101
0011
,
0110
0001
2000
0000
3010
0100
0110
1000
,
0002
0000
1003
0010
0000
0001
0010
0000
,
1010
0100
0001
0010
0011
0000
0101
0000
,
1100
0000
1010
0000
0011
0000
0010
0001
,
0101
0010
1000
0100
1100
0000
1010
0000
,
0011
0000
0101
0000
1100
0000
0010
0001
,
0101
0010
1000
0100
1100
0000
0101
0000
,
0011
1010
1100
0101
,
1010
0001
0200
0000
0310
0100
0101
1000
,
0200
0000
0301
0200
0000
2300
0000
3001
,
0101
0001
1000
0000
0001
1000
0101
0001
,
1000
0000
0100
0001
0100
1000
0100
0010
,
1100
1000
0001
0000
1000
0001
1100
1000
,
0001
0000
0100
1000
0100
0001
0100
0010
,
0101
0001
1000
0000
0001
1000
0101
0001
,
1000
0000
0100
0001
0100
1000
0100
0010
,
1100
1000
0001
0000
1000
0001
1100
1000
,
0001
0000
1000
0200
0000
0320
0000
0031
,
0001
0000
0100
0002
0100
0000
0003
0000
1000
0000
0001
0000
1000
0000
0100
1000
,
0200
0000
1300
0001
0100
0001
0010
0100
,
1000
0000
0100
2000
0100
0000
3000
0000
0001
0000
1000
0000
0001
0000
0100
0001
,
0200
0000
0301
1000
0010
1000
0100
0010
,
0001
0000
0010
0002
0010
0000
0003
0000
1000
0000
0001
0000
1000
0000
0010
1000
,
0020
0000
1030
0001
0010
0001
0100
0010
,
0100
0000
0010
2000
0010
0000
3000
0000
0001
0000
1000
0000
0001
0000
0010
0001
,
0010
0000
0100
0010
0000
1001
0000
0220
,
0000
0000
0000
0000
,
0330
0000
0000
0000
;

//---------------dance-single - ----------------
#NOTEDATA:;
#CHARTNAME:;
#STEPSTYPE:dance-single;
#DESCRIPTION:;
#CHARTSTYLE:;
#DIFFICULTY:Medium;
#METER:9;
#RADARVALUES:0.516392,0.489813,0.189850,0.493610,0.000000,386.000000,25.000000,65.000000,0.000000,0.000000,0.000000,0.000000,0.000000,0.516392,0.489813,0.189850,0.493610,0.000000,386.000000,25.000000,65.000000,0.000000,0.000000,0.000000,0.000000,0.000000;
#CREDIT:;
#NOTES:
0000
0000
0000
0000
,
0000
0000
0000
0000
,
0000
0000
0000
0000
,
0000
0000
0000
0000
0001
1000
0001
1000
,
0002
1000
1003
0200
,
0010
0000
0310
0000
0001
1000
0001
1000
,
0002
0010
0013
0200
,
1000
0000
1300
0000
0010
0100
0010
0100
,
0020
1000
1030
0200
,
2300
0000
3000
0000
0001
1000
0001
1000
,
0002
0010
0013
0200
,
1300
0002
0203
0320
,
2030
0100
3002
0000
,
0103
0110
0001
1001
,
0002
0100
2003
0000
,
3100
0110
1000
1001
,
2000
0010
3002
0000
,
0103
0000
0110
0000
1001
0000
0001
1000
,
0001
0000
0100
0010
0100
0010
0000
0200
,
0000
0000
0000
0300
,
0001
1000
0001
1000
0001
0000
0001
0000
,
1000
1000
0100
0100
,
0010
0100
0010
0100
0010
0000
0010
0000
,
0001
0001
0100
0100
,
0010
1000
0010
1000
0010
0000
0010
0000
,
1000
1000
0200
0300
,
0010
0001
2000
0000
0000
0000
3010
1000
,
0002
0000
0003
0001
,
1000
0001
1000
0001
1000
0000
1000
0000
,
0001
0001
0100
0100
,
0010
0100
0010
0100
0010
0000
0010
0000
,
1000
1000
0100
0100
,
0010
0001
0010
0001
0010
0000
0010
0000
,
0001
0001
0100
0100
,
0010
1000
0002
0000
0000
0000
0013
0001
,
2000
0000
0000
3000
,
1000
0000
0001
1000
0000
0000
0001
0100
,
0010
0000
0100
0010
0000
0010
0100
0010
,
1000
0000
0001
1000
0000
0000
0001
1000
,
0100
0000
0010
0100
0000
0100
0010
0100
,
1000
0000
0001
1000
0000
0000
0001
0100
,
0010
0000
0100
0010
0000
0010
0100
0010
,
2000
0100
3002
0100
,
2003
0001
0001
3001
,
0002
0023
0230
1300
,
0020
0230
0302
1003
,
0200
0320
0032
0000
,
1003
0100
1000
0100
1000
0000
1000
0000
,
0001
0100
0001
0100
0002
0000
1003
0000
,
0010
1000
0010
0000
0020
0000
0130
0000
,
0001
1000
0001
0000
0010
0100
1000
0000
,
0010
0000
0000
0100
0000
0000
0220
0000
,
0330
0000
0000
0000
,
0001
0100
0010
0100
0001
0000
0101
0000
,
1000
1100
0001
0011
,
1000
0010
0100
0010
1000
0000
1010
0000
,
0001
0011
1000
1100
,
0001
0010
0100
0010
0001
0000
0011
0000
,
1000
1010
0001
0101
,
1000
0100
0020
0000
0030
0010
0100
1000
,
0002
0000
0103
0020
0000
0230
0000
0300
,
0001
0010
0100
1000
0010
0000
1010
0000
,
0100
0101
0001
1100
,
1000
0010
0100
0001
0010
0000
0011
0000
,
0100
1100
0001
0101
,
1000
0100
0010
0001
0100
0000
0101
0000
,
0010
1010
0001
0101
,
0100
0001
0020
0000
0030
0010
0100
1000
,
0020
0000
0000
0001
0000
1000
0030
0000
,
0001
0010
2000
0000
3010
0000
0001
0010
,
2000
0000
0000
0010
0000
0010
3000
0010
,
0001
0100
2000
0000
3100
0000
0001
0100
,
2000
0000
0000
0100
0000
0100
3000
0100
,
1000
0100
0002
0000
1003
0000
1000
0100
,
0002
0000
0000
0100
0000
0100
0003
0100
,
1000
0010
0002
0000
0013
0000
1000
0010
,
0002
0000
0013
2000
0000
3002
0000
0003
,
1000
0100
0002
0000
0103
0001
0100
1000
,
0002
0000
0103
0010
0000
0010
0000
0010
,
1000
0100
0002
0000
0103
0001
0100
1000
,
0002
0000
0103
0010
0000
0010
0000
0100
,
0001
0100
2000
0000
3100
1000
0100
0001
,
2000
0000
3100
1000
0000
1000
0000
1000
,
0001
0100
2000
0000
3100
1000
0100
0001
,
2000
0000
3100
1000
0000
0001
0000
0200
,
0000
0000
0000
0000
,
0300
0000
0000
0000
;

//---------------dance-single - ----------------
#NOTEDATA:;
#CHARTNAME:;
#STEPSTYPE:dance-single;
#DESCRIPTION:;
#CHARTSTYLE:;
#DIFFICULTY:Easy;
#METER:6;
#RADARVALUES:0.355833,0.424504,0.197444,0.501204,0.000000,236.000000,26.000000,66.000000,0.000000,0.000000,0.000000,0.000000,0.000000,0.355833,0.424504,0.197444,0.501204,0.000000,236.000000,26.000000,66.000000,0.000000,0.000000,0.000000,0.000000,0.000000;
#CREDIT:;
#NOTES:
0000
0000
0000
0000
,
0000
0000
0000
0000
,
0000
0000
0000
0000
,
0000
0000
0000
0000
,
2000
0001
3001
0000
,
0001
0001
1000
0000
,
0020
0100
0130
0000
,
0010
0010
1000
0001
,
2000
0100
3100
0000
,
0020
0000
0030
0000
,
0002
0100
0103
0000
,
0020
0000
0030
0000
,
2000
0000
3010
0000
,
0001
0001
1000
1000
,
0020
0000
0130
0000
,
1000
1000
0001
0001
,
0020
0000
0130
0000
,
1000
0001
0100
0000
,
0010
0010
0100
0010
,
0200
0000
0000
0000
,
0301
0100
0001
0000
,
1000
0100
1000
0000
,
0001
0010
0001
0000
,
1000
0010
1000
0000
,
0001
0100
0001
0000
,
1000
0100
1000
0000
,
0010
0020
0030
0100
,
0200
0300
0000
0000
,
0001
0010
0001
0000
,
1000
0010
1000
0000
,
0001
0100
0001
0000
,
1000
0100
1000
0000
,
0001
0010
0001
0000
,
1000
0010
1000
0000
,
0001
0002
0003
1000
,
2000
3000
0000
0000
,
0001
1000
0000
1000
,
0001
1000
0000
1000
,
0100
0010
0000
0010
,
0001
1000
0000
0001
,
0100
0010
0000
0010
,
1000
0100
0000
0100
,
0020
0030
0002
0003
,
2000
0000
0000
3000
,
0001
0001
0001
0100
,
0010
0010
2000
3000
,
0100
0100
0200
0300
,
0010
0010
0020
0030
,
0100
0100
1000
0010
,
0100
0100
0001
1000
,
0200
0000
0020
0330
,
0001
0000
0000
1000
0000
0000
2002
0000
,
3003
0000
0000
0000
,
1000
0100
1000
1000
,
0001
0100
0001
0000
,
0001
0010
0001
0001
,
1000
0010
1000
0000
,
0100
0100
0010
0100
,
1000
0001
1000
0000
,
1001
2002
3003
0110
,
0220
0330
0000
0000
,
0001
0100
0001
0001
,
1000
0100
1000
0000
,
1000
0010
1000
1000
,
0001
0010
0001
0000
,
0100
0100
0010
0100
,
0001
0001
0010
0000
,
0110
0220
0330
1001
,
2002
3003
0000
0000
,
0001
0202
0303
1000
,
2200
0000
3300
0010
0000
0010
0000
0010
,
0001
0022
0033
1000
,
2020
0000
3030
0100
0000
0100
0000
0100
,
0001
0202
0303
1000
,
2200
0000
3300
0010
0000
0010
0000
0010
,
0001
0202
0303
1000
,
2200
3300
0000
0000
,
0100
2020
3030
1000
,
0022
0000
0033
0100
0000
0100
0000
0100
,
1000
0022
0033
0000
,
2200
0000
3300
0010
0000
0010
0000
0010
,
0001
2020
3030
1000
,
0202
0000
0303
0010
0000
0010
0000
0010
,
1000
0220
0330
0001
,
0220
0000
0330
0100
0000
0010
0000
0220
,
0000
0000
0000
0000
,
0330
0000
0000
0000
;

//---------------dance-single - ----------------
#NOTEDATA:;
#CHARTNAME:;
#STEPSTYPE:dance-single;
#DESCRIPTION:;
#CHARTSTYLE:;
#DIFFICULTY:Beginner;
#METER:3;
#RADARVALUES:0.172492,0.193077,0.060752,0.091128,0.000000,139.000000,8.000000,12.000000,0.000000,0.000000,0.000000,0.000000,0.000000,0.172492,0.193077,0.060752,0.091128,0.000000,139.000000,8.000000,12.000000,0.000000,0.000000,0.000000,0.000000,0.000000;
#CREDIT:;
#NOTES:
0000
0000
0000
0000
,
0000
0000
0000
0000
,
0000
0000
0000
0000
,
0000
0000
0000
0000
,
1000
0000
0000
0000
,
1000
0000
0000
0000
,
0001
0000
0000
0000
,
0001
0000
0000
0000
,
0200
0000
0000
0000
,
0300
0000
0000
0000
,
0020
0000
0000
0000
,
0030
0000
0000
0000
,
2000
0000
3000
0000
,
1000
1000
1000
0000
,
0002
0000
0003
0000
,
0001
0001
0001
0000
,
0200
0000
0300
0000
,
0100
0100
0100
0000
,
0010
0010
0010
0000
,
0020
0000
0000
0030
,
1000
0000
1000
0000
,
1000
1000
1000
0000
,
0001
0000
0001
0000
,
0001
0001
0001
0000
,
0100
0000
0100
0000
,
0100
0100
0100
0000
,
0020
0000
0030
0200
,
0000
0300
0000
0000
,
0001
0000
0001
0000
,
0001
0001
0001
0000
,
1000
0000
1000
0000
,
1000
1000
1000
0000
,
0100
0000
0100
0000
,
0100
0100
0100
0000
,
0020
0000
0030
0200
,
0000
0300
0000
0000
,
1000
0000
0000
0000
,
1000
0000
0000
0000
,
0001
0000
0000
0000
,
0001
0000
0000
0000
,
0100
0000
0000
0000
,
0100
0000
0000
0000
,
0010
0000
0010
0000
,
0010
0000
0000
0000
,
1000
0000
1000
0000
,
1000
0000
0000
0000
,
0001
0000
0001
0000
,
0001
0000
0000
0000
,
0100
0000
0100
0000
,
0100
0000
0000
0000
,
0010
0000
0010
0000
,
0020
0000
0000
0030
,
0000
0000
0000
0000
,
1000
0000
1000
0000
,
1000
1000
1000
0000
,
0001
0000
0001
0000
,
0001
0001
0001
0000
,
0100
0000
0100
0000
,
0100
0100
0100
0000
,
0001
0001
0000
1000
,
1000
0000
0000
0000
,
0100
0000
0100
0000
,
0100
0100
0100
0000
,
0010
0000
0010
0000
,
0010
0010
0010
0000
,
0001
0000
0001
0000
,
0001
0001
0001
0000
,
1000
1000
0000
0001
,
0001
0000
0000
0000
,
1001
0000
0000
0000
,
1001
0000
0000
0000
,
0110
0000
0000
0000
,
0110
0000
0000
0000
,
1001
0000
0000
0000
,
1001
0000
0000
0000
,
0110
0000
0000
0000
,
0110
0000
0000
0000
,
0001
0001
0000
1000
,
1000
0000
0000
0000
,
0010
0010
0000
0100
,
0100
0000
0000
0000
,
0001
0001
0000
1000
,
1000
0000
0000
0000
,
0100
0100
0000
0010
,
0020
0000
0000
0030
;
