#VERSION:0.81;
#TITLE:Radioactive;
#SUBTITLE:;
#ARTIST:Imagine Dragons;
#TITLETRANSLIT:;
#SUBTITLETRANSLIT:;
#ARTISTTRANSLIT:;
#GENRE:Electro-Rock;
#ORIGIN:;
#CREDIT:;
#BANNER:Radioactive.png;
#BACKGROUND:Radioactive-bg.png;
#PREVIEWVID:;
#JACKET:Radioactive-jacket.png;
#CDIMAGE:;
#DISCIMAGE:;
#LYRICSPATH:;
#CDTITLE:;
#MUSIC:Radioactive.mp3;
#OFFSET:-0.080650;
#SAMPLESTART:83.142082;
#SAMPLELENGTH:15.000000;
#SELECTABLE:YES;
#BPMS:0.000=136.600;
#STOPS:;
#DELAYS:;
#WARPS:;
#TIMESIGNATURES:0.000=4=4;
#TICKCOUNTS:0.000=4;
#COMBOS:0.000=1;
#SPEEDS:0.000=1.000=0.000=0;
#SCROLLS:0.000=1.000;
#FAKES:;
#LABELS:0.000=Song Start;
#BGCHANGES:-0.500=Radioactive.avi=1.000=0=0=0=StretchNoLoop====,
99999=-nosongbg-=1.000=0=0=0 // don't automatically add -songbackground-
;
#KEYSOUNDS:;
#ATTACKS:
;

//---------------dance-single - ----------------
#NOTEDATA:;
#CHARTNAME:;
#STEPSTYPE:dance-single;
#DESCRIPTION:;
#CHARTSTYLE:;
#DIFFICULTY:Beginner;
#METER:1;
#RADARVALUES:0.072786,0.082254,0.008636,0.008636,0.000000,57.000000,1.000000,1.000000,0.000000,0.000000,0.000000,0.000000,0.000000,0.072786,0.082254,0.008636,0.008636,0.000000,57.000000,1.000000,1.000000,0.000000,0.000000,0.000000,0.000000,0.000000;
#CREDIT:;
#NOTES:
0000
0000
0000
0000
,
0000
0000
0000
0000
,
0000
0000
0000
0000
,
0000
0000
0000
0000
,
2000
0000
0000
0000
,
0000
0000
0000
0000
,
0000
0000
0000
0000
,
3000
0000
0000
0000
,
0001
0000
0000
0000
,
0100
0000
0000
0000
,
0010
0000
0000
0000
,
1000
0000
0000
0000
,
0010
0000
0000
0000
,
0100
0000
0000
0000
,
0001
0000
0000
0000
,
0000
0000
0000
0000
,
0010
0000
0000
0000
,
0100
0000
0000
0000
,
1000
0000
0000
0000
,
0001
0000
0000
0000
,
0100
0000
0000
0000
,
0010
0000
0000
0000
,
1000
0000
0000
0000
,
0100
0000
0000
0000
,
0010
0000
0000
0000
,
0001
0000
0000
0000
,
0010
0000
0000
0000
,
0001
0000
0000
0000
,
1000
0000
0000
0000
,
1000
0000
0000
0000
,
0100
0000
0000
0000
,
0100
0000
0000
0000
,
1000
0000
0000
0000
,
0010
0000
0000
0000
,
0100
0000
0000
0000
,
0001
0000
0000
0000
,
0010
0000
0000
0000
,
0100
0000
0000
0000
,
1000
0000
0000
0000
,
0001
0000
0000
0000
,
0100
0000
0000
0000
,
0010
0000
0000
0000
,
0100
0000
0000
0000
,
0010
0000
0000
0000
,
1000
0000
0000
0000
,
0001
0000
0000
0000
,
0010
0000
0000
0000
,
0100
0000
0000
0000
,
0110
0000
0000
0000
,
0100
0000
0000
0000
,
1000
0000
0000
0000
,
0001
0000
0000
0000
,
0100
0000
0000
0000
,
0010
0000
0000
0000
,
0100
0000
0000
0000
,
0010
0000
0000
0000
,
1000
0000
0000
0000
,
0100
0000
0000
0000
,
0010
0000
0000
0000
,
0001
0000
0000
0000
,
0100
0000
0000
0000
,
0010
0000
0000
0000
,
1000
0000
0000
0000
,
0001
0000
0001
0000
;

//---------------dance-single - ----------------
#NOTEDATA:;
#CHARTNAME:;
#STEPSTYPE:dance-single;
#DESCRIPTION:;
#CHARTSTYLE:;
#DIFFICULTY:Hard;
#METER:10;
#RADARVALUES:0.416975,0.386874,0.388601,0.241796,0.021589,265.000000,45.000000,28.000000,0.000000,0.000000,0.000000,0.000000,0.000000,0.416975,0.386874,0.388601,0.241796,0.021589,265.000000,45.000000,28.000000,0.000000,0.000000,0.000000,0.000000,0.000000;
#CREDIT:;
#NOTES:
0000
0000
0000
0000
,
0000
0000
0000
0000
,
0000
0000
0000
0000
,
0000
0000
0000
0000
,
2002
0000
0000
0000
,
0000
0000
0000
0000
,
0000
0000
0000
0000
,
0000
0000
3003
0000
,
0010
0000
0000
0000
0001
0000
0100
0000
0010
0000
0000
0000
1000
0000
0000
0001
,
0000
0000
0000
0000
0010
0000
0100
0000
1000
0000
0000
0000
0001
0000
0000
0100
,
0000
0000
0000
0000
0010
0000
0100
0000
0001
0000
0000
0000
1000
0000
0000
0100
,
0000
0000
1000
0010
0100
0000
0001
0000
,
1001
0000
0000
0000
0001
0000
0100
0000
0010
0000
0000
0000
1000
0000
0000
0100
,
0000
0000
1000
0010
0100
0001
0010
0000
,
0100
0000
0000
1000
0000
0000
0100
0000
2000
0000
0000
0000
0000
0000
0000
0000
,
0000
0000
0002
3003
,
0001
0100
0010
0100
0001
0000
0101
0000
,
0010
0100
1000
0100
0010
0000
0110
0000
,
0100
1000
0010
1000
0001
0000
0011
0000
,
0010
0100
1000
0010
1000
0000
1100
0000
,
0011
0000
0100
1000
0010
0000
0100
0000
,
0101
0000
0010
1000
0001
0000
0010
0000
,
0110
0000
0100
1000
0010
0000
0110
0000
,
1001
0001
1000
0001
,
1001
0100
0011
0100
,
1000
0010
0202
0303
,
0010
0100
1001
0100
,
0010
0001
2200
3300
,
1000
0100
0001
0100
1000
0000
1001
0000
,
0001
0100
1000
0100
0001
0000
1001
0000
,
0001
0010
1000
0010
0001
0000
1001
0000
,
0010
0001
0010
1000
0001
0000
1001
0000
,
0001
0010
0100
1000
0010
0000
0110
0000
,
0100
0001
0010
0100
1000
0000
1100
0000
,
1000
0010
1000
0001
0010
0000
0011
0000
,
0001
0100
0010
0100
0001
0000
0101
0000
,
0001
1000
0100
1000
0010
0000
0110
0000
,
0100
0001
0010
0001
1000
0000
1100
0000
,
1000
0010
1000
0100
0010
0000
0110
0000
,
0000
0001
0100
0010
1000
0000
1001
0000
,
0002
0000
0203
0000
,
0320
0000
2030
0000
,
3200
0000
0320
0000
,
0032
0000
2003
0000
,
3002
0000
0023
0000
,
0230
0000
2300
0000
,
3020
0000
0230
0000
,
0301
1000
1001
0100
,
0110
0010
0011
0100
,
1000
0010
0202
0303
,
0010
0100
0110
0010
,
1000
0001
0022
0033
,
0001
0010
1000
0010
0001
0000
1001
0000
,
1000
0010
0001
0010
1000
0000
1001
0000
,
1000
0100
0001
0100
1000
0000
1001
0000
,
0100
0001
0100
1000
0001
0000
1001
0000
,
0001
0100
0010
0100
0001
0000
1001
0000
,
1000
0100
0010
0100
1000
0000
1001
0000
,
0000
0001
0100
0010
1000
0000
1010
0000
,
0000
0010
0100
0001
1000
0000
1001
0000
,
0001
0010
0100
1000
0010
0000
0110
0000
,
0010
1000
0100
0010
0001
0000
0011
0000
,
0000
0001
0010
0100
1000
0000
1001
0000
,
0000
0001
0100
0010
2000
0000
0002
0000
,
3003
0000
0000
0000
;

//---------------dance-single - ----------------
#NOTEDATA:;
#CHARTNAME:;
#STEPSTYPE:dance-single;
#DESCRIPTION:;
#CHARTSTYLE:;
#DIFFICULTY:Medium;
#METER:6;
#RADARVALUES:0.320750,0.302785,0.466321,0.138169,0.000000,190.000000,54.000000,16.000000,0.000000,0.000000,0.000000,0.000000,0.000000,0.320750,0.302785,0.466321,0.138169,0.000000,190.000000,54.000000,16.000000,0.000000,0.000000,0.000000,0.000000,0.000000;
#CREDIT:;
#NOTES:
0000
0000
0000
0000
,
0000
0000
0000
0000
,
0000
0000
0000
0000
,
0000
0000
0000
0000
,
0220
0000
0000
0000
,
0000
0000
0000
0000
,
0000
0000
0000
0000
,
0000
0000
0000
0330
,
0001
0100
0101
0100
,
0010
1000
1010
1000
,
0100
1000
1100
0100
,
0010
0100
0110
0000
,
0001
1000
1001
0010
,
0100
0001
0101
0001
,
1000
0001
2002
0000
,
0000
0000
3003
0000
,
0001
0000
0100
0000
0010
0000
1000
0100
,
1000
0000
0010
0000
0100
0000
0001
0100
,
0001
0010
0100
1000
,
0010
0100
1001
0110
,
0100
0000
1000
0000
0010
0000
0100
0001
,
0100
0000
0010
0000
1000
0000
0001
0010
,
0001
0000
0100
0000
0010
0000
1000
0001
,
0000
0001
0100
0010
,
1010
1000
1100
0100
,
0110
0010
0011
0000
,
0011
0100
1100
0001
,
0101
0010
0110
0000
,
0010
1000
1010
1010
,
0000
0100
0101
0101
,
0001
0010
0011
0011
,
0000
0100
1100
1100
,
1000
0010
0101
0010
,
0000
0100
1100
0010
,
0000
0100
1001
0110
,
0000
0100
0110
1001
,
0001
0100
1010
0100
,
0000
0001
0101
0010
,
0000
0001
0010
0100
,
0000
1000
0010
0100
,
0002
0000
0023
0000
,
0230
0000
0000
0000
,
2300
0000
3002
0000
,
0203
0000
0000
0000
,
0320
0000
0230
0000
,
0302
0000
0000
0000
,
0023
0000
0230
0000
,
2300
0000
0001
3000
0001
0000
1000
0000
,
1001
0001
0011
0100
,
1100
0010
0101
0000
,
1001
0010
0110
0100
,
0101
0010
1100
0000
,
0100
0010
0110
0110
,
0001
1000
1001
0000
,
0010
1000
1010
1010
,
0100
0001
0101
0000
,
0001
0010
0011
0100
,
0000
1000
1100
0010
,
0000
0100
0000
0010
0100
0000
0110
0000
,
0000
0001
0000
1000
0001
0000
1001
0000
,
0001
0010
0110
1000
,
0000
0010
1001
0100
,
0000
0010
0000
0001
0010
0000
0100
0000
,
0000
1000
0000
0001
0100
0000
0010
0000
;

//---------------dance-single - ----------------
#NOTEDATA:;
#CHARTNAME:;
#STEPSTYPE:dance-single;
#DESCRIPTION:;
#CHARTSTYLE:;
#DIFFICULTY:Easy;
#METER:4;
#RADARVALUES:0.241796,0.247733,0.215889,0.146805,0.000000,154.000000,25.000000,17.000000,0.000000,0.000000,0.000000,0.000000,0.000000,0.241796,0.247733,0.215889,0.146805,0.000000,154.000000,25.000000,17.000000,0.000000,0.000000,0.000000,0.000000,0.000000;
#CREDIT:;
#NOTES:
0000
0000
0000
0000
,
0000
0000
0000
0000
,
0000
0000
0000
0000
,
0000
0000
0000
0000
,
0002
0000
0000
0000
,
0000
0000
0000
0000
,
0000
0000
0000
0000
,
0003
0000
0000
0000
,
0001
0000
1001
0000
,
0010
0000
0110
0000
,
1000
0000
1001
0000
,
0100
0000
0110
0000
,
0200
0000
1300
0000
,
0002
0000
0103
0000
,
0020
0000
1030
0000
,
0000
0000
0000
0000
,
0002
0000
0013
0000
,
0100
0000
0110
0000
,
0200
0000
1300
0000
,
0001
0000
1001
0000
,
0002
0000
0103
0000
,
0010
0000
1001
0000
,
0020
0000
0130
0000
,
2000
0001
0001
3001
,
1001
0010
0100
0010
,
1001
0100
0010
0000
,
0110
0100
1000
0010
,
0110
0100
0001
0000
,
0010
0100
0010
0010
,
0000
0100
1000
0100
,
1000
0001
1000
1000
,
0000
0010
0100
0010
,
0110
1000
0100
0010
,
0000
0001
0010
0100
,
0000
1000
1001
0001
,
0000
0100
0110
0010
,
1000
0100
0010
0001
,
0000
0010
0100
1000
,
0000
0010
0100
0001
,
0000
0010
0110
0100
,
2000
0000
0000
0000
,
3002
0000
0000
0000
,
0203
0000
0000
0000
,
0320
0000
0000
0000
,
0230
0000
0000
0000
,
0302
0000
0000
0000
,
2003
0000
0000
0000
,
3200
0010
0010
0310
,
0110
0100
1000
0001
,
1001
0010
0100
0000
,
0110
1000
0001
0010
,
0110
0100
1000
0000
,
0010
0100
0001
0001
,
0010
0100
1000
1000
,
0010
0100
0010
0010
,
1000
0001
1000
1000
,
1001
0100
0010
0001
,
0000
0100
0010
1000
,
0000
0001
0110
1000
,
0000
0010
1001
0100
,
0010
1000
0110
0001
,
0000
0010
0110
0100
,
0000
1000
0001
0100
,
0000
0010
0110
1000
;
