#TITLE:Problem (feat. Iggy Azalea);
#SUBTITLE:;
#ARTIST:Ariana Grande;
#TITLETRANSLIT:;
#SUBTITLETRANSLIT:;
#ARTISTTRANSLIT:;
#GENRE:R&B;
#CREDIT:;
#BANNER:Problem (feat. Iggy Azalea).png;
#BACKGROUND:Problem (feat. Iggy Azalea)-bg.png;
#LYRICSPATH:;
#CDTITLE:;
#MUSIC:Problem (feat. Iggy Azalea).mp3;
#OFFSET:-1.128898;
#SAMPLESTART:33.740009;
#SAMPLELENGTH:15.000000;
#SELECTABLE:YES;
#BPMS:0.000000=103.000000
;
#STOPS:
;
#BGCHANGES:-1.750=Problem (feat. Iggy Azalea).avi=1.000=0=0=0=StretchNoLoop====,
99999=-nosongbg-=1.000=0=0=0 // don't automatically add -songbackground-
;
#KEYSOUNDS:;
#ATTACKS:;

//---------------dance-single - ----------------
#NOTES:
     dance-single:
     :
     Beginner:
     1:
     0.067911,0.062917,0.009321,0.074568,0.000000,42.000000,1.000000,8.000000,0.000000,0.000000,0.000000,0.067911,0.062917,0.009321,0.074568,0.000000,42.000000,1.000000,8.000000,0.000000,0.000000,0.000000:
0000
0000
0000
0000
,
0000
0000
0000
0000
,
0000
0000
0000
0000
,
0000
0000
0000
0000
,
1000
0000
0000
0000
,
1000
0000
0000
0000
,
0001
0000
0000
0000
,
0001
0000
0000
0000
,
0020
0000
0000
0000
,
0030
0000
0000
0000
,
0020
0000
0000
0000
,
0030
0000
0000
0000
,
0100
0000
0000
0000
,
0100
0000
0000
0000
,
1000
0000
0000
0000
,
0100
0000
0000
0000
,
0010
0000
0000
0000
,
0001
0000
0000
0000
,
2000
0000
0000
0000
,
3000
0000
0000
0000
,
0010
0000
0010
0000
,
0010
0000
0000
0000
,
0100
0000
0100
0000
,
0100
0000
0000
0000
,
0001
0000
0001
0000
,
0001
0000
0000
0000
,
1000
0000
1000
0000
,
1000
0000
0000
0000
,
0100
0000
0100
0000
,
0100
0000
0000
0000
,
0010
0000
0010
0000
,
0010
0000
0000
0000
,
0002
0000
0000
0000
,
0003
0000
0000
0000
,
0002
0000
0000
0000
,
0003
0000
0000
0000
,
2000
0000
0000
0000
,
3000
0000
0000
0000
,
2000
0000
0000
0000
,
3000
0000
0000
0000
,
0020
0000
0000
0000
,
0030
0000
0010
0000
,
0010
0000
0000
0000
,
0100
0000
0100
0000
,
0100
0000
0000
0000
,
1001
0000
0000
0000
;

//---------------dance-single - ----------------
#NOTES:
     dance-single:
     :
     Easy:
     5:
     0.191747,0.230696,0.018642,0.130495,0.000000,128.000000,2.000000,14.000000,0.000000,0.000000,0.000000,0.191747,0.230696,0.018642,0.130495,0.000000,128.000000,2.000000,14.000000,0.000000,0.000000,0.000000:
0000
0000
0000
0000
,
0000
0000
0000
0000
,
0000
0000
0000
0000
,
0000
0000
0000
0000
,
1000
0000
1000
0000
,
1000
0000
0100
0000
,
0001
0000
0001
0000
,
0001
0000
0100
0000
,
0010
0000
1000
0000
,
0100
0000
0001
0000
,
0100
0000
0010
0000
,
0001
0000
1000
0000
,
0001
0001
0001
0000
,
0100
0100
0100
0000
,
0010
0010
0010
0000
,
1000
1000
1000
0000
,
0001
0001
0001
0000
,
1000
0001
1000
0000
,
0020
0000
0000
0130
,
0020
0000
0000
1030
,
0010
0010
0100
0001
,
0010
0010
0100
1000
,
0001
0001
0100
1000
,
0001
0001
0010
1000
,
0001
0010
0010
0010
,
0100
1000
1000
1000
,
0010
0100
0100
0100
,
0001
1000
1000
1000
,
0100
1000
0010
0100
,
0001
0010
0100
0001
,
0100
0100
1000
0001
,
0100
0100
0010
1000
,
0200
0000
0010
0310
,
0200
1000
1300
0000
,
2000
0000
0001
3001
,
0002
0100
0103
0000
,
0002
0013
0002
0103
,
0002
1003
0001
0010
,
0200
0310
0200
1300
,
0200
0301
0100
0100
,
0220
0000
0000
0330
,
0010
0010
0010
0000
,
0001
0001
0001
0000
,
1000
1000
1000
0000
,
0010
0010
0010
0000
,
0110
0000
0000
0000
;

//---------------dance-single - ----------------
#NOTES:
     dance-single:
     :
     Medium:
     7:
     0.318247,0.293613,0.046605,0.111853,0.167779,222.000000,5.000000,12.000000,0.000000,0.000000,0.000000,0.318247,0.293613,0.046605,0.111853,0.167779,222.000000,5.000000,12.000000,0.000000,0.000000,0.000000:
0000
0000
0000
0000
,
0000
0000
0000
0000
,
0000
0000
0000
0000
,
0000
0000
0000
0000
,
0000
1000
0100
1000
0001
0001
0000
0100
,
0001
0001
0000
0010
0100
0010
0002
0000
,
0003
0100
0001
0100
0010
0010
0000
1000
,
0010
0010
0000
1000
0100
0010
0200
0000
,
1300
0000
0000
0100
0000
0000
0010
0000
0100
0000
0000
1000
0000
0000
0001
0000
,
0100
0000
0000
0010
0000
0000
0100
0000
0002
0000
0000
0000
1003
0000
0000
0000
,
0001
0000
0000
0010
0000
0000
0100
0000
0001
0000
0000
0100
0000
0000
1000
0000
,
0010
0000
0000
0100
0000
0000
0001
0000
2000
0000
0000
0000
3001
0000
0000
0000
,
1000
0000
1000
0000
1000
0000
0000
0100
0000
0100
0000
0000
0010
0000
0100
0000
,
0010
0010
0001
0001
2000
0000
3001
0000
,
1000
0000
1000
0000
1000
0000
0000
0010
0000
0010
0000
0000
0100
0000
0010
0000
,
0100
0000
0100
0000
0100
0000
0000
0001
0000
0001
0000
0000
1000
0000
0001
0000
,
1000
0000
1000
0000
1000
0000
0000
0100
0000
0100
0000
0000
0010
0000
0100
0000
,
0010
0010
0001
0001
2000
0000
3010
0000
,
1000
0000
0000
1000
0000
0000
1000
0000
0000
0000
0001
0000
0000
0010
0000
0000
,
0100
0000
0000
0100
0000
0000
0100
0000
0000
0000
1000
0000
0000
1000
0000
0000
,
0001
0000
1000
1000
0000
0001
0001
0000
,
0010
0000
0100
0100
0000
0010
0010
0000
,
0001
0000
0100
0100
0000
0010
0010
0000
,
1000
0000
0001
0001
0020
0000
0000
0000
,
0130
0000
0110
0000
0100
1000
0001
0000
,
0100
0000
0101
0000
0100
0010
1000
0000
,
0001
0000
0011
0000
0010
0100
1000
0000
,
0001
0000
1001
0000
1000
0001
0100
0001
,
0010
0000
0000
0010
0000
0000
0010
0000
0000
0000
0100
0000
0000
0100
0000
0000
,
1000
0000
0000
1000
0000
0000
1000
0000
0000
0000
0001
0000
0000
0001
0000
0000
,
0100
0000
0000
0100
0000
0000
0100
0000
0000
0000
0010
0000
0000
0010
0000
0000
,
2000
0000
0000
0000
,
3002
0000
0010
0013
,
0001
0010
1000
0010
0001
0000
1000
0000
,
0020
0000
0100
0130
,
0010
1000
0100
1000
0010
0000
0100
0000
,
0001
0000
0000
1000
0000
0000
0100
0000
1000
0000
0000
0001
0000
0000
0100
0000
,
0001
0000
0000
0010
0000
0000
0100
0000
1000
0000
0000
0000
0001
0000
0000
0000
,
0100
0000
0000
0010
0000
0000
1000
0000
0001
0000
0000
0010
0000
0000
0100
0000
,
0001
0000
0000
0100
0000
0000
1000
0000
0001
0000
0000
0000
0200
0000
0000
0000
,
0300
0000
0000
0000
0000
0000
0010
0100
,
0010
0000
0010
0000
0010
0000
0000
1000
0000
1000
0000
0000
0001
0000
1000
0000
,
0001
0000
0001
0000
0001
0000
0000
0010
0000
0010
0000
0000
0100
0000
0010
0000
,
0100
0000
0100
0000
0100
0000
0000
1000
0000
1000
0000
0000
1000
0000
0010
0000
,
1000
1000
0001
0001
0020
0000
0130
0000
,
0110
0000
0000
0000
;

//---------------dance-single - ----------------
#NOTES:
     dance-single:
     :
     Hard:
     14:
     0.695084,0.676709,0.298274,0.242347,0.768987,464.000000,32.000000,26.000000,0.000000,0.000000,0.000000,0.695084,0.676709,0.298274,0.242347,0.768987,464.000000,32.000000,26.000000,0.000000,0.000000,0.000000:
// measure 0
0000
0000
0000
0000
,  // measure 1
0000
0000
0000
0000
,  // measure 2
0000
0000
0000
0000
,  // measure 3
0002
0013
2000
3010
0200
0010
0001
1300
,  // measure 4
0100
1000
0100
1000
0010
0100
0001
0100
0001
0000
1000
0000
0100
0010
0100
0010
,  // measure 5
0001
0000
1000
0000
0010
0100
0010
0000
0110
0000
1010
0000
0102
0000
0000
1003
,  // measure 6
0001
0010
0001
0010
0100
0010
0100
0010
0001
0000
1000
0000
0010
1000
0010
1000
,  // measure 7
0100
0000
0010
0000
0100
1000
0100
0000
1100
0000
1010
0000
0102
0000
0000
1003
,  // measure 8
0001
0000
0000
0010
0100
0000
0010
0000
0001
0000
1000
0001
1000
0000
0010
0100
,  // measure 9
0010
0000
0000
0100
0010
0000
0100
0000
0002
0000
0013
0000
0200
0000
0310
0000
,  // measure 10
0100
0000
0000
1000
0100
0000
1000
0000
0001
0000
0100
0001
0100
0000
0010
0100
,  // measure 11
0010
0000
0000
0000
0000
0000
0000
0000
0000
1000
0000
0000
0010
0000
0000
0000
0000
0000
1000
0000
0000
0000
0000
0000
0001
0000
1000
0000
0001
0000
1000
0000
0000
0000
0000
0000
0200
0000
0000
0000
0000
0000
0000
0000
0000
0000
0000
0000
,  // measure 12
0310
0000
0010
0000
0100
1000
0001
0100
0000
0010
0000
0000
0100
0010
0100
0000
,  // measure 13
0101
0000
0000
0000
0001
0000
0000
0000
1001
0000
0000
0000
1000
0000
0000
0000
1200
0000
0000
0000
0000
0000
0310
0100
0010
0000
0001
0000
0010
0000
0001
0000
,  // measure 14
0100
0000
0100
0000
0010
0100
0001
1000
0000
0100
0000
0000
0010
0100
0010
0000
,  // measure 15
0001
0000
0001
0000
0010
0001
0100
0010
0000
1000
0000
0000
0010
1000
0001
0010
,  // measure 16
0100
0000
0100
0000
0010
0100
1000
0001
0000
0100
0000
0001
0000
0010
0100
0000
,  // measure 17
0110
0000
0000
0000
0100
0000
0000
0000
1100
0000
0000
0000
1000
0000
0000
0000
1002
0000
0000
0000
0000
0000
0103
0001
0100
0000
0010
0000
0100
0000
0010
0000
,  // measure 18
1000
0000
0000
1000
0000
0000
1000
0000
0000
0001
0010
0001
0010
0100
0000
0000
,  // measure 19
0110
0000
0000
0010
0001
0100
0010
0000
0000
0000
1000
0001
1000
0100
0000
0000
,  // measure 20
0010
0000
0100
0100
1000
0001
0100
0001
0010
0100
1000
0100
0001
0000
0100
0100
,  // measure 21
0010
0001
0100
1000
0000
0100
0010
0100
0001
0010
0100
1000
0001
0000
0100
0000
,  // measure 22
0001
0001
0010
0001
0100
0000
0010
0010
1000
0001
1000
0001
0010
0000
0100
0010
,  // measure 23
0100
1000
0000
0100
1000
0001
0100
0001
1000
0010
0100
0001
1000
0000
0001
0000
,  // measure 24
0011
0000
0010
0010
0100
0100
0010
0001
0001
1000
1000
0010
0100
0100
0001
1000
,  // measure 25
1000
0100
0100
0010
0100
0100
1000
0001
0001
0100
0100
0010
0100
0001
1000
0100
,  // measure 26
0010
0000
0100
0000
0110
0000
0010
0100
0100
1000
1000
0001
0100
1000
0100
0010
,  // measure 27
1000
0000
0001
0000
0010
0000
0100
0000
0010
0000
0000
0000
0001
0000
0010
0000
0010
0000
0001
0000
0100
0000
0010
0100
0010
0000
1000
0000
0010
0000
1000
0000
,  // measure 28
0100
0000
0010
0010
0100
1000
0100
1000
0001
1000
0001
0100
0001
0010
0100
0010
,  // measure 29
0010
0001
1000
0010
0100
0010
1000
0100
0100
0010
0100
1000
0001
0100
0000
0100
,  // measure 30
0010
1000
0100
0000
0010
0100
0010
0001
1000
0000
0010
1000
0000
1000
0001
0000
,  // measure 31
0010
0010
0100
0000
0010
0001
0100
0001
1000
0000
0100
1000
0000
1000
0010
0000
,  // measure 32
0210
0000
0010
0000
0001
0000
0001
0000
0310
0000
0020
0000
0000
1030
0010
0000
,  // measure 33
1010
1000
1001
0001
0021
0100
0032
0103
,  // measure 34
0102
0000
0100
0000
1000
0000
1000
0000
0010
0000
0013
0000
0001
0100
1000
0000
,  // measure 35
1100
0100
0110
0010
1020
0130
2000
3100
,  // measure 36
1000
0000
0000
0100
0010
0000
0001
1000
0001
0000
0000
0100
0001
0000
0010
0100
,  // measure 37
0010
0000
0001
0100
0010
0000
0100
0000
0201
0000
0310
0000
0002
0000
0013
0000
,  // measure 38
0210
0000
0000
1300
0100
0000
1000
0000
0001
0000
0000
0100
0001
0000
0100
0010
,  // measure 39
0100
0000
0010
1000
0010
0000
1000
0000
1002
0000
0013
0000
0200
0000
0320
0000
,  // measure 40
0100
0000
0100
0000
0130
0000
0010
0001
,  // measure 41
1001
0000
1000
0000
0010
1000
0001
0010
0000
0100
0000
0000
0010
0100
1000
0001
,  // measure 42
0100
0000
0100
0000
0001
0100
0010
1000
0000
0000
1001
0000
0001
0100
0001
0000
,  // measure 43
0101
0000
0101
0000
0100
0000
0010
0100
0010
0000
1000
0000
0010
1000
0001
0000
,  // measure 44
0011
0000
0000
0000
0010
0000
0000
0000
0110
0000
0000
0000
0100
0000
1000
0000
0200
0000
0000
0000
1300
0000
1000
0100
0020
0000
0031
0000
0010
0000
0001
0000
,  // measure 45
0100
1000
0100
0010
2000
0000
3001
0000
0000
0000
0000
0000
0000
0000
0000
0000
;
