#TITLE:Love Runs Out;
#SUBTITLE:;
#ARTIST:OneRepublic;
#TITLETRANSLIT:;
#SUBTITLETRANSLIT:;
#ARTISTTRANSLIT:;
#GENRE:Alternative;
#CREDIT:;
#BANNER:Love Runs Out.png;
#BACKGROUND:Love Runs Out-bg.png;
#LYRICSPATH:;
#CDTITLE:;
#MUSIC:Love Runs Out.mp3;
#OFFSET:-0.057409;
#SAMPLESTART:63.240002;
#SAMPLELENGTH:15.000000;
#SELECTABLE:YES;
#DISPLAYBPM:120.000000;
#BPMS:0.000000=120.000000
,78.000000=123.586990
,79.000000=120.000000
;
#STOPS:
;
#BGCHANGES:-0.500=Love Runs Out.avi=1.000=0=0=0=StretchNoLoop====,
99999=-nosongbg-=1.000=0=0=0 // don't automatically add -songbackground-
;
#KEYSOUNDS:;
#ATTACKS:;

//---------------dance-single - ----------------
#NOTES:
     dance-single:
     :
     Beginner:
     3:
     0.077232,0.074014,0.051488,0.008581,0.000000,56.000000,6.000000,1.000000,0.000000,0.000000,0.000000,0.077232,0.074014,0.051488,0.008581,0.000000,56.000000,6.000000,1.000000,0.000000,0.000000,0.000000:
0000
0000
0000
0000
,
0000
0000
0000
0000
,
0000
0000
0000
0000
,
0000
0000
0000
0000
,
1000
0000
0000
0000
,
1000
0000
0000
0000
,
1000
0000
0000
0000
,
1000
0000
0000
0000
,
0001
0000
0000
0000
,
0001
0000
0000
0000
,
0001
0000
0000
0000
,
0001
0000
0000
0000
,
0100
0000
0000
0000
,
0100
0000
0000
0000
,
0001
0000
0000
0000
,
0001
0000
0000
0000
,
0010
0000
0000
0000
,
0010
0000
0000
0000
,
0001
0000
0000
0000
,
0001
0000
0000
0000
,
0100
0000
0000
0000
,
0100
0000
0000
0000
,
0010
0000
0000
0000
,
1000
0000
0000
0000
,
0100
0000
0000
0000
,
0100
0000
0000
0000
,
0010
0000
0000
0000
,
0001
0000
0000
0000
,
1000
0000
0000
0000
,
0001
0000
0000
0000
,
0100
0000
0000
0000
,
0010
0000
0000
0000
,
0110
0000
0000
0000
,
0100
0000
0000
0000
,
0110
0000
0000
0000
,
0100
0000
0000
0000
,
1001
0000
0000
0000
,
0001
0000
0000
0000
,
1001
0000
0000
0000
,
0001
0000
0000
0000
,
0110
0000
0000
0000
,
0010
0000
0000
0000
,
1001
0000
0000
0000
,
1000
0000
0000
0000
,
0100
0000
0100
0000
,
0100
0000
0000
0000
,
0100
0000
0100
0000
,
0100
0000
0000
0000
,
0010
0000
0010
0000
,
0010
0000
0000
0000
,
0010
0000
0000
0000
,
0010
0000
0000
0000
,
0001
0000
0000
0000
,
1000
0000
0000
0000
,
0001
0000
0000
0000
,
0100
0000
0000
0000
,
0020
0000
0000
0000
,
0000
0000
0030
0000
;

//---------------dance-single - ----------------
#NOTES:
     dance-single:
     :
     Easy:
     5:
     0.237826,0.222042,0.257440,0.017163,0.000000,162.000000,30.000000,2.000000,0.000000,0.000000,0.000000,0.237826,0.222042,0.257440,0.017163,0.000000,162.000000,30.000000,2.000000,0.000000,0.000000,0.000000:
0000
0000
0000
0000
,
0000
0000
0000
0000
,
0000
0000
0000
0000
,
0000
0000
0000
0000
,
1000
0000
1000
0000
,
1000
0000
1000
0000
,
1000
0000
1000
0000
,
1000
0000
1000
0001
,
0100
0000
0100
0000
,
0001
1000
0001
0000
,
0010
0000
0010
0000
,
0001
1000
0001
0000
,
0010
0001
0100
0000
,
0010
0100
0001
0000
,
1000
1001
0000
1000
,
1000
1001
0000
0001
,
0001
0101
0000
0100
,
0100
0110
0000
0010
,
0010
1010
0000
0010
,
0010
1010
0000
1000
,
0100
0000
0010
0000
,
0100
1000
0001
0000
,
0100
0000
0010
0000
,
0100
0001
1000
1000
,
0100
0110
0000
1000
,
0100
0110
0000
0010
,
0001
0100
1000
0100
,
0001
0011
0000
0010
,
0010
0110
0000
0100
,
0100
1100
0000
1000
,
1000
1001
0000
1000
,
1002
0000
0100
0103
,
0101
0001
0010
0100
,
1000
1000
1000
0000
,
1010
0010
0100
0001
,
1000
1000
1000
0100
,
0010
0010
0000
0100
,
0010
0010
0000
0100
,
0100
1100
0000
0100
,
0100
1100
0000
1000
,
1000
1001
0000
0001
,
0001
0101
0000
0100
,
0100
0110
0000
0100
,
0100
0000
0000
0110
0000
0000
0010
0000
,
1000
0001
1000
0100
,
0010
0010
0010
0001
,
0100
1000
0100
0010
,
1000
1000
1000
0001
,
0001
0011
0000
0010
,
0010
0110
0000
0100
,
0100
1100
0000
0100
,
0100
1100
0000
1000
,
1000
1001
0000
1000
,
1000
0110
0000
0010
,
0010
0011
0000
0001
,
0001
1001
0000
1000
,
1020
0000
0100
0000
,
0001
0000
0130
0000
;

//---------------dance-single - ----------------
#NOTES:
     dance-single:
     :
     Medium:
     8:
     0.398419,0.345399,0.025744,0.042907,0.004291,317.000000,3.000000,5.000000,0.000000,0.000000,0.000000,0.398419,0.345399,0.025744,0.042907,0.004291,317.000000,3.000000,5.000000,0.000000,0.000000,0.000000:
0000
0000
0000
0000
,
0000
0000
0000
0000
,
0000
0000
0000
0000
,
0000
0000
0000
0000
,
1000
0001
1000
0000
0001
1000
0001
0000
,
1000
0001
1000
0000
0001
1000
0001
0000
,
1000
0000
0100
0000
1000
0000
0000
0000
0100
0000
1000
0000
0100
0000
0000
0100
,
1000
0100
1000
0000
0100
1000
0100
1000
,
0001
0000
0000
1000
0001
0000
0000
1000
,
0001
0100
0000
0110
0000
0010
1000
0100
,
0010
0000
0000
0100
0010
0000
0000
0100
,
0010
0001
1000
0010
0000
0100
0010
2000
,
0000
0000
0001
0000
3001
1000
0001
0020
,
0000
0000
0100
0000
0130
0010
0100
1000
,
0001
1000
0000
0000
0100
0010
0100
1000
,
0001
1000
0000
0000
0010
0100
0100
0010
,
0100
0001
0000
0000
1000
0100
0100
0010
,
0010
0100
0000
0000
1000
0001
0100
0010
,
1000
0100
0000
0000
1000
0001
0100
0010
,
1000
0100
0000
0000
0010
0100
0010
0001
,
1000
0001
0000
0000
0100
0010
1000
0010
,
1000
0100
0000
0000
0010
0100
0010
0001
,
0001
0010
0001
0100
0001
1000
0100
0010
,
0100
1000
0000
0000
0010
0010
0010
1000
,
0001
0010
0000
0000
0010
0010
0010
0001
,
1000
0020
0000
0000
0000
0130
0010
0100
,
0000
0001
0100
0001
1000
0000
0001
1000
,
0000
1000
0100
0000
0010
0100
0010
0001
,
1000
0001
0000
0000
0100
0010
0100
0001
,
1000
0010
0000
0000
1000
0010
0100
0001
,
0010
0100
0000
0000
0010
0100
1000
0002
,
0000
0000
0103
0001
0000
1000
1000
0100
,
0110
0000
0100
0000
1000
0000
0010
0100
,
0010
1000
0000
0001
0000
0010
0100
0010
,
0001
0000
1000
0000
0001
0001
0100
0001
,
1000
0010
0000
0100
0000
0010
1000
0100
,
0010
0010
0010
0010
0000
0001
1000
0001
,
0100
0100
0100
0100
0000
0001
0100
0010
,
1000
0100
0000
0000
0100
1000
0100
0010
,
0001
0100
0000
0000
0001
1000
0001
0010
,
0100
0010
0000
0000
0100
1000
0100
0010
,
0001
1000
0000
0000
0010
1000
0010
0100
,
0001
0100
0000
0000
0001
1000
0001
0020
,
0000
0000
0130
0010
0000
0001
0010
0100
,
1000
0000
0000
0100
1000
0000
0000
0100
,
1000
0010
0000
0110
0000
0010
0100
0001
,
1000
0000
0000
0001
1000
0000
0000
0001
,
0001
1000
0001
0010
0000
0100
0010
0100
,
0000
0000
1000
0000
0001
1000
1000
0010
,
0000
0000
0100
0000
0001
1000
1000
0100
,
0010
0100
0000
0000
1000
0001
1000
0010
,
0100
0010
0000
0000
1000
0010
0100
0001
,
0001
1000
0000
0000
0001
0010
0100
1000
,
1000
0001
0000
0000
0100
0001
0010
0100
,
0100
0010
0000
0000
0010
0001
0100
0010
,
0010
0100
0000
0000
0010
1000
0001
1000
,
0100
0001
0100
1000
0010
0001
0010
1000
,
0100
0010
0001
1000
0010
0000
0000
0000
;

//---------------dance-single - ----------------
#NOTES:
     dance-single:
     :
     Hard:
     10:
     0.547979,0.518098,0.420485,0.128720,0.064360,383.000000,49.000000,15.000000,0.000000,0.000000,0.000000,0.547979,0.518098,0.420485,0.128720,0.064360,383.000000,49.000000,15.000000,0.000000,0.000000,0.000000:
// measure 0
0000
0000
0000
0000
,  // measure 1
0000
0000
0000
0000
,  // measure 2
0000
0000
0000
0000
,  // measure 3
0000
0000
0000
0000
,  // measure 4
1000
1000
0001
0001
1000
1000
0001
0001
,  // measure 5
0010
0010
0100
0100
0010
0010
0100
0100
,  // measure 6
1000
0000
1000
0000
0100
0000
0100
0000
0010
0000
0010
0000
0001
0000
0001
1000
,  // measure 7
0001
0001
0100
0100
0010
1000
1000
0001
,  // measure 8
0010
0000
0100
0010
0001
0000
0100
0001
,  // measure 9
1000
0010
1000
0001
0000
0010
0100
0010
,  // measure 10
0001
0000
1000
0010
0100
0000
0010
1000
,  // measure 11
0001
0010
0100
1000
0000
0010
1000
1020
,  // measure 12
0000
0000
0100
0000
0031
0010
1000
1200
,  // measure 13
0000
0000
0001
0000
0310
0100
1000
0001
,  // measure 14
0101
0100
0001
0000
0010
0001
0100
0010
,  // measure 15
0110
0010
1000
0000
0100
1000
0010
0100
,  // measure 16
0110
0100
0001
0000
0100
0001
0010
0100
,  // measure 17
0110
0010
0001
0000
0010
0001
1000
0010
,  // measure 18
1010
0000
0010
0000
0100
0000
0000
0000
0100
0000
0010
0000
0100
0000
0001
0100
,  // measure 19
0001
0010
0000
0000
0001
1000
1000
0010
,  // measure 20
0110
0100
0001
0000
0001
0100
0001
0010
,  // measure 21
0110
0100
1000
0000
1000
0001
0001
0100
,  // measure 22
0001
1000
0100
0010
0100
1000
0001
0100
,  // measure 23
0101
0100
0010
0000
0010
0010
1000
0001
,  // measure 24
0011
0020
0130
0000
0100
0010
0010
0100
,  // measure 25
1100
0000
1000
0001
1000
0020
0000
0000
0130
0000
0010
0000
0010
0000
1010
0000
,  // measure 26
0000
0000
1000
0000
0001
0000
1000
0000
0001
0010
0100
0000
0010
0000
0002
0000
,  // measure 27
0000
0000
0103
0000
0001
1000
0001
0000
1000
0000
0100
0000
0100
0000
0010
0000
,  // measure 28
0110
0100
1000
0000
0100
1000
1000
0001
,  // measure 29
1001
0001
0100
0000
0100
0001
0010
0100
,  // measure 30
0110
0010
0100
0000
0010
0001
0100
0120
,  // measure 31
1030
0010
1000
0000
0001
0000
0010
0000
0100
0000
0110
0000
0100
0000
1100
0000
,  // measure 32
1001
0000
0101
0000
0110
0000
0010
1000
,  // measure 33
0001
0010
0000
0110
0000
0100
1000
0010
,  // measure 34
0110
0000
0101
0000
1001
0001
1000
0100
,  // measure 35
0010
0000
0100
0000
0000
0000
0110
0000
0000
0000
0100
0000
1000
0100
0010
0000
,  // measure 36
0100
0000
0100
0000
1000
0000
0001
0000
0000
0000
0100
0000
0010
0100
0001
0000
,  // measure 37
1000
1000
0001
0100
0000
0001
0010
0100
,  // measure 38
0110
0100
1000
0000
1000
0010
0010
0100
,  // measure 39
0110
0100
0001
0000
0001
1000
1000
0100
,  // measure 40
0110
0100
1000
0000
0010
0100
0100
0001
,  // measure 41
0101
0002
0013
0000
0010
0001
1000
0010
,  // measure 42
0110
0100
0001
0000
0010
0100
1000
1020
,  // measure 43
0130
0010
0100
0000
0001
0000
1000
0000
0000
0000
0100
1000
0010
0000
0100
0000
,  // measure 44
0110
0000
0010
0100
0101
0000
0001
0010
,  // measure 45
0100
0100
0000
1100
0000
1000
0010
0100
,  // measure 46
0001
0000
1000
0001
0011
0000
0010
0100
,  // measure 47
1000
1000
0001
0101
0000
0100
1000
0200
,  // measure 48
0310
0100
0010
0000
0110
0000
0000
0000
1010
0000
1000
0000
0001
0000
0020
0000
,  // measure 49
0130
0010
0100
0000
0110
0000
0000
0000
0011
0000
0001
0000
1000
0000
0010
0000
,  // measure 50
0110
0010
1000
0000
0010
1000
0001
0010
,  // measure 51
0110
0010
0001
0000
0001
0100
0100
0010
,  // measure 52
0110
0100
0001
0000
0100
0001
1000
0100
,  // measure 53
1100
0200
0310
0000
0010
0100
1000
0001
,  // measure 54
1001
0001
0100
0000
0100
0010
1000
0001
,  // measure 55
1001
0000
0001
0010
0100
0000
0000
0000
1000
0000
0100
0010
0100
0000
2100
0000
,  // measure 56
0010
0001
0100
0001
3010
0200
0310
2000
,  // measure 57
3020
0100
0001
0100
1030
0000
0000
0000
;
