#VERSION:0.81;
#TITLE:Let It Go;
#SUBTITLE:;
#ARTIST:Idina Menzel;
#TITLETRANSLIT:;
#SUBTITLETRANSLIT:;
#ARTISTTRANSLIT:;
#GENRE:Orchestral;
#ORIGIN:;
#CREDIT:N. Muriel;
#BANNER:Let It Go.png;
#BACKGROUND:Let It Go-bg.png;
#PREVIEWVID:Preview.avi;
#JACKET:Let It Go-jacket.png;
#CDIMAGE:;
#DISCIMAGE:;
#LYRICSPATH:;
#CDTITLE:;
#MUSIC:Let It Go.mp3;
#OFFSET:-1.160000;
#SAMPLESTART:48.420002;
#SAMPLELENGTH:15.000000;
#SELECTABLE:YES;
#BPMS:0.000=137.000;
#STOPS:;
#DELAYS:;
#WARPS:;
#TIMESIGNATURES:0.000=4=4;
#TICKCOUNTS:0.000=4;
#COMBOS:0.000=1;
#SPEEDS:0.000=1.000=0.000=0;
#SCROLLS:0.000=1.000;
#FAKES:;
#LABELS:0.000=Song Start;
#BGCHANGES:-3.000=Let It Go.avi=1.000=1=0=0=StretchNoLoop==CrossFade==,
99999=-nosongbg-=1.000=0=0=0 // don't automatically add -songbackground-
;
#KEYSOUNDS:;
#ATTACKS:
;

//---------------dance-single - ----------------
#NOTEDATA:;
#CHARTNAME:;
#STEPSTYPE:dance-single;
#DESCRIPTION:;
#CHARTSTYLE:;
#DIFFICULTY:Beginner;
#METER:3;
#RADARVALUES:0.092218,0.189155,0.105086,0.075062,0.000000,62.000000,14.000000,10.000000,0.000000,0.000000,0.000000,0.000000,0.000000,0.092218,0.189155,0.105086,0.075062,0.000000,62.000000,14.000000,10.000000,0.000000,0.000000,0.000000,0.000000,0.000000;
#CREDIT:;
#NOTES:
0000
0000
0000
0000
,
0000
0000
0000
0000
,
0010
0000
0000
0000
,
0010
0000
0000
0000
,
0001
0000
0000
0000
,
0100
0000
0000
0000
,
0010
0000
0000
0000
,
0010
0000
0000
0000
,
1000
0000
0000
0000
,
0100
0000
0000
0000
,
0020
0000
0000
0000
,
0030
0000
0000
0000
,
0002
0000
0000
0000
,
0003
0000
0000
0000
,
2000
0000
0000
0000
,
3000
0000
0000
0000
,
0200
0000
0000
0000
,
0300
0000
0000
0000
,
0010
0000
0000
0000
,
0110
0000
0000
0000
,
0110
0000
0000
0000
,
0010
0000
0000
0000
,
0001
0000
0000
0000
,
1001
0000
0000
0000
,
1001
0000
0000
0000
,
1000
0000
0000
0000
,
0010
0000
0000
0000
,
0100
0000
0000
0110
,
0000
0000
0000
0000
,
0010
0000
0000
0110
,
0000
0000
0000
0000
,
0010
0000
0000
0000
,
0010
0000
0000
0000
,
2000
0000
0000
0000
,
0000
0000
0000
0000
,
3002
0000
0000
0000
,
0000
0000
0000
0000
,
0013
0000
0000
0000
,
0010
0000
0000
0000
,
0010
0000
0000
0000
,
0000
0000
0000
0000
,
0100
0000
0000
0000
,
0100
0000
0000
0000
,
0100
0000
0000
0000
,
0000
0000
0000
0000
,
1000
0000
0000
0000
,
1000
0000
0000
0000
,
1000
0000
0000
0000
,
0000
0000
0000
0000
,
1001
0000
0000
0000
0000
0000
0000
0001
,
0000
0000
0000
0000
,
0010
0000
0000
0000
,
0010
0000
0000
0000
,
0100
0000
0000
0000
,
0110
0000
0000
0000
,
0110
0000
0000
0000
,
0010
0000
0000
0000
,
0001
0000
0000
0000
,
1001
0000
0000
0000
,
1001
0000
0000
0000
,
1000
0000
0000
0000
,
0010
0000
0000
0000
,
0100
0000
0000
0110
,
0000
0000
0000
0000
,
0010
0000
0000
0110
,
0000
0000
0000
0000
,
2000
0000
0000
0000
,
3001
0000
0000
2002
,
0000
0000
0000
3003
,
0001
0000
1000
0000
,
0002
0000
0000
0000
,
0000
0000
0000
0000
,
1003
0000
0000
0000
;

//---------------dance-single - ----------------
#NOTEDATA:;
#CHARTNAME:;
#STEPSTYPE:dance-single;
#DESCRIPTION:;
#CHARTSTYLE:;
#DIFFICULTY:Hard;
#METER:12;
#RADARVALUES:0.618722,0.675554,0.525431,0.315259,0.123852,465.000000,70.000000,42.000000,0.000000,0.000000,0.000000,0.000000,0.000000,0.618722,0.675554,0.525431,0.315259,0.123852,465.000000,70.000000,42.000000,0.000000,0.000000,0.000000,0.000000,0.000000;
#CREDIT:;
#NOTES:
1010
0000
0110
0010
0100
0100
0001
1000
,
0000
1000
0100
0100
0010
0100
1000
0010
,
0000
0100
0010
0100
0001
1000
0000
1001
,
0000
1100
0000
0000
0100
0000
0010
0000
0100
0000
0000
0000
1000
0000
0100
0000
,
0010
0000
0001
0010
0000
0002
0100
1003
,
0001
0000
0100
0001
0100
0000
0010
0100
,
0020
0000
1030
0010
0000
0110
0000
0200
,
0001
0000
1000
0000
0301
0000
0000
0000
0100
0000
0001
0000
0010
0000
0100
0010
,
0100
0000
1000
0100
0000
0010
0100
0010
,
0001
0100
0001
1000
0100
1000
0010
0100
,
0010
0000
1000
0010
1010
0010
0000
0100
,
0001
0010
0010
0001
0011
0001
0000
0010
,
0100
0000
0010
0100
1100
0100
0000
0010
,
0100
0010
0000
0001
1000
0002
0000
0103
,
0010
0000
1000
0010
0110
0010
0000
0100
,
0001
0000
0010
0000
0010
0000
0001
0000
0101
0000
0001
0000
2000
0000
0000
3001
,
1000
0000
1100
0000
0100
0100
0010
0010
,
0001
0001
1000
1000
0010
1000
0001
0100
,
0001
0010
0100
1000
1001
1000
0010
0100
,
0110
0000
0100
0000
0101
0001
1000
0100
,
1100
0000
0100
0000
0010
0100
0010
0002
,
0000
1003
0001
0200
0000
0320
0000
2030
,
0000
3001
1000
0000
1100
0100
0001
1000
,
1010
0000
0010
0000
0110
0010
0100
2000
,
0000
3001
0000
0000
1000
0000
0100
0000
0001
0000
0100
0000
0010
0000
0002
0000
,
0000
0103
0100
2000
0000
3200
0310
0100
,
0001
0000
1001
0000
0000
0000
1000
0000
1001
0000
0000
0000
0001
0010
0100
1000
,
0010
0000
0100
0010
0100
0000
2001
0000
,
0000
0100
3001
0000
1000
0010
0100
0000
,
0101
0000
0100
0010
0100
0000
1002
0100
,
0000
0000
0000
0100
0000
0000
1003
0000
0000
0000
0000
0000
0001
0000
0000
0010
0000
0000
0100
0000
0100
0000
0000
0000
,
0110
0100
1000
0100
1000
0001
1001
0000
,
0001
0100
1000
0100
0001
0010
0100
1000
,
1010
0010
1000
0010
0100
0001
0100
0001
,
0010
0100
1000
0010
0100
0001
1000
0100
,
0010
0100
0010
0100
1000
0100
1000
0100
0010
0001
0010
0001
0100
0001
0100
0001
,
0100
0010
0100
0010
1000
0001
1000
0001
0010
0100
0010
0100
1000
0100
0010
0001
,
0100
0000
0010
2010
0000
3001
0000
0102
,
0000
0013
0000
0210
0000
1300
0000
2010
,
0000
0001
0000
0100
0000
3001
0000
1010
,
0001
1100
0001
1010
0001
0200
0000
0310
,
0110
0000
1000
2010
0000
3001
0000
1002
,
0000
0103
0000
0021
0000
0130
0000
1200
,
0000
0010
0000
0001
0000
0310
0000
1100
,
0001
1010
0001
1100
0001
0020
0000
0130
,
0110
0000
0010
0012
0000
0103
0000
0120
,
0000
1030
0000
2010
0000
3001
0000
0021
,
0000
0100
0000
1000
0000
0100
0031
0011
,
1000
0101
1000
0011
1000
0200
0000
0300
,
0110
0000
0010
0001
0000
1000
0000
1020
,
0000
0000
0000
0100
0000
0000
0200
0000
0000
0000
0330
0000
0000
0000
0100
0000
,
0001
0000
0001
1000
0000
1100
0000
0200
,
0000
0310
0100
0000
1000
0000
0100
0000
1000
0000
0001
0000
0100
0000
0001
0000
,
0011
0011
0110
0110
1100
0100
1000
0001
,
0101
0000
0100
0000
0110
0010
1000
0001
,
0011
0000
0010
0000
0110
0100
1000
0020
,
0000
0000
0130
0000
0010
0000
0000
2000
0000
0000
3001
0000
0000
0000
0200
0000
,
0000
0000
0310
0000
0100
0000
0000
0000
1000
0000
0100
0000
0001
0000
0100
0010
,
0100
0000
0000
0000
0001
0000
0000
0000
0101
0000
0001
0000
1000
0000
0100
0010
,
0200
0000
1300
0000
0100
0000
0010
0000
0110
0000
0000
0000
0010
0000
0000
0001
,
0000
0100
0000
0020
0000
1030
0010
0100
,
0001
0000
0001
0000
1000
0000
1000
0000
0100
0000
0100
0000
0010
0100
1000
0001
,
0100
0000
0010
0100
0010
0000
2001
0000
,
0000
0100
3001
0000
1000
0100
0001
0000
,
0100
0000
0010
0100
0010
0000
1002
0100
,
0000
0100
1003
0000
0001
0010
0001
0100
,
0010
0000
1000
0000
0001
0000
0100
0000
0001
0000
0010
0100
1000
0000
0001
1000
,
0001
0000
1000
0001
1000
0000
0220
0000
,
0300
0001
0100
1000
0100
0100
0130
0010
,
0001
0001
0100
0100
0110
0110
0110
0010
,
1000
0000
0100
0010
0100
0010
0100
1000
,
0001
0100
0000
0000
0000
0000
0000
0000
,
0110
0000
0000
0000
;

//---------------dance-single - ----------------
#NOTEDATA:;
#CHARTNAME:;
#STEPSTYPE:dance-single;
#DESCRIPTION:;
#CHARTSTYLE:;
#DIFFICULTY:Easy;
#METER:5;
#RADARVALUES:0.215534,0.270222,0.120098,0.067555,0.000000,176.000000,16.000000,9.000000,0.000000,0.000000,0.000000,0.000000,0.000000,0.215534,0.270222,0.120098,0.067555,0.000000,176.000000,16.000000,9.000000,0.000000,0.000000,0.000000,0.000000,0.000000;
#CREDIT:;
#NOTES:
0000
0000
0000
0000
,
0000
0000
0000
0000
,
1000
0000
1000
0000
,
1000
0000
0000
0000
,
0001
0000
0001
0000
,
0001
0000
0000
0000
,
0010
0000
0010
0000
,
0010
0000
0000
0000
,
0110
0000
0000
0000
,
0100
1000
0010
0100
,
0001
0000
0001
0000
,
0001
0000
0001
0000
,
1000
0000
1000
0000
,
1000
0000
1000
0000
,
0010
0000
0010
0000
,
0010
0000
0010
0000
,
0100
0100
0100
0000
,
0100
0100
0100
0000
,
0001
0010
0110
0000
,
1001
0000
1000
0010
,
1000
0000
0010
0010
,
0100
0001
1000
0100
,
1000
0000
0100
0100
,
0110
0000
0010
0001
,
0200
0000
0310
0100
,
0010
0000
1000
0010
,
0100
0100
0001
1000
,
0001
0000
0000
0010
0000
0000
0011
0000
,
0000
0000
0010
0010
,
0100
0000
0000
1000
0000
0000
1100
0000
,
0000
0000
1000
1000
,
0010
0000
0000
0100
0000
0000
0220
0000
,
0000
0000
0330
0000
,
0100
0000
0001
0000
,
1000
0000
0100
0000
,
0010
0100
0010
0100
,
1000
0001
1000
0001
,
0100
0000
0100
0000
,
0010
0000
0010
0000
,
1000
0010
1000
0000
,
0001
0010
0001
0000
,
0010
0000
0010
0000
,
0100
0000
0100
0000
,
1000
0100
0001
0100
,
1000
0010
0001
0010
,
0100
0000
0100
0000
,
0001
0000
0001
0000
,
1000
0010
1000
0001
,
0010
0001
0010
0100
,
0220
0000
0000
0000
0000
0000
0000
0330
,
0000
0000
0000
0000
,
0100
0100
0100
0100
,
1000
1000
1000
1000
,
1001
1001
1001
0000
,
0110
0000
0010
0001
,
0010
0000
0001
1000
,
0001
0100
0010
1000
,
0001
0000
0010
0100
,
0110
0000
0010
0001
,
0010
0000
0001
1000
,
0001
0100
1000
0100
,
0010
1000
0001
0010
,
0100
0000
0000
1000
0000
0000
1100
0000
,
0000
0000
1000
1000
,
0001
0000
0000
0100
0000
0000
0201
0000
,
0000
0000
0010
0000
,
0010
0010
0310
0100
,
0001
0000
0000
1000
0000
0000
2002
0000
,
0000
0000
0000
0000
,
0000
0000
0000
3003
,
0200
0000
0000
0000
,
0000
0000
0000
0000
,
0300
0000
0000
0000
;

//---------------dance-single - ----------------
#NOTEDATA:;
#CHARTNAME:;
#STEPSTYPE:dance-single;
#DESCRIPTION:;
#CHARTSTYLE:;
#DIFFICULTY:Medium;
#METER:9;
#RADARVALUES:0.389248,0.432355,0.255209,0.157629,0.003753,308.000000,34.000000,21.000000,0.000000,0.000000,0.000000,0.000000,0.000000,0.389248,0.432355,0.255209,0.157629,0.003753,308.000000,34.000000,21.000000,0.000000,0.000000,0.000000,0.000000,0.000000;
#CREDIT:;
#NOTES:
// measure 0
0000
1010
0000
1010
,  // measure 1
0000
0101
0000
0101
,  // measure 2
0000
0001
1000
0000
0001
0000
0010
0000
,  // measure 3
0100
0000
0110
0100
,  // measure 4
1000
0000
0000
0001
0000
0100
0000
0010
,  // measure 5
0000
0000
1000
0000
0010
0000
1000
0001
,  // measure 6
1000
0000
0000
0100
0000
0100
0000
0020
,  // measure 7
0000
0000
0031
0000
0010
0000
0001
1000
,  // measure 8
0001
0000
0000
0100
0000
0000
0001
0000
,  // measure 9
1000
0100
0010
0000
0100
1000
0001
0100
,  // measure 10
0010
0000
1010
0000
,  // measure 11
1000
0001
1001
0000
,  // measure 12
0001
0000
0011
0000
,  // measure 13
0010
0100
1100
0000
,  // measure 14
1000
0000
1001
0000
,  // measure 15
0001
0100
0110
0000
,  // measure 16
0010
0010
0010
0010
,  // measure 17
1000
1000
1000
1000
,  // measure 18
0001
0010
0100
1000
1001
0000
0000
0000
,  // measure 19
0110
0000
0010
0000
1000
0010
1000
0001
,  // measure 20
0000
0010
0100
0010
,  // measure 21
0100
1000
0001
0000
0200
0000
0310
0200
,  // measure 22
0000
0000
0000
0000
0301
0100
0010
2000
,  // measure 23
0000
0000
0000
0000
3001
1000
0100
0020
,  // measure 24
0130
0000
0000
0000
0010
0001
0100
0002
,  // measure 25
0000
1003
0000
2000
0000
0000
3100
1000
,  // measure 26
0010
0200
0000
0000
0301
0100
0010
1000
,  // measure 27
1001
0000
0000
0001
0000
0000
0021
0000
,  // measure 28
0000
0000
0100
0130
,  // measure 29
0110
0000
0000
0100
0000
0000
1000
0100
,  // measure 30
0000
0100
1000
0000
0001
0000
0100
0001
,  // measure 31
0100
0000
0000
0010
0000
0000
1000
0000
,  // measure 32
0001
1000
0001
0000
1000
0100
0010
0001
,  // measure 33
1000
1000
1000
0010
,  // measure 34
0100
0000
0010
0100
0000
0010
0100
0000
,  // measure 35
0001
0100
0001
0100
0010
1000
0010
1000
,  // measure 36
0001
0010
0001
0010
0100
1000
0100
1000
,  // measure 37
0001
0000
0100
0001
0000
1000
0000
0001
,  // measure 38
0000
1000
0000
0100
0000
0010
0000
0100
,  // measure 39
0000
1000
0000
0010
0000
0100
0000
0110
,  // measure 40
0000
0110
0000
0100
0000
0002
0000
0000
,  // measure 41
1003
0000
0001
0010
0000
0100
0000
0010
,  // measure 42
0000
0001
0000
1000
0000
0001
0000
0101
,  // measure 43
0000
0100
0000
0110
0000
0010
0000
1010
,  // measure 44
0000
1010
0000
1000
0000
0002
0000
0000
,  // measure 45
0013
0000
0001
0100
0000
1000
0000
0100
,  // measure 46
0000
0010
0000
1000
0000
0001
0000
1001
,  // measure 47
0000
0001
0000
0011
0000
0010
0000
0110
,  // measure 48
0000
0110
0000
0100
0000
2000
0000
0000
,  // measure 49
3020
0000
0000
0000
0000
0000
0000
0230
,  // measure 50
0000
0000
0000
0000
0000
0000
0000
0301
,  // measure 51
0100
0100
0100
0100
,  // measure 52
0010
0000
0100
0000
0010
0100
0010
0100
,  // measure 53
0001
0010
0100
1000
1001
0000
0000
0000
,  // measure 54
0110
0000
0010
0000
1000
0010
1000
0002
,  // measure 55
0000
0000
0013
0000
0001
0100
0001
1000
,  // measure 56
0000
1000
0100
0010
0000
0100
0000
2000
,  // measure 57
0000
3001
1000
0000
0010
1000
0010
0200
,  // measure 58
0000
0000
0000
0000
0301
0100
0001
0020
,  // measure 59
0000
0000
0130
0000
0010
0000
0000
0000
0110
0000
0000
0000
0010
0000
0000
0001
,  // measure 60
0000
0001
0000
1000
0000
1000
0010
0000
,  // measure 61
0200
0000
0000
0000
0301
0100
0001
1000
,  // measure 62
0100
0100
0100
0110
,  // measure 63
0010
0000
0010
0000
0001
0010
0001
0000
,  // measure 64
1000
0000
1000
0010
0100
0001
0010
0100
,  // measure 65
0000
0010
0100
0000
1000
0100
1000
0000
,  // measure 66
0010
1000
0001
0010
0100
1000
0001
0100
,  // measure 67
0010
0000
0010
1000
0000
1000
2002
0000
,  // measure 68
0000
0000
0000
3003
,  // measure 69
0011
0000
0110
0000
0100
0100
0100
1000
,  // measure 70
0001
0000
0100
0001
0100
0010
1000
0001
,  // measure 71
0010
0100
0000
0000
0000
0000
0000
0000
,  // measure 72
0110
0000
0000
0000
;
