#TITLE:Leave the Night On;
#SUBTITLE:;
#ARTIST:Sam Hunt;
#TITLETRANSLIT:;
#SUBTITLETRANSLIT:;
#ARTISTTRANSLIT:;
#GENRE:Country;
#CREDIT:;
#BANNER:Leave the Night On.png;
#BACKGROUND:Leave the Night On-bg.png;
#LYRICSPATH:;
#CDTITLE:;
#MUSIC:Leave the Night On.mp3;
#OFFSET:-0.702090;
#SAMPLESTART:44.520000;
#SAMPLELENGTH:15.000000;
#SELECTABLE:YES;
#BPMS:0.000000=172.000000
,32.000000=86.000000
,47.000000=172.000000
,81.000000=86.000000
,93.000000=172.000000
,184.000000=86.000000
,200.000000=172.000000
,203.000000=344.000000
,204.000000=688.000000
,206.000000=172.000000
,312.000000=86.000000
;
#STOPS:93.000000=1.744000,
200.500000=0.349000,
201.500000=0.349000
;
#BGCHANGES:-3.000=Leave the Night On.avi=1.000=0=0=0=StretchNoLoop====,
99999=-nosongbg-=1.000=0=0=0 // don't automatically add -songbackground-
;
#KEYSOUNDS:;
#ATTACKS:;

//---------------dance-single - ----------------
#NOTES:
     dance-single:
     :
     Hard:
     14:
     0.586598,0.862337,0.257584,0.189400,0.143944,483.000000,34.000000,25.000000,0.000000,0.000000,0.000000,0.586598,0.862337,0.257584,0.189400,0.143944,483.000000,34.000000,25.000000,0.000000,0.000000,0.000000:
0000
0000
0000
0000
,
0000
0000
0000
0000
,
0000
0000
0000
0000
,
0000
0000
0000
0000
0000
0000
0010
0100
,
0000
0000
0000
1100
,
0000
0000
0000
0000
,
1000
0001
0100
0001
0010
0000
0010
0010
,
0000
0100
1000
0010
,
1000
0100
0010
0001
0001
1000
0010
1000
,
1000
0010
0100
0001
0001
1000
0100
0000
,
0010
0000
0100
0000
1000
0001
0100
0000
0010
0000
1000
0100
0000
0000
0000
0010
,
0100
0010
0000
0100
0000
1000
0001
0000
0000
0000
0000
0000
1001
0000
0000
0000
,
1000
0000
0010
1000
0010
1000
0001
0000
,
0010
0001
0010
0001
0100
0000
0010
0000
,
1000
0000
0001
0010
0001
0010
0100
0000
,
1000
0010
1000
0010
0100
0000
0001
0000
,
1000
0100
0001
0100
1000
0001
1000
0000
,
0001
0010
1000
0001
1000
0000
0010
0000
,
0100
1000
0010
0100
0010
0100
0001
0000
,
0010
0100
0010
0100
1000
0000
0001
1000
,
0010
0000
0001
0000
0010
0000
0100
0000
1000
0001
0010
1000
0010
0000
0100
0000
,
0001
0000
0010
0100
1000
1000
0001
0100
0001
0001
1000
0100
0010
0000
0100
0000
,
1000
0000
0001
0100
0001
0010
0010
0100
0010
0010
0001
1000
0010
0010
0100
0001
,
0010
0010
0100
1000
2002
3003
1000
0001
0010
0000
0100
0000
1000
0000
0001
0000
,
0100
0000
0110
0000
0010
1000
0001
0010
,
0100
0000
0110
0000
0100
0000
1000
0100
,
1000
1000
0001
0100
0001
0001
0010
0100
,
0010
0000
0001
0000
0101
0000
0001
0100
,
0010
0010
1000
0001
0010
0100
0010
0001
,
0001
0100
1000
0001
0010
0010
1000
0002
,
0013
0001
0000
1000
0001
0000
0100
0001
,
0100
0000
0010
0000
1010
0000
1000
1000
,
0001
0001
0010
0001
0100
0000
0110
0000
,
0010
0010
1000
0010
0100
0000
0110
0000
,
0100
0000
0001
1000
0001
0000
0010
0100
,
0010
0000
0001
0000
0100
0100
0100
0100
,
0020
1030
1000
1000
0000
0000
0020
1030
,
1000
1000
0000
1000
0002
0000
0013
0001
,
0200
0301
0001
0001
0000
0000
0200
0301
,
0001
0001
0000
0001
1000
0010
1000
0010
,
0100
0000
0001
0020
0000
0000
0130
0010
,
0000
0100
0000
1000
0001
0000
0100
0001
,
0100
0000
0010
0000
0010
0000
1000
0001
,
0010
0000
0110
0000
0100
1000
0010
0100
,
0001
0100
0000
0001
0000
1000
0000
1010
,
0000
0010
0000
0100
0000
0010
1000
0001
,
0020
0200
0000
0000
0000
0000
0000
0000
0000
0000
0330
0000
0010
0100
1000
0001
,
0100
0000
0010
0000
1010
0000
0010
1000
0001
0000
0010
0000
0011
0000
0001
0010
,
0100
0000
1000
0010
0100
0000
0001
1000
0100
0000
0010
0000
0110
0000
0100
1000
,
0001
0000
0001
0100
0001
0000
1000
0001
1000
0000
0100
0010
0100
1000
0000
0000
,
1100
0100
1100
0100
1100
0100
0020
0000
,
0000
0000
0000
0000
0130
0100
0010
0100
,
1000
0000
1001
0000
0001
0001
0100
0001
,
0010
0000
0110
0000
0100
0000
1000
0001
,
1000
0000
0010
1000
0010
0000
0100
0000
0010
0000
0010
0000
0100
0000
0001
0000
,
1000
0000
0100
0000
1100
0000
0100
0010
,
0100
1000
1000
0001
0100
0001
0010
0100
,
0100
0010
0010
0001
1000
0000
0010
0100
,
0001
1000
0000
1000
0001
0000
0100
0001
,
0100
0000
0010
0000
1010
0000
1000
0001
,
0010
0100
0100
1000
0010
0000
0110
0000
,
0010
0100
0100
0001
0010
0000
0110
0000
,
1001
0011
1100
1001
,
0101
0000
1010
1000
1000
0001
0001
0001
,
0020
0130
0100
0100
0000
0010
0002
0103
,
0100
0000
0100
0000
0000
0000
0001
0000
1000
0000
0100
0010
0100
0000
0000
0000
,
2000
0000
3010
0010
1000
0001
1000
0000
,
0001
0010
1000
0010
0001
0000
1001
0000
,
0002
0103
0100
0100
0000
0001
2000
3100
,
0100
0100
0000
0100
0020
0130
0000
0100
,
0010
0000
0001
0010
0000
0001
1000
0000
,
0010
1000
0010
0000
0110
0000
0100
0001
,
0010
0000
0100
0100
1000
0001
0100
0000
,
0110
2010
0001
3010
,
1000
0000
0100
0000
0010
0001
0100
0001
,
0020
0000
0000
0000
0130
0000
0020
0000
0000
0000
0031
0010
0100
0000
0000
0000
,
2000
3100
0100
0100
0000
1000
0002
0103
,
0100
0100
0000
0001
0010
0000
0100
0010
,
0220
0000
0330
0000
;

//---------------dance-single - ----------------
#NOTES:
     dance-single:
     :
     Easy:
     5:
     0.154767,0.178414,0.022728,0.060608,0.000000,132.000000,3.000000,8.000000,0.000000,0.000000,0.000000,0.154767,0.178414,0.022728,0.060608,0.000000,132.000000,3.000000,8.000000,0.000000,0.000000,0.000000:
// measure 0
0000
0000
0000
0000
,  // measure 1
0000
0000
0000
0000
,  // measure 2
0000
0000
0000
0000
,  // measure 3
0000
0000
0000
0010
,  // measure 4
0000
0000
0000
1000
,  // measure 5
0000
0000
0000
0000
,  // measure 6
0001
0000
0001
0000
,  // measure 7
1000
0000
1000
0000
,  // measure 8
0100
0000
0100
0000
,  // measure 9
0010
0000
0010
0000
,  // measure 10
0001
0000
0001
0000
,  // measure 11
1000
0000
1000
0000
,  // measure 12
0000
0001
0000
0000
,  // measure 13
0000
0001
0000
0000
,  // measure 14
0000
0010
0000
0000
,  // measure 15
0000
0010
0000
0000
,  // measure 16
0000
0100
0000
0000
,  // measure 17
0000
0100
0000
0000
,  // measure 18
0000
1000
0000
0000
,  // measure 19
0000
1000
0000
0000
,  // measure 20
0000
0010
0000
0010
,  // measure 21
0000
0100
0000
0100
,  // measure 22
0000
0001
0000
0001
,  // measure 23
0000
2002
3003
0000
,  // measure 24
1000
0000
1000
0000
,  // measure 25
1000
0000
0100
0000
,  // measure 26
0001
0000
0001
0000
,  // measure 27
0001
0000
0100
0000
,  // measure 28
0010
0000
0010
0000
,  // measure 29
0001
0000
0001
0000
,  // measure 30
2000
0000
0000
0000
,  // measure 31
0010
0000
3010
0000
,  // measure 32
1000
0000
0001
0000
,  // measure 33
1000
0000
0001
0000
,  // measure 34
0000
0000
0100
0000
,  // measure 35
0010
0000
0010
0000
,  // measure 36
1000
0000
0100
0000
,  // measure 37
1000
0000
0100
0000
,  // measure 38
0010
0000
0001
0000
,  // measure 39
0010
0000
0001
0000
,  // measure 40
0100
0000
0000
0000
,  // measure 41
0100
0000
0000
0000
,  // measure 42
0010
0000
0000
0000
,  // measure 43
0010
0000
0000
0000
,  // measure 44
1000
0000
0000
0000
,  // measure 45
0001
0000
0000
0000
,  // measure 46
2002
0000
0000
3003
,  // measure 47
1000
0000
1000
0000
,  // measure 48
0100
0000
0100
0000
,  // measure 49
0010
0000
0010
0000
,  // measure 50
0002
0000
0000
0000
,  // measure 51
0000
0000
0003
0000
,  // measure 52
1000
0000
1000
0000
,  // measure 53
1000
0000
0100
0000
,  // measure 54
0010
0001
0010
0000
,  // measure 55
0010
0000
0001
0000
,  // measure 56
0100
0000
0100
0000
,  // measure 57
0100
0000
0010
0000
,  // measure 58
1000
0000
0001
0000
,  // measure 59
1000
0001
1000
0000
,  // measure 60
0010
0000
0010
0000
,  // measure 61
0100
0000
0100
0000
,  // measure 62
0001
0000
0010
0000
,  // measure 63
0100
0000
1000
0000
,  // measure 64
0010
0000
0010
0000
,  // measure 65
1000
0000
0001
0000
,  // measure 66
0010
0000
0010
0000
,  // measure 67
0001
0000
1000
0000
,  // measure 68
0100
0000
0100
0000
,  // measure 69
1000
0000
0001
0000
,  // measure 70
0100
0000
0100
0000
,  // measure 71
0001
0000
1000
0000
,  // measure 72
0010
0000
1000
0010
,  // measure 73
0100
0001
0010
0000
,  // measure 74
0010
0000
0001
0010
,  // measure 75
0100
1000
0010
0000
,  // measure 76
0100
0000
0100
0000
,  // measure 77
0001
0000
1000
0000
,  // measure 78
2002
0000
3003
0000
;

//---------------dance-single - ----------------
#NOTES:
     dance-single:
     :
     Beginner:
     2:
     0.084418,0.118943,0.022728,0.045456,0.000000,69.000000,3.000000,6.000000,0.000000,0.000000,0.000000,0.084418,0.118943,0.022728,0.045456,0.000000,69.000000,3.000000,6.000000,0.000000,0.000000,0.000000:
0000
0000
0000
0000
,
0000
0000
0000
0000
,
0000
0000
0000
0000
,
0000
0000
0000
0000
,
1000
0000
0000
0000
,
0001
0000
0000
0000
,
0010
0000
0000
0000
,
0000
0000
0000
0000
,
0010
0000
0000
0000
,
0010
0000
0000
0000
,
0001
0000
0000
0000
,
1000
0000
0000
1001
,
0000
0000
0000
0000
,
0000
1000
0000
0000
,
0000
0001
0000
0000
,
0000
0000
0000
0000
,
0000
0000
0000
0000
,
0000
0010
0000
0000
,
0000
0100
0000
0000
,
0000
1000
0000
1000
,
0000
1000
0000
0000
,
0000
1000
0000
0000
,
0000
0001
0000
0000
,
0000
0001
0000
0000
,
1000
0000
0000
0000
,
1000
0000
0000
0000
,
0100
0000
0000
0000
,
0100
0000
0000
0000
,
0010
0000
0000
0000
,
0010
0000
0000
0000
,
0001
0000
0000
0000
,
0001
0000
0000
0000
,
1000
0000
0000
0000
,
0001
0000
0000
0000
,
1000
0000
0000
0000
,
0001
0000
0000
0000
,
0010
0000
0000
0000
,
0010
0000
0000
0000
,
0100
0000
0000
0000
,
0100
0000
0000
0000
,
2000
0000
0000
0000
,
0000
0000
0000
0000
,
3000
0000
0000
0000
,
0000
0000
0000
0000
,
0002
0000
0000
0000
,
0000
0000
0000
0000
,
0003
0000
0000
0000
,
1000
0000
1000
0000
,
0100
0000
0100
0000
,
0010
0000
0010
0000
,
0220
0000
0000
0000
,
0000
0000
0330
0000
,
0000
0000
0000
0000
,
0100
0000
0000
0000
,
1000
0000
0000
0000
,
1000
0000
0000
0000
,
0001
0000
0000
0000
,
0001
0000
0000
0000
,
0100
0000
0000
0000
,
0100
0000
0000
0000
,
0010
0000
0000
0000
,
0010
0000
0000
0000
,
1000
0000
0000
0000
,
1000
0000
0000
0000
,
0001
0000
0000
0000
,
1000
0000
0000
0000
,
0001
0000
0000
0000
,
1000
0000
0000
0000
,
0010
0000
0000
0000
,
0100
0000
0000
0000
,
0010
0000
0000
0000
,
0100
0000
0000
0000
,
0001
0000
0000
0000
,
0010
0000
0000
0000
,
0100
0000
0000
0000
,
1000
0000
0000
0000
,
0001
0000
0000
0000
,
0100
0000
0000
0000
,
0220
0000
0330
0000
;

//---------------dance-single - ----------------
#NOTES:
     dance-single:
     :
     Medium:
     9:
     0.372306,0.535244,0.113640,0.128792,0.007576,312.000000,15.000000,17.000000,0.000000,0.000000,0.000000,0.372306,0.535244,0.113640,0.128792,0.007576,312.000000,15.000000,17.000000,0.000000,0.000000,0.000000:
// measure 0
0000
0000
0000
0000
,  // measure 1
0000
0000
0000
0000
,  // measure 2
0000
0000
0000
0000
,  // measure 3
0000
0000
0000
0000
0000
0000
0010
0100
,  // measure 4
0000
0000
0000
1000
,  // measure 5
0000
0000
0000
0000
,  // measure 6
0001
0000
0100
0100
,  // measure 7
0100
0010
1000
0001
,  // measure 8
0001
0100
0001
0010
0100
1000
1000
0001
,  // measure 9
0001
0100
0010
1000
0100
0010
0010
0000
,  // measure 10
0000
0000
0100
0000
1000
0000
0001
0000
0100
0000
0000
0100
0000
0000
0000
0000
,  // measure 11
0010
0000
0000
0010
0000
0000
1000
0000
0000
0000
0000
0000
1001
0000
0000
0000
,  // measure 12
0001
0001
0100
0001
,  // measure 13
0010
0100
1000
1000
,  // measure 14
0001
0001
0100
0010
,  // measure 15
1000
0100
0010
0010
,  // measure 16
0000
0000
0100
1000
,  // measure 17
0001
0000
0100
0000
0000
0100
0000
0000
,  // measure 18
0000
0000
0010
0000
0000
0010
0000
0000
,  // measure 19
1000
0000
0000
0001
,  // measure 20
0010
0000
2000
3010
0100
1000
0200
0301
,  // measure 21
0010
0010
0001
0001
1000
1000
0020
0130
,  // measure 22
0000
0010
1000
1000
0001
0001
0010
0010
,  // measure 23
0100
0100
1200
0000
0310
0000
0000
0000
,  // measure 24
2000
0000
3001
0000
1000
0010
1000
0000
,  // measure 25
0020
0130
0010
0010
,  // measure 26
0100
0000
0001
0000
1000
0001
1000
0001
,  // measure 27
1000
0010
0000
0100
,  // measure 28
0001
0001
0010
0100
,  // measure 29
0010
0100
0010
0000
0001
0000
0000
1000
,  // measure 30
0000
0010
0000
0000
0100
0000
0000
0000
,  // measure 31
0001
1000
0001
0001
,  // measure 32
0010
0100
0010
0100
0010
0000
0100
0000
,  // measure 33
1000
0001
1000
0001
1000
0000
0001
0000
,  // measure 34
0100
0000
0010
0000
,  // measure 35
1000
0001
0010
0010
,  // measure 36
0100
1000
0000
1000
0000
0000
0100
1000
,  // measure 37
0000
1000
0000
0000
1001
0000
0000
0000
,  // measure 38
0001
0100
0000
0100
0000
0000
0001
0100
,  // measure 39
0000
0100
0000
0000
0110
0000
0000
0000
,  // measure 40
0010
0000
0000
1000
0000
0010
0000
1000
,  // measure 41
0000
0001
0000
0010
0100
0000
0010
0100
,  // measure 42
1000
0000
0001
0000
,  // measure 43
0001
0100
0001
0000
,  // measure 44
0010
0100
0000
1000
0000
0010
0000
0100
,  // measure 45
0000
0001
0000
1000
0000
0001
1000
0000
,  // measure 46
0200
0000
0000
0000
0000
0000
0310
0100
,  // measure 47
2000
3010
1000
0100
0020
0130
0010
0010
,  // measure 48
0001
0001
0100
0010
2000
3001
0000
0001
,  // measure 49
0010
0010
0100
1000
0010
0010
0100
0000
,  // measure 50
0101
0101
0202
0000
,  // measure 51
0000
0000
0303
0000
,  // measure 52
0002
1003
0001
0010
,  // measure 53
0200
0310
0100
0100
,  // measure 54
1000
0100
1000
0000
0001
0000
0001
0000
,  // measure 55
0100
0010
1000
0001
,  // measure 56
0010
0001
0010
0000
0001
0000
1000
0000
,  // measure 57
0010
1000
0010
0000
0100
0000
0001
0000
,  // measure 58
1000
0001
0000
0001
1000
0000
0001
0000
,  // measure 59
0000
0011
0100
0000
,  // measure 60
1000
0001
1000
0001
1000
0000
0001
0000
,  // measure 61
0010
0100
0010
0100
0010
0000
0100
0000
,  // measure 62
0110
0110
0110
0110
,  // measure 63
0110
0000
0110
0000
0010
0100
0010
0100
,  // measure 64
0010
0000
0000
0001
0100
0001
0100
0000
,  // measure 65
0000
0000
0000
0001
1000
0001
1000
0000
,  // measure 66
0100
0000
0010
0000
,  // measure 67
0001
1000
0001
1000
0001
0000
0100
0000
,  // measure 68
0010
1000
0000
1000
0000
0000
0010
1000
,  // measure 69
0000
1000
0000
0000
0010
0100
0000
0000
,  // measure 70
0001
1000
0000
1000
0000
0000
1000
0000
,  // measure 71
0000
1000
0000
0000
1000
0000
0000
0000
,  // measure 72
0001
0000
0000
0000
0010
0100
0010
0000
,  // measure 73
0001
0200
0310
0000
,  // measure 74
0010
0000
0000
0000
1000
0001
1000
0000
,  // measure 75
0100
0000
0010
0100
0000
0100
1000
0000
,  // measure 76
0010
0100
0000
0100
0000
0000
0010
0100
,  // measure 77
0000
0100
0000
0000
0001
0000
0000
0000
,  // measure 78
2002
0000
3003
0000
;
