#TITLE:Latch;
#SUBTITLE:Feat. Sam Smith;
#ARTIST:Disclosure;
#TITLETRANSLIT:;
#SUBTITLETRANSLIT:;
#ARTISTTRANSLIT:;
#GENRE:;
#CREDIT:;
#BANNER:Latch (feat. Sam Smith).png;
#BACKGROUND:Latch (feat. Sam Smith)-bg.png;
#LYRICSPATH:;
#CDTITLE:;
#MUSIC:[12ths Week] - Latch (feat. Sam Smith).ogg;
#OFFSET:0.650133;
#SAMPLESTART:87.859947;
#SAMPLELENGTH:12.000000;
#SELECTABLE:YES;
#BPMS:0.000000=122.000000
,100.000000=30.500000
,108.000000=61.000000
,124.000000=122.000000
;
#STOPS:
;
#BGCHANGES:1.500=Latch (feat. Sam Smith).avi=1.000=0=0=0=StretchNoLoop====,
99999=-nosongbg-=1.000=0=0=0 // don't automatically add -songbackground-
;
#KEYSOUNDS:;
#ATTACKS:;

//---------------dance-single - ----------------
#NOTES:
     dance-single:
     :
     Beginner:
     3:
     0.082811,0.082375,0.000000,0.000000,0.000000,76.000000,0.000000,0.000000,0.000000,0.000000,0.000000,0.082811,0.082375,0.000000,0.000000,0.000000,76.000000,0.000000,0.000000,0.000000,0.000000,0.000000:
0000
0000
0000
0000
,
0000
0000
0000
0000
,
0000
0000
0000
0000
,
0000
0000
0000
0000
,
0000
0000
0000
0000
,
1000
0000
1000
0000
,
0001
0000
0001
0000
,
0100
0000
0100
0000
,
0010
0000
0010
0000
,
1000
0000
1000
0000
,
0001
0000
0000
0000
,
0001
0000
0001
0000
,
1000
0000
0000
0000
,
0100
0000
0100
0000
,
1000
0000
0000
0000
,
0001
0000
0001
0000
,
0010
0000
0000
0000
,
1000
0000
1000
0000
,
0100
0000
0000
0000
,
0010
0000
0010
0000
,
0001
0000
0000
0000
,
0100
0000
0100
0000
,
0010
0000
0000
0000
,
0010
0000
0010
0000
,
0100
0000
0000
0000
,
0001
0000
0010
0000
,
0100
0000
1000
0000
,
0010
0000
0010
0000
,
0100
0000
0100
0000
,
0001
0000
0001
0000
,
1000
0000
1000
0000
,
0100
0000
0100
0000
,
1000
0000
0000
0000
,
0010
0000
0010
0000
,
1000
0000
0000
0000
,
0100
0000
0100
0000
,
0010
0000
0000
0000
,
0001
0000
0001
0000
,
0010
0000
0000
0000
,
0001
0000
0001
0000
,
0100
0000
0000
0000
,
0010
0000
0010
0000
,
1000
0000
0000
0000
,
0100
0000
0100
0000
,
1000
0000
0000
0000
,
0001
0000
0001
0000
,
1000
0000
0000
0000
,
0010
0000
0000
0000
,
1000
0000
0000
0000
,
0001
0000
0000
0000
,
0100
0000
0000
0000
,
0010
0000
0000
0000
,
1000
0000
0000
0000
,
0100
0000
0000
0000
,
0010
0000
0000
0000
;

//---------------dance-single - ----------------
#NOTES:
     dance-single:
     :
     Easy:
     6:
     0.181966,0.313196,0.038136,0.000000,0.000000,162.000000,5.000000,0.000000,0.000000,0.000000,0.000000,0.181966,0.313196,0.038136,0.000000,0.000000,162.000000,5.000000,0.000000,0.000000,0.000000,0.000000:
0000
0000
0000
0000
,
0000
0000
0000
0000
,
0000
0000
0000
0000
,
0000
0000
0000
0000
,
0000
0000
0000
0000
,
1000
1000
0100
0000
,
0001
0001
0100
0000
,
1000
1000
0010
0000
,
0001
0001
0010
0000
,
1000
0000
0000
0001
,
0100
0100
0000
0010
,
1000
0100
0010
0100
,
1000
0000
1000
1000
,
0001
0000
0000
0100
,
0010
0010
0000
0100
,
0001
0010
0100
1000
,
0100
0000
0100
0100
,
1000
0000
0000
0010
,
0100
0001
0000
1000
,
0100
0010
0100
1000
,
0001
0000
0100
0100
,
0010
0000
0000
1000
,
0010
0100
0000
0001
,
0010
0100
1000
0100
,
0010
0000
0001
0001
,
1000
0100
0010
0001
,
0100
0010
1000
0001
,
1000
0000
1000
0000
0100
0100
0100
0000
,
0010
0000
0010
0000
0001
0001
0001
0000
,
1100
0000
0101
0100
1010
0000
0011
0001
,
0001
0100
0000
0000
,
0001
0010
0100
1000
,
0010
0100
0001
0000
,
1000
0100
1000
0001
,
0100
0000
0100
0100
,
0010
1000
0010
0100
,
0001
0010
0100
0000
,
1000
0001
0100
0010
,
1000
0000
1000
1000
,
0001
0010
0001
0100
,
0010
0100
0001
0000
,
0100
0010
0100
0001
,
1000
0000
0100
0100
,
0010
0001
0100
0010
,
0100
0001
1000
0100
,
1000
0001
0010
0001
,
0100
0010
1000
1000
,
0001
0000
0001
0000
,
1000
0000
1000
0000
,
0010
0000
0100
0000
,
0010
0000
0100
0100
,
0001
0000
0010
0000
,
0100
0000
1000
0000
,
0010
0000
0100
0000
,
0001
0000
1000
1001
;

//---------------dance-single - ----------------
#NOTES:
     dance-single:
     :
     Medium:
     8:
     0.277852,0.334076,0.205937,0.099155,0.083900,215.000000,27.000000,13.000000,0.000000,0.000000,0.000000,0.277852,0.334076,0.205937,0.099155,0.083900,215.000000,27.000000,13.000000,0.000000,0.000000,0.000000:
0000
0000
0000
0000
,
0000
0000
0000
0000
,
0000
0000
0000
0000
,
0000
0000
0000
0000
,
0000
0000
0000
0000
,
1000
0000
1000
0100
,
0010
0000
0010
0001
,
0100
0000
0010
0100
,
0001
0000
1001
1001
,
0100
0010
0001
0100
,
0010
0000
0000
0100
0000
0000
0001
0000
0000
0010
0000
0100
,
1000
0001
0100
0010
,
2000
3000
0011
1100
,
0001
0100
0010
1000
,
0100
0000
0000
0010
0000
0000
0100
0000
0000
1000
0000
0010
,
0100
0001
0010
0001
,
0200
0300
0110
1010
,
1000
0100
0010
0100
,
1000
0000
0000
0001
0000
0000
0100
0000
0000
0010
0000
1000
,
0100
0010
0100
1000
,
0002
0003
0101
1010
,
0010
0100
0001
0010
,
0100
0000
0000
1000
0000
0000
0001
0000
0000
0100
0000
0010
,
0100
0001
0010
0100
,
2000
3000
1100
0011
,
2000
0000
3000
0000
0200
0000
0300
0000
2000
0000
3000
0000
0020
0000
0130
0100
,
0020
0000
0030
0000
2000
0000
3000
0000
0002
0000
0003
0000
0010
0100
0010
0100
,
1000
0000
0001
0000
0010
0100
1000
0100
,
0010
0000
0010
0000
0001
0100
0010
0100
,
0101
0000
1010
0100
0011
0000
1001
0100
,
1001
2020
0000
3030
,
0001
0000
0000
0010
0000
0000
0100
0000
0100
1000
0000
0000
,
0010
0000
0000
0100
0000
0000
0001
0000
0000
0000
0000
1000
,
0001
0000
0000
1000
0000
0000
0010
0000
0100
0001
0000
0000
,
0010
0100
1100
0011
,
0001
0000
0000
0100
0000
0000
0010
0000
1000
0010
0000
0000
,
0100
0000
0000
0001
0000
0000
0010
0000
0000
0000
0000
0100
,
1000
0000
0000
0001
0000
0000
0100
0000
0010
0100
0000
0000
,
1001
0000
0110
0110
,
0001
0000
0000
0100
0000
0000
0010
0000
1000
0100
0000
0000
,
1000
0000
0000
0010
0000
0000
0100
0000
0000
0000
0000
0001
,
0010
0000
0000
0001
0000
0000
0100
0000
0010
0100
0000
0000
,
0001
0010
1001
0110
,
0001
0000
0000
0100
0000
0000
0010
0000
1000
0100
0000
0000
,
1000
0000
0000
0010
0000
0000
0100
0000
0001
0100
0000
0001
,
0100
0000
0000
0010
0000
0000
1000
0000
0100
0010
0000
0000
,
0001
0000
0001
1000
0000
0000
0001
0000
0001
1000
0000
0000
,
0001
0100
0010
1000
,
0100
0010
0100
1000
,
0001
0100
0010
1000
,
0100
0010
0011
1100
,
0001
0100
0010
1000
,
0100
0010
0100
1000
,
0001
1000
0010
0100
,
0001
0000
1001
1001
;

//---------------dance-single - ----------------
#NOTES:
     dance-single:
     :
     Hard:
     11:
     0.387903,0.501114,0.251701,0.289837,0.289837,285.000000,33.000000,38.000000,0.000000,0.000000,0.000000,0.387903,0.501114,0.251701,0.289837,0.289837,285.000000,33.000000,38.000000,0.000000,0.000000,0.000000:
0000
0000
0000
0000
,
0000
0000
0000
0000
,
0000
0000
0000
0000
,
0000
0000
0000
0000
,
0000
0000
0011
1100
,
0001
0000
0000
0100
0000
0000
0010
0000
0010
1000
0000
0000
,
0100
0000
0000
1000
0000
0000
0010
0000
0010
0100
0000
0100
,
0001
0000
0000
1000
0000
0000
0100
0000
1000
0010
0000
0010
,
0100
0001
1100
0011
,
2000
0000
0000
0010
0000
0000
0100
0000
0000
3010
0000
0100
,
0002
0000
0000
0010
0000
0000
0100
0000
0000
0013
0000
0001
,
2000
0010
3200
0001
,
1300
0000
0011
1100
,
0020
0000
0000
1000
0000
0000
0001
0000
0000
1030
0000
1000
,
0200
0000
0000
0001
0000
0000
1000
0000
0000
0301
0000
0100
,
0020
0100
0032
0100
,
1003
0000
0011
1100
,
0002
0000
0000
0010
0000
0000
0100
0000
0000
0013
0000
0010
,
0200
0000
0000
1000
0000
0000
0010
0000
0000
1300
0000
0010
,
0200
0001
0320
0001
,
1030
0000
1010
0101
,
0002
0000
0000
0010
0000
0000
0100
0000
0000
0013
0000
0100
,
2000
0000
0000
0010
0000
0000
0100
0000
0000
3010
0000
0100
,
0002
0100
2003
0010
,
3100
0000
0011
1100
,
0002
0000
0000
0000
0023
0000
0000
0000
0230
0000
0000
0000
2300
0000
3001
0001
,
0200
0000
0000
0000
0320
0000
0000
0000
2030
0000
0000
0000
3002
0100
0100
0103
,
0010
0000
0000
1000
0000
0000
0100
0000
0000
1000
0000
0000
0010
0000
0000
0100
0000
0000
0001
0010
0001
0010
0000
0000
,
0100
0000
0000
1000
0000
0000
0100
0000
0000
0001
0000
0000
0100
0000
0000
1000
0000
0000
0100
0010
0100
0010
0000
0000
,
0011
0100
1010
0110
0011
0100
1010
0110
,
1001
0000
0101
1100
0000
0000
0000
0000
,
0001
0000
0000
0010
0000
0000
0100
0000
0100
1000
0000
0000
,
0020
0000
0000
0001
0000
0000
1030
0000
0000
0010
0000
1000
,
0200
0000
0000
0001
0000
0000
1300
0000
0001
0100
0000
0000
,
0010
0100
1010
0101
,
0002
0000
0000
0010
0000
0000
0103
0000
0100
0010
0000
0000
,
2000
0000
0000
0100
0000
0000
3001
0000
0000
1000
0000
0010
,
0200
0000
0000
1000
0000
0000
0301
0000
0010
0100
0000
0000
,
2002
3003
0011
1100
,
0002
0000
0000
0100
0000
0000
1003
0000
0010
0100
0000
0000
,
0020
0000
0000
0001
0000
0000
1030
0000
0000
0010
0000
1000
,
0200
0000
0000
0001
0000
0000
1300
0000
1000
0001
0000
0000
,
0101
0000
0010
0100
0000
0000
0110
0000
0000
1010
0000
0000
,
0020
0000
0000
1030
0000
0000
0100
0000
0100
1000
0000
0010
,
0200
0000
0000
1000
0000
0000
0301
0000
0010
0001
0000
0100
,
0020
0000
0000
0001
0000
0000
1030
0000
0010
0100
0000
0000
,
0010
1000
0100
0010
0000
0000
0010
0100
0010
0001
0000
0000
,
0001
0000
0001
0100
0010
0100
0010
0000
0010
1000
0100
1000
,
0100
0000
0100
1000
0010
1000
0010
0000
0010
0100
0010
0100
,
0001
0000
0001
0010
0100
1000
0010
0000
0100
0001
0100
0010
,
1000
0000
1000
0100
0000
0000
0011
0000
0000
1100
0000
0000
,
0001
0000
1000
0010
0100
0001
0010
0000
0100
1000
0100
0001
,
0100
0000
0100
1000
0010
0100
0001
0000
1000
0001
0100
0010
,
0001
0000
0010
0100
0001
0010
0100
0000
1000
0100
0010
0001
,
0200
0300
1001
0110
;

//---------------dance-single - ----------------
#NOTES:
     dance-single:
     :
     Challenge:
     14:
     0.619990,1.000000,0.259328,0.099155,1.000000,522.000000,34.000000,13.000000,0.000000,0.000000,0.000000,0.619990,1.000000,0.259328,0.099155,1.000000,522.000000,34.000000,13.000000,0.000000,0.000000,0.000000:
// measure 0
0000
0000
0000
0000
,  // measure 1
0000
0000
0000
0000
,  // measure 2
0000
0000
0000
0000
,  // measure 3
0000
0000
0000
0000
,  // measure 4
0000
0000
0000
0000
0000
0000
1100
0000
0000
0100
0020
0000
,  // measure 5
0031
0000
0000
0011
0000
0000
0001
0000
0100
0001
0000
0000
,  // measure 6
1000
0000
0000
1100
0000
0000
0100
0000
0010
0100
0000
0100
,  // measure 7
1000
0000
0000
1001
0000
0000
0001
0000
0100
0010
0000
0100
,  // measure 8
0001
0000
0000
1001
0000
0000
1100
0000
0000
0100
0020
0000
,  // measure 9
0031
0000
0000
0011
0000
0000
0001
0000
0100
0001
0000
0001
,  // measure 10
1000
0000
0000
1100
0000
0000
0100
0000
0010
0100
0000
0100
,  // measure 11
1000
0000
0000
1001
0000
0000
0001
0000
0001
0100
0000
0100
,  // measure 12
0010
0000
0000
1010
0000
0000
1001
0000
0000
0001
0020
0000
,  // measure 13
0130
0000
0000
0110
0000
0000
0010
0000
0001
0010
0000
0001
,  // measure 14
0100
0000
0000
0110
0000
0000
0010
0000
1000
0010
0000
1000
,  // measure 15
0001
0000
0000
0011
0000
0000
0010
0000
0100
0010
0000
0000
,  // measure 16
0100
0000
0000
1100
0000
0000
1001
0000
0000
0001
0200
0000
,  // measure 17
0310
0000
0000
0110
0000
0000
0100
0000
0001
0100
0000
0001
,  // measure 18
1000
0000
0000
1100
0000
0000
0100
0000
0100
0010
0000
0010
,  // measure 19
0001
0000
0000
1001
0000
0000
1000
0000
1000
0010
0000
0000
,  // measure 20
0100
0010
1000
0001
0000
0000
1001
0000
0000
0001
2000
0000
,  // measure 21
3100
0000
0000
1100
0000
0000
0100
0000
0010
0100
0000
0100
,  // measure 22
1000
0000
0000
1001
0000
0000
0001
0000
0100
0001
0000
0001
,  // measure 23
0010
0000
0000
0110
0000
0000
0010
0000
0001
0010
0000
0010
,  // measure 24
0100
0000
0000
1100
0000
0000
1001
0000
0000
1000
0002
0000
,  // measure 25
0000
1003
0001
0010
0100
0010
0000
0100
1000
0010
0100
0010
0000
0100
0001
0100
0010
1000
0000
0100
0010
0100
1000
0001
0000
0100
0001
0100
0010
1000
0000
0001
1000
0001
0010
0100
0000
0010
0100
1000
0001
0100
0010
0000
0000
0010
2000
0000
,  // measure 26
0000
3001
1000
0100
0010
0100
0000
1000
0100
0010
0001
0100
0000
0001
0100
0001
0010
0100
0000
0010
0001
0100
0001
1000
0000
0100
1000
0010
0100
0010
0000
0100
0001
0010
0100
0010
0000
0100
1000
0100
0000
1000
0001
0000
0001
0100
0000
0000
,  // measure 27
0010
0000
0000
1010
0000
0000
1000
0000
1000
0001
0000
0000
0010
0000
0100
0010
0000
0010
0001
0000
0001
1000
0000
0000
,  // measure 28
0010
0000
0000
0110
0000
0000
0100
0000
0000
0101
0000
0000
0001
0000
1000
0001
0000
0001
0010
0000
0010
0100
0000
0000
,  // measure 29
1100
0000
1100
0010
0101
0000
0011
0100
,  // measure 30
2010
0000
3010
1000
0000
0002
0000
0000
0000
0013
0000
0000
0000
0001
0010
0100
1000
0001
0100
0000
0000
0010
0100
0001
,  // measure 31
1000
0000
0100
0000
1000
0100
1000
0000
0001
0000
1000
0000
0001
0000
0100
0000
0010
0000
0100
0000
0001
0000
0010
0000
,  // measure 32
0100
0000
1000
0000
0100
0000
1000
0000
0001
0000
1000
0000
0001
0000
0100
0000
0001
0000
0100
0000
0010
0100
0010
0000
,  // measure 33
0100
0001
0100
0001
0010
0100
1000
0010
0100
0010
1000
0001
,  // measure 34
0100
0000
0001
0000
0100
0000
0010
0000
0100
0000
0010
0000
1000
0000
0010
0000
1000
0000
0001
0000
1000
0000
0001
1000
,  // measure 35
0010
0100
0010
0100
0001
0100
0001
1000
0100
1000
0100
0001
,  // measure 36
0100
0000
0010
0000
0100
0000
0010
0000
0001
0000
0010
0000
0001
0000
1000
0000
0001
0000
1000
0000
0010
1000
0010
0000
,  // measure 37
0100
0001
0100
0001
0010
0100
0010
0100
1000
0010
0100
0001
,  // measure 38
1000
0000
0000
0000
0000
0000
1001
0000
0100
0001
0020
0000
,  // measure 39
0130
0010
0100
1000
0100
1000
0001
0100
0010
1000
0001
1000
,  // measure 40
0001
0000
0010
0000
0001
0000
0100
0000
0010
0000
0100
0000
0010
0000
1000
0000
0010
0000
1000
0000
0001
1000
0001
0000
,  // measure 41
0010
0100
0010
0001
1000
0001
0100
0001
1000
0010
1000
0010
,  // measure 42
0100
0001
0100
0001
0010
0001
0010
0100
0010
0100
1000
0001
,  // measure 43
0100
0010
0100
0010
1000
0010
1000
0100
0010
0001
0100
0001
,  // measure 44
1000
0000
0010
0000
1000
0000
0001
0000
0010
0000
0001
0000
1000
0000
0100
0000
1000
0000
0100
0000
0010
0100
0010
0000
,  // measure 45
0001
0010
0001
0100
0010
0100
0010
1000
0001
0100
0010
0100
,  // measure 46
0010
1000
0001
1000
0000
0000
0100
1000
0010
0200
0001
0301
,  // measure 47
0000
0000
0000
0000
0100
0010
0100
0000
0001
0000
0100
0000
0001
0000
1000
0000
0001
0000
1000
0000
0100
0000
0001
0000
,  // measure 48
0100
0000
0010
0000
0100
0000
1000
0000
0010
0000
0100
0000
0001
0000
0010
0000
0001
0000
0100
0000
0010
0100
0010
0000
,  // measure 49
0100
0001
0010
0100
0001
0100
1000
0010
0100
1000
0100
1000
,  // measure 50
0100
0000
0001
0000
0010
0000
0100
0000
1000
0000
0001
0000
0100
0000
0010
0000
1000
0000
0002
0000
0010
0000
0013
0001
,  // measure 51
0100
0001
1000
0100
1000
0010
0100
0010
1000
0100
0001
0100
,  // measure 52
0010
0000
0100
0000
1000
0000
0010
0000
0100
0000
0001
0000
1000
0000
0001
0000
0100
0000
0001
0000
1000
0010
1000
0000
,  // measure 53
0100
0010
0100
1000
0001
1000
0001
0100
0010
1000
0100
0010
,  // measure 54
0100
0000
1000
0000
0001
0000
0100
0000
0010
0000
1000
0000
0001
0000
0000
0000
1000
0001
1000
0000
0020
0000
0130
0000
;
