#TITLE:High Hopes;
#SUBTITLE:;
#ARTIST:Panic! at the Disco;
#TITLETRANSLIT:;
#SUBTITLETRANSLIT:;
#ARTISTTRANSLIT:;
#GENRE:Pop;
#CREDIT:;
#BANNER:bn.png;
#BACKGROUND:bg.png;
#LYRICSPATH:;
#CDTITLE:;
#MUSIC:song.ogg;
#OFFSET:-0.000000;
#SAMPLESTART:46.009998;
#SAMPLELENGTH:15.000000;
#SELECTABLE:YES;
#BPMS:0.000000=163.960999
,96.000000=81.980003
,112.000000=163.960999
,208.000000=81.980003
,238.000000=163.960999
;
#STOPS:
;
#BGCHANGES:;
#KEYSOUNDS:;
#ATTACKS:;

//---------------dance-single - ----------------
#NOTES:
     dance-single:
     :
     Beginner:
     1:
     0.064838,0.085100,0.000000,0.050430,0.000000,54.000000,54.000000,0.000000,6.000000,0.000000,0.000000,0.064838,0.085100,0.000000,0.050430,0.000000,54.000000,54.000000,0.000000,6.000000,0.000000,0.000000:
0000
0000
0000
0000
,
0000
0000
0000
0000
,
0000
0000
0000
0000
,
0000
0000
0000
0000
,
0000
0000
0000
0000
,
0000
0000
0000
0000
,
0000
0000
0000
0000
,
0000
0000
0000
0000
,
1000
0000
0000
0000
,
1000
0000
0000
0000
,
0001
0000
0000
0000
,
0001
0000
0000
0000
,
0100
0000
0000
0000
,
0100
0000
0000
0000
,
0010
0000
0000
0000
,
0010
0000
0000
0000
,
1000
0000
0000
0000
,
0100
0000
0000
0000
,
1000
0000
0000
0000
,
0001
0000
0000
0000
,
0100
0000
0000
0000
,
0001
0000
0000
0000
,
0100
0000
0000
0000
,
0010
0000
0000
0000
,
2000
0000
0000
0000
,
3000
0000
0000
0000
,
0002
0000
0000
0000
,
0003
0000
0000
0000
,
0010
0000
0000
0000
,
0010
0000
0000
0000
,
0100
0000
0000
0000
,
0100
0000
0000
0000
,
1000
0000
0000
0000
,
1000
0000
0000
0000
,
0001
0000
0000
0000
,
0001
0000
0000
0000
,
0100
0000
0000
0000
,
0001
0000
0000
0000
,
0100
0000
0000
0000
,
0010
0000
0000
0000
,
1000
0000
0000
0000
,
0001
0000
0000
0000
,
1000
0000
0000
0000
,
0100
0000
0000
0000
,
0010
0000
0000
0000
,
0010
0000
0000
0000
,
0100
0000
0000
0000
,
0100
0000
0000
0000
,
0010
0000
0000
0000
,
0010
0000
0000
0000
,
0100
0000
0000
0000
,
0100
0000
0000
0000
,
2000
0000
0000
0000
,
3000
0000
0000
0000
,
0002
0000
0000
0000
,
0003
0000
0000
0000
,
0200
0000
0000
0000
,
0300
0000
0000
0000
,
0020
0000
0000
0000
,
0030
0000
0000
0000
,
0000
0000
1000
0000
,
0000
0000
1000
0000
,
0000
0000
0001
0000
,
0000
0000
0001
0000
,
0000
0000
0010
0000
,
0000
0000
0010
0000
,
0000
0000
0100
0000
,
0000
0000
0100
0000
;

//---------------dance-single - ----------------
#NOTES:
     dance-single:
     :
     Easy:
     6:
     0.193315,0.315502,0.117670,0.277365,0.000000,161.000000,147.000000,14.000000,33.000000,0.000000,0.000000,0.193315,0.315502,0.117670,0.277365,0.000000,161.000000,147.000000,14.000000,33.000000,0.000000,0.000000:
0000
0000
0000
0000
,
0000
0000
0000
0000
,
0000
0000
0000
0000
,
0000
0000
0000
0000
,
0000
0000
0000
0000
,
0000
0000
0000
0000
,
0000
0000
0000
0000
,
0000
0000
1000
0000
,
0001
0000
0001
0000
,
0001
0000
0100
0000
,
0010
0000
0010
0000
,
0010
0000
1000
0000
,
0100
0000
0100
0000
,
0100
0000
0010
0000
,
0001
0001
0000
1001
,
0000
0000
0000
0000
,
1000
1000
0000
0200
,
0310
0000
0100
0000
,
0010
0010
0010
0000
,
0100
0100
0100
0000
,
1000
1000
1000
0000
,
0001
0001
0001
0000
,
0100
0100
0000
0010
,
0010
0010
0000
1000
,
0002
0003
2000
3000
,
0002
0003
2000
3000
,
0020
0030
0200
0300
,
0020
0000
0030
0000
0200
0000
0301
0001
,
0100
0100
0100
0000
,
0010
0000
0010
0000
,
1000
1000
1000
0000
,
0001
0000
0001
0000
,
0010
0010
0010
0000
,
0100
0000
0100
0000
,
1000
1000
0000
1002
,
0100
0100
0000
0103
,
0001
0001
0000
0010
,
0010
0100
0100
0000
,
1000
1000
1000
0000
,
0001
0001
0001
0000
,
0100
0100
0100
0000
,
0001
0001
0001
0000
,
1000
1000
0000
0100
,
0100
0100
0000
0000
,
0010
0000
0002
0000
,
1003
0000
0002
0000
,
1003
0000
0002
0000
,
0103
0000
0001
0000
,
0010
0000
0200
0000
,
1300
0000
0200
0000
,
1300
0000
0200
0000
,
0310
0000
0100
0100
,
0200
0300
0020
0030
,
0200
0300
0020
0030
,
0002
0003
2000
3000
,
0002
0003
2000
3000
,
0020
0030
2000
3000
,
0200
0300
2000
3000
,
0020
0030
0200
0300
,
0002
0003
0100
0100
,
0100
0100
0110
0110
,
0110
0000
0010
0000
,
1000
0000
1001
1001
,
1001
0000
0001
0000
,
0010
0000
0011
0011
,
0011
0000
0010
0000
,
0100
0000
1100
1100
,
0000
2200
0000
0000
,
0000
3300
0000
0000
;

//---------------dance-single - ----------------
#NOTES:
     dance-single:
     :
     Medium:
     10:
     0.411844,0.662103,0.235340,0.168100,0.239542,343.000000,315.000000,28.000000,20.000000,0.000000,0.000000,0.411844,0.662103,0.235340,0.168100,0.239542,343.000000,315.000000,28.000000,20.000000,0.000000,0.000000:
0000
0000
0000
0000
,
0000
0000
0000
0000
,
0000
0000
0000
0000
,
0000
0000
0000
0000
,
0000
0000
0000
0000
,
0000
0000
0000
0000
,
1000
2000
0000
3002
,
0103
0000
0000
0000
0001
0010
0001
0000
,
1000
1000
1000
0010
,
0100
0001
0000
0000
1000
0100
1000
0000
,
0010
0010
0010
0100
,
0001
1000
0000
0000
0001
0010
0001
0000
,
0010
0010
0010
0100
,
1000
0010
0000
0000
1000
0001
1000
0000
,
0100
0200
0000
0320
,
0031
0000
0000
0000
,
0010
0100
0010
0000
0001
0000
2000
0000
,
3010
0000
1000
0000
0100
1000
0100
0000
,
0010
0000
0010
0000
0001
1000
0000
0000
,
0010
0000
0010
0000
1000
0001
0000
0000
,
0010
0010
0000
0100
0010
0100
0000
0000
,
1000
0100
1000
0100
0000
0000
1000
0000
,
0001
0100
0001
0000
0000
0000
0100
0000
,
0010
1000
0010
0000
0000
1000
0001
0020
,
0000
0000
0000
0000
0000
0031
0010
0200
0000
0000
0000
0000
0000
1300
0100
0010
,
0000
0000
0010
0100
0000
0000
0100
0010
0000
0100
0000
0000
0000
1000
0010
0200
,
0000
0000
0000
0000
0000
0301
0100
0020
0000
0000
0000
0000
0000
1030
0010
0100
,
0000
0000
0100
0010
0000
0000
0010
0100
0000
0010
0000
0000
0100
0001
1000
0000
,
1100
1001
1100
1000
,
0001
0100
0000
0000
0010
0100
0010
0000
,
0110
1010
0110
0010
,
1000
0001
0000
0000
0010
0001
0010
0000
,
0011
0110
0011
0001
,
0100
0010
0000
0000
1000
0010
1000
0000
,
1001
0000
1002
0000
0000
0000
0013
0001
,
0100
0000
0200
0000
0000
0000
0310
0010
,
0100
0001
0100
0000
0000
0000
0010
0010
,
1000
0000
0001
0000
1000
0100
0010
0000
,
0100
1000
0100
1000
0001
0100
0001
0000
,
0000
0100
0010
0100
0020
0000
1030
0000
,
0010
1000
0001
0010
0000
0010
0000
0000
,
0001
0010
0100
1000
0000
0000
1000
0000
,
0001
0100
0001
0000
0000
0000
1000
0000
,
0001
0100
0001
0000
0000
0000
0010
0000
,
0100
0000
0000
0100
0000
0000
1000
0000
0010
0000
0100
0000
,
0001
0000
0000
0001
0000
0000
1000
0000
0010
0000
0100
0000
,
0001
0000
0000
0001
0000
0000
0010
0000
0001
0000
1000
0000
,
0100
0000
0020
0130
,
0010
0000
0000
0001
0000
0000
1000
0000
0100
0000
0010
0000
,
0001
0000
0000
0001
0000
0000
1000
0000
0100
0000
0010
0000
,
0001
0000
0000
0001
0000
0000
1000
0000
0010
0000
0100
0000
,
0020
0000
0000
0000
0000
1030
0010
0200
,
0000
0000
0000
0000
0000
0301
0100
0020
0000
0000
0000
0000
0000
1030
0010
0100
,
0000
0000
0100
0010
0000
0000
0010
0100
0000
0010
0000
0000
0000
1000
0001
0020
,
0000
0000
0000
0000
0000
0031
0010
0200
0000
0000
0000
0000
0000
0310
0100
1000
,
0000
0000
1000
0010
0000
0000
0010
1000
0000
0001
0000
0000
0000
0010
0100
0010
,
0100
0000
0100
0000
0100
0000
0100
1000
0100
1000
0001
0000
0100
0000
0001
0100
,
0000
0000
0101
0000
0000
1010
0000
0000
1001
0000
0000
0000
0001
0010
0001
0010
,
0001
0000
0001
0000
0001
0000
0001
0000
1000
0100
1000
0100
1000
0000
0010
0100
,
0000
0000
0110
0000
0000
1010
0000
0000
1001
0000
0000
0000
0001
0000
0000
0000
,
0010
0001
0010
0000
0011
0000
0110
0000
,
0011
0000
0001
0000
1000
0010
0000
0000
,
1000
0001
0010
0000
0110
0000
1100
0000
,
0110
0000
0010
0000
0001
0100
0000
0000
,
0010
1000
0010
0000
1010
0000
1100
0000
,
1010
0000
0010
0000
0100
0001
0000
0000
,
0010
0100
0010
0000
0110
0000
0120
0000
,
0000
0000
0031
0010
0100
0000
1000
0000
,
0001
2000
3000
0000
;

//---------------dance-single - ----------------
#NOTES:
     dance-single:
     :
     Hard:
     14:
     0.715625,0.949973,0.369819,0.243745,0.567337,596.000000,552.000000,44.000000,29.000000,0.000000,0.000000,0.715625,0.949973,0.369819,0.243745,0.567337,596.000000,552.000000,44.000000,29.000000,0.000000,0.000000:
// measure 0
0000
0000
0000
0000
,  // measure 1
0000
0000
0000
0000
,  // measure 2
0000
0000
0000
0000
,  // measure 3
0000
0000
0000
0000
,  // measure 4
1000
0000
1000
1000
1000
0000
1000
0000
,  // measure 5
0100
0000
0100
0100
0100
0000
0100
0000
,  // measure 6
0010
0000
0000
0000
0000
0000
0021
0000
0000
0001
0000
0000
0031
0000
0000
0000
0000
0000
0001
0000
0010
0000
0100
0000
,  // measure 7
1000
0000
1000
1000
1000
0010
1000
0000
,  // measure 8
1010
0000
0000
0000
0000
0000
0000
0000
0110
0000
0000
0000
0000
0000
0100
0001
0100
0000
0000
0000
0000
0000
0000
0000
0001
0000
0000
0000
0010
0000
0000
0000
,  // measure 9
0100
0010
0000
0001
0001
1000
0010
1000
,  // measure 10
0001
0000
0010
0100
0010
0010
0001
1000
,  // measure 11
0010
0000
0100
0000
0010
1000
0010
1000
0010
0000
0010
0000
1000
0000
0001
0000
,  // measure 12
0010
0000
0000
0000
0000
0000
0000
0000
0100
0000
0000
0000
0010
0000
0100
0010
0100
0000
0000
0000
1000
0000
0000
0000
0001
0000
0000
0000
0100
0000
0000
0000
,  // measure 13
0001
0100
0000
0010
1000
0001
1000
0000
,  // measure 14
1100
0000
0000
1200
0000
0000
0010
0000
0000
0301
0100
1000
,  // measure 15
0001
0000
0000
0000
0200
0000
0001
0300
0200
0000
0001
0300
0200
0000
0301
0000
,  // measure 16
0100
0000
0000
0100
0000
0000
0010
0000
0000
1000
0000
0000
0001
0000
0000
0001
0000
0000
0020
0000
0000
0000
0130
0000
,  // measure 17
0010
0001
0001
1000
0010
0001
0010
0000
,  // measure 18
1000
0000
0000
1000
0000
0000
0001
0000
0000
0010
0000
0000
1000
0000
0000
0010
0000
0000
0200
0000
0000
0000
1300
0000
,  // measure 19
0100
0100
0010
0001
1000
0001
0200
0000
,  // measure 20
0310
0010
0100
0001
1000
0100
0000
0000
,  // measure 21
0010
0010
0100
1000
0000
0010
1000
0001
,  // measure 22
0100
0001
1000
0000
0100
0000
0010
0100
,  // measure 23
1000
0100
0010
0000
0001
1000
1000
0010
,  // measure 24
0001
0010
1000
0010
0001
0010
1000
0010
0100
0010
1000
0010
0100
0010
1000
0010
,  // measure 25
0100
0001
1000
0001
0100
0001
1000
0001
0010
0001
1000
0001
0010
0001
1000
0001
,  // measure 26
0100
1000
0100
0001
0100
1000
0100
0001
0100
0010
1000
0010
0100
0010
1000
0010
,  // measure 27
1000
0001
0010
0001
1000
0001
0010
0001
2000
3200
0320
0032
2003
3001
1000
0000
,  // measure 28
1100
0000
0000
0000
0000
0000
0000
0000
0110
0000
0000
0000
0000
0000
0100
1000
0100
0000
0000
0000
0000
0000
0000
0000
1000
0000
0000
0000
1000
0000
0001
0000
,  // measure 29
0100
1000
0100
0001
0010
0010
0100
0010
,  // measure 30
0001
0000
0000
0000
0000
0000
0000
0000
1000
0000
0000
0000
1000
0000
0010
1000
0010
0000
0000
0000
1000
0000
0000
0000
0001
0000
0000
0000
0010
0000
0000
0000
,  // measure 31
0100
0000
0010
0000
0001
0100
0001
0100
0010
0000
0010
0000
1000
0000
0001
0000
,  // measure 32
0010
0000
0000
0000
0000
0000
0000
0000
0010
0000
0000
0000
0100
0000
0010
0100
0010
0000
0000
0000
0001
0000
0000
0000
1000
0000
0000
0000
0010
0000
1000
0000
,  // measure 33
0010
1000
0001
1000
0100
0010
0001
0000
,  // measure 34
0011
0000
0000
0012
0000
0000
1000
0000
0000
1003
0001
0010
,  // measure 35
0100
0000
0000
0000
0200
0000
0300
0000
0010
0100
0010
0100
2000
3000
2000
3000
,  // measure 36
0100
0010
0100
0010
0001
0100
0010
0010
,  // measure 37
1000
0100
0001
1000
0010
0001
0100
0000
,  // measure 38
0010
0010
1000
0001
0010
0100
1000
0010
,  // measure 39
0200
0001
0010
0301
0002
1000
0103
0001
,  // measure 40
0010
1000
0010
0001
0001
0100
0000
0010
,  // measure 41
1000
0010
0001
1000
0000
1000
0100
0001
,  // measure 42
1000
0100
0010
0000
0110
0000
0100
1000
,  // measure 43
0002
0000
0000
0103
0000
0000
0002
0000
0000
0000
0000
0000
0013
0000
0000
0000
0000
0000
0001
0000
0010
0000
0100
0000
,  // measure 44
1000
0000
0000
0000
0000
0000
0010
0000
0000
1000
0000
0000
0010
0000
0000
0000
1010
0000
0000
0000
0110
0000
0000
0000
,  // measure 45
0101
0000
0000
0000
0000
0000
0001
0000
0000
0010
0000
0000
0001
0000
0000
0000
0011
0000
0000
0000
0110
0000
0000
0000
,  // measure 46
1100
0000
0000
0000
0000
0000
1000
0000
0000
0010
0000
0000
0011
0000
0000
0000
1010
0000
0000
0000
1100
0000
0000
0000
,  // measure 47
0101
0000
0000
0000
0100
0000
1000
0000
0002
0000
0000
0103
0001
0000
0010
0000
,  // measure 48
0001
0000
0000
0000
0000
0000
0010
0000
0000
0100
0000
0000
1000
0000
0000
0000
1100
0000
0000
0000
0110
0000
0000
0000
,  // measure 49
0011
0000
0000
0000
0000
0000
0001
0000
0000
0100
0000
0000
0001
0000
0000
0000
0101
0000
0000
0000
0110
0000
0000
0000
,  // measure 50
1010
0000
0000
0000
0000
0000
0010
0000
0000
1000
0000
0000
1100
0000
0000
0000
1010
0000
0000
0000
0011
0000
0000
0000
,  // measure 51
0020
0230
0302
2003
3200
0310
0100
1000
,  // measure 52
0001
0100
1000
0100
0001
0100
1000
0100
0001
0010
1000
0010
0001
0010
1000
0010
,  // measure 53
0001
0100
0010
0100
0001
0100
0010
0100
0010
1000
0001
1000
0010
1000
0001
1000
,  // measure 54
0100
0001
0100
0010
0100
0001
0100
0010
0001
1000
0001
0100
0001
1000
0001
0100
,  // measure 55
0010
1000
0100
1000
0010
1000
0100
1000
0010
0001
1000
0001
0010
0001
1000
0001
,  // measure 56
0010
0000
0100
0000
0110
0000
0010
1000
0001
0010
0100
1000
0001
0100
0010
1000
,  // measure 57
0000
0010
1010
0000
1000
1001
0000
0001
0011
0000
0010
0100
1100
1000
0001
0100
,  // measure 58
0010
0000
0010
0000
0110
0000
0100
0001
1000
0100
0010
0001
1000
0010
0100
0001
,  // measure 59
0000
0010
0011
0000
0001
0101
0000
0100
0010
0000
1000
0000
0010
0000
1000
0000
,  // measure 60
0001
0000
0000
0000
0010
0000
0000
0000
0100
0000
0000
0000
0000
0000
0000
0000
0110
0000
0000
0000
0000
0000
0000
0000
0110
0000
0000
0000
0000
0000
0100
1000
,  // measure 61
0100
0000
0000
0000
1000
0000
0001
1000
0010
0000
0100
0000
0010
0000
1000
0000
,  // measure 62
0100
0100
0010
0000
0011
0000
0001
1000
,  // measure 63
0010
0000
0010
0000
0001
0000
0010
0000
1000
0000
0001
0000
0010
0001
0010
0001
,  // measure 64
1000
0000
0000
0000
1000
0000
0000
0000
0100
0000
0000
0000
0010
0000
0000
0000
0011
0000
0000
0000
0000
0000
0000
0000
0110
0000
0000
0000
0000
0000
0100
1000
,  // measure 65
0100
0000
0000
0000
1000
0000
0100
0010
0001
0000
0100
0000
0010
0000
1000
0000
,  // measure 66
0001
0010
0001
0000
0011
0000
0021
0000
,  // measure 67
0100
0000
0000
0000
0000
0000
0000
0000
0000
0000
0000
0000
1030
0000
0000
0000
0010
0000
0000
0000
0001
0000
0000
0000
0100
0000
0000
0000
0000
0000
0000
0000
0000
0000
0000
0000
0010
0000
0000
0100
0000
0000
0010
0000
0000
0100
0000
0000
,  // measure 68
0010
1000
0001
0020
0030
0000
0000
0000
;
