#VERSION:0.81;
#TITLE:Do What U Want (feat. R. Kelly);
#SUBTITLE:;
#ARTIST:Lady Gaga;
#TITLETRANSLIT:;
#SUBTITLETRANSLIT:;
#ARTISTTRANSLIT:;
#GENRE:Electro-Pop;
#ORIGIN:;
#CREDIT:;
#BANNER:Do What U Want (feat. R. Kelly).png;
#BACKGROUND:Do What U Want (feat. R. Kelly)-bg.png;
#PREVIEWVID:;
#JACKET:Do What U Want (feat. R. Kelly)-jacket.png;
#CDIMAGE:;
#DISCIMAGE:;
#LYRICSPATH:;
#CDTITLE:;
#MUSIC:Do What U Want (feat. R. Kelly).mp3;
#OFFSET:-0.058000;
#SAMPLESTART:59.100044;
#SAMPLELENGTH:15.000000;
#SELECTABLE:YES;
#BPMS:0.000=97.500;
#STOPS:;
#DELAYS:;
#WARPS:;
#TIMESIGNATURES:0.000=4=4;
#TICKCOUNTS:0.000=4;
#COMBOS:0.000=1;
#SPEEDS:0.000=1.000=0.000=0;
#SCROLLS:0.000=1.000;
#FAKES:;
#LABELS:0.000=Song Start;
#BGCHANGES:-0.500=Do What U Want (feat. R. Kelly).avi=1.000=0=0=0=StretchNoLoop====,
99999=-nosongbg-=1.000=0=0=0 // don't automatically add -songbackground-
;
#KEYSOUNDS:;
#ATTACKS:
;

//---------------dance-single - ----------------
#NOTEDATA:;
#CHARTNAME:;
#STEPSTYPE:dance-single;
#DESCRIPTION:;
#CHARTSTYLE:;
#DIFFICULTY:Hard;
#METER:11;
#RADARVALUES:0.371351,0.395765,0.215872,0.161904,0.107936,247.000000,24.000000,18.000000,0.000000,0.000000,0.000000,0.000000,0.000000,0.371351,0.395765,0.215872,0.161904,0.107936,247.000000,24.000000,18.000000,0.000000,0.000000,0.000000,0.000000,0.000000;
#CREDIT:;
#NOTES:
0000
0000
0000
0000
,
0000
0000
0000
0000
,
0000
0000
0000
0000
,
0000
0000
0000
0000
,
1000
0001
1000
0100
1000
0010
2000
0000
,
3001
0010
0001
1000
0001
0000
0101
0000
,
0100
0010
0100
0001
0100
1000
0200
0000
,
0310
1000
0010
0001
0010
0000
1100
0000
,
0200
0000
1300
0010
1000
0100
0010
0000
,
0002
0000
0103
0001
0100
0010
1000
0000
,
0020
0000
0130
0010
1000
0001
1000
0000
,
0001
0100
1000
0001
0010
1000
1001
0000
,
0020
0000
1030
0010
1000
0001
0010
0000
,
0200
0000
0310
0100
0010
0001
1000
0000
,
2000
0000
3100
0000
1000
0010
0001
0010
,
1000
0100
0001
0100
1000
0010
0110
0000
,
0020
0000
0001
0000
0100
0000
1030
1000
,
0002
0000
0010
0000
0100
0000
0013
0010
,
0001
0100
1000
0000
1000
0100
0001
0001
,
1000
0010
0001
0000
0001
0010
1000
1000
,
0200
0000
0010
0000
0001
0001
1300
1000
,
0020
0000
0001
0000
0001
0001
1030
1000
,
0100
0010
0001
1000
,
2002
0000
0000
0000
0000
0000
0000
3003
,
0001
0100
0010
1000
1010
1000
1100
0100
,
0010
0001
1000
0001
1001
0001
0101
0100
,
0010
1000
0010
1000
0000
0001
1000
0000
1100
0000
0000
0000
0012
0000
0000
0000
,
1003
0001
1000
0001
0000
0100
0010
0000
0110
0000
0000
0000
2010
0000
0000
0000
,
3010
0010
1000
0010
0101
0100
0110
0010
,
1000
1000
0001
0100
1001
1000
1100
0100
,
0010
0001
0010
0001
0000
1000
0001
0000
0101
0000
0000
0000
0210
0000
0000
0000
,
0310
1000
0010
1000
0000
0100
0010
0000
0110
0000
0000
0000
2001
0000
0000
0000
,
3100
0000
1000
0010
0000
1000
0010
0000
0100
0000
0010
0000
0110
0000
0000
0000
,
0100
0000
0001
1000
0000
0001
1000
0000
0100
0000
0010
0000
0001
0000
0000
0000
,
0100
0000
0010
1000
0000
0010
1000
0000
0001
0000
1000
0000
1001
0000
0000
0000
,
0001
0100
0010
1000
0001
0001
1000
1000
,
0010
0000
0100
0001
0000
0100
0010
0000
1000
0000
0001
0000
0101
0000
0000
0000
,
0001
0000
1000
0100
0000
1000
0010
0000
0100
0000
0001
0000
0100
0000
0000
0000
,
0100
0000
0010
1000
0000
0001
0100
0000
0010
0000
0010
0000
0100
0000
0001
0000
,
1000
0001
0100
1000
0100
0001
0010
1000
,
0010
0000
0000
0000
;

//---------------dance-single - ----------------
#NOTEDATA:;
#CHARTNAME:;
#STEPSTYPE:dance-single;
#DESCRIPTION:;
#CHARTSTYLE:;
#DIFFICULTY:Medium;
#METER:8;
#RADARVALUES:0.281405,0.269840,0.098941,0.179893,0.000000,188.000000,11.000000,20.000000,0.000000,0.000000,0.000000,0.000000,0.000000,0.281405,0.269840,0.098941,0.179893,0.000000,188.000000,11.000000,20.000000,0.000000,0.000000,0.000000,0.000000,0.000000;
#CREDIT:;
#NOTES:
0000
0000
0000
0000
,
0000
0000
0000
0000
,
0000
0000
0000
0000
,
0000
0000
0000
0000
,
1000
0100
0001
0100
,
1000
0010
0220
0330
,
0001
0010
1000
0010
,
0001
0100
2002
3003
,
2000
0000
3010
0000
0010
0100
0001
0000
,
0200
0000
0301
0000
0100
0010
1000
0000
,
1000
0010
0100
0000
0001
0100
0010
0000
,
1000
0100
0001
0100
1000
0010
0100
0000
,
0020
0000
1030
0000
0100
0001
0010
0000
,
0200
0000
0310
0000
0001
1000
0010
0000
,
2000
0000
3100
0000
1000
0010
0100
0001
,
1000
0100
0010
0001
1000
0000
1001
0000
,
0020
1000
0001
1030
,
0200
0001
1000
0301
,
0010
0010
1000
0001
,
0100
0100
0001
1000
,
0010
0100
0010
0000
0010
1000
0001
0000
,
1000
0000
0010
0000
0100
0001
0010
0000
,
0100
0100
1000
1000
,
0220
0000
0000
0330
,
0011
0001
0100
0010
1000
0000
1010
0000
,
1000
0100
0010
0001
1000
0000
1001
0000
,
0001
0100
1000
0100
0001
0000
1000
0000
,
1000
0010
0001
0010
1000
0000
0001
0000
,
1100
0100
0010
0100
1000
0000
0101
0000
,
0001
0100
0010
0100
0001
0000
1100
0000
,
0001
0100
1000
0100
0001
0000
1000
0000
,
1000
0010
0001
0010
1000
0000
0010
0000
,
0200
0000
0301
0000
0001
0100
0010
1000
,
0002
0000
1003
0000
0100
1000
0010
0010
,
0200
0000
0301
0000
1000
0010
0001
0010
,
1000
0000
0100
0000
0010
0100
1000
1000
,
0002
0000
0103
0000
0001
0100
0010
0100
,
0002
0000
1003
0000
0100
1000
0010
0010
,
0200
0000
0310
0000
0100
0001
1000
0001
,
0020
0000
0130
0000
0010
0100
1000
0001
,
1001
0000
0000
0000
;

//---------------dance-single - ----------------
#NOTEDATA:;
#CHARTNAME:;
#STEPSTYPE:dance-single;
#DESCRIPTION:;
#CHARTSTYLE:;
#DIFFICULTY:Easy;
#METER:5;
#RADARVALUES:0.177323,0.215872,0.116931,0.161904,0.000000,107.000000,13.000000,18.000000,0.000000,0.000000,0.000000,0.000000,0.000000,0.177323,0.215872,0.116931,0.161904,0.000000,107.000000,13.000000,18.000000,0.000000,0.000000,0.000000,0.000000,0.000000;
#CREDIT:;
#NOTES:
0000
0000
0000
0000
,
0000
0000
0000
0000
,
0000
0000
0000
0000
,
0000
0000
0000
0000
,
1000
1000
1000
1000
,
1000
1000
2000
3000
,
0001
0001
0001
0001
,
0001
0001
0002
0003
,
0200
0300
0010
0010
,
2000
3000
0001
0001
,
0200
0300
0010
0010
,
1000
0100
0001
0100
,
2000
3000
0001
0001
,
0020
0030
0100
0100
,
2000
3000
0010
0010
,
0200
0300
0001
0001
,
1000
0000
0000
0000
,
1000
0000
0000
0000
,
0010
0010
0010
0010
,
0100
0100
0100
0100
,
0001
0000
0001
0000
,
0010
0000
0010
0000
,
0100
0100
0100
0100
,
2000
0000
3000
0000
,
0001
1000
0001
0011
,
0001
0100
0010
0110
,
2002
0000
3003
0110
,
2002
0000
3003
1100
,
1000
1000
0001
0101
,
0001
0001
0100
0110
,
2020
0000
3030
1100
,
0022
0000
0033
0101
,
0100
0000
0001
0001
,
1000
0000
1000
1000
,
0010
0000
0010
0010
,
1000
0000
0001
0001
,
0001
0000
1000
1000
,
0010
0000
0010
0010
,
0100
0000
0100
0100
,
0010
0000
1000
0001
,
1001
0000
0000
0000
;

//---------------dance-single - ----------------
#NOTEDATA:;
#CHARTNAME:;
#STEPSTYPE:dance-single;
#DESCRIPTION:;
#CHARTSTYLE:;
#DIFFICULTY:Beginner;
#METER:1;
#RADARVALUES:0.062963,0.071957,0.062963,0.035979,0.000000,38.000000,7.000000,4.000000,0.000000,0.000000,0.000000,0.000000,0.000000,0.062963,0.071957,0.062963,0.035979,0.000000,38.000000,7.000000,4.000000,0.000000,0.000000,0.000000,0.000000,0.000000;
#CREDIT:;
#NOTES:
0000
0000
0000
0000
,
0000
0000
0000
0000
,
0000
0000
0000
0000
,
0000
0000
0000
0000
,
1000
0000
1000
0000
,
1000
0000
0001
0000
,
1000
0000
1000
0000
,
0100
0000
1000
0000
,
0010
0000
0000
0000
,
0010
0000
0000
0000
,
0100
0000
0000
0000
,
1001
0000
0000
0000
,
0001
0000
0000
0000
,
0010
0000
0000
0000
,
0110
0000
0000
0000
,
0100
0000
0000
0000
,
2000
0000
0000
0000
,
0000
0000
3000
0000
,
0002
0000
0000
0000
,
0000
0000
0003
0000
,
0020
0000
0000
0000
,
0000
0000
0030
0000
,
0200
0000
0000
0000
,
0000
0000
0300
0000
,
0010
0000
0000
0000
,
0010
0000
0000
0000
,
0001
0000
0000
0000
,
1000
0000
0000
0000
,
0010
0000
0000
0000
,
0010
0000
0000
0000
,
1000
0000
0000
0000
,
0001
0000
0000
0000
,
0100
0000
0100
0000
,
0000
0000
0110
0000
,
0000
0000
0010
0000
,
0000
0000
0110
0000
,
0000
0000
1000
0000
,
0000
0000
1001
0000
,
0000
0000
0001
0000
,
0000
0000
1001
0000
,
0110
0000
0000
0000
;

//---------------dance-single - ----------------
#NOTEDATA:;
#CHARTNAME:;
#STEPSTYPE:dance-single;
#DESCRIPTION:;
#CHARTSTYLE:;
#DIFFICULTY:Challenge;
#METER:13;
#RADARVALUES:0.552529,0.517868,0.413755,0.206877,0.472220,361.000000,46.000000,23.000000,0.000000,0.000000,0.000000,0.000000,0.000000,0.552529,0.517868,0.413755,0.206877,0.472220,361.000000,46.000000,23.000000,0.000000,0.000000,0.000000,0.000000,0.000000;
#CREDIT:;
#NOTES:
// measure 0
0000
0000
0000
0000
,  // measure 1
0000
0000
0000
0000
,  // measure 2
0000
0000
0000
0000
,  // measure 3
0000
0000
0000
0000
,  // measure 4
1010
0000
0100
0000
1010
0000
0100
0000
1001
0000
0100
0000
0001
0010
0100
1000
,  // measure 5
0010
0000
1000
0000
0011
0000
1000
0000
0001
0100
0001
1000
0100
1000
0010
0000
,  // measure 6
1010
0100
1010
0100
1001
0100
0011
0100
,  // measure 7
1100
0001
1001
0001
1010
0100
0001
0100
,  // measure 8
0020
0000
1030
0010
1000
0001
0021
0130
,  // measure 9
0210
0000
0000
0000
1000
0000
0001
0000
1300
0000
0100
1000
0010
0000
0100
0001
,  // measure 10
0000
0001
0010
0000
0100
0000
0000
0000
0010
0000
0100
0000
0010
0001
0100
0010
,  // measure 11
1000
0000
0001
1000
0000
1000
0010
0000
1000
0001
0000
0001
0010
0100
1000
0020
,  // measure 12
0130
0000
0110
0010
1000
0001
0012
0103
,  // measure 13
0201
0000
0000
0000
0010
0000
1000
0000
0301
0100
0010
1000
0100
0000
0120
0000
,  // measure 14
0000
0000
0031
0000
0010
0001
0100
0010
1000
0000
0001
1000
0000
1000
0010
0000
,  // measure 15
1000
0001
0000
0001
0020
0000
0130
0000
0010
0000
0001
0000
0100
0000
0001
0000
,  // measure 16
1000
0100
0001
0100
0000
0000
1000
0100
0001
0000
1000
0100
0001
0000
0110
0000
,  // measure 17
0001
0010
1000
0010
0000
0000
0011
0000
0100
0000
0100
0000
1000
0000
0001
0000
,  // measure 18
1000
0010
0001
0010
0000
0000
1000
0010
0001
0000
1000
0010
0001
0000
0110
0000
,  // measure 19
1000
0100
0001
0100
0000
0000
1000
0100
0001
0000
1000
0100
0001
0000
0110
0000
,  // measure 20
0010
1000
0100
1000
0000
0000
0110
0000
0010
0001
0010
0000
1100
0000
1000
0000
,  // measure 21
0001
1000
0010
1000
0001
0000
0010
0000
0100
0000
0100
0000
2000
0000
3001
0000
,  // measure 22
1000
0010
0001
0010
0000
0000
1000
0010
0100
0000
0010
0100
0001
0000
1000
0000
,  // measure 23
0001
0010
0001
0100
0000
0000
0010
1000
0001
0000
0010
0100
0010
0000
1001
0000
,  // measure 24
1000
0100
0001
0100
0010
0001
0001
1000
,  // measure 25
0010
0100
0010
1000
0011
1000
0101
1000
,  // measure 26
0001
0100
1000
0100
0000
0100
0010
0000
2010
0000
3001
0000
1002
0000
0013
0000
,  // measure 27
0001
0010
1000
0010
0000
0010
0100
0000
0201
0000
1300
0000
2100
0000
3010
0000
,  // measure 28
1000
0000
0100
0000
0001
0000
0100
0000
0010
0000
0001
0000
0201
0000
0310
0100
,  // measure 29
0001
0000
1000
0000
0001
0010
0001
0200
0010
0000
0000
0000
1000
0000
0301
0000
,  // measure 30
0001
0100
1000
0100
0000
0100
0010
0100
0000
0110
0000
0000
0100
0010
0000
0110
,  // measure 31
0000
0000
0100
0010
0000
0110
0000
0000
2010
0000
3001
0000
1002
0000
0013
0000
,  // measure 32
0001
0010
0100
0001
0000
0100
1000
0000
0010
1000
0010
0000
2010
0000
3001
0000
,  // measure 33
1000
0010
0100
1000
0000
0100
0001
0010
0100
0000
0010
0100
0010
0000
1001
0000
,  // measure 34
0001
0100
0010
0001
0000
0010
1000
0000
0100
1000
0100
0000
2100
0000
3001
0000
,  // measure 35
1000
0100
0010
1000
0000
0010
0001
0100
0010
0100
0010
0000
0110
0000
1001
0000
,  // measure 36
0001
0010
0100
0001
0000
0100
1000
0000
0010
1000
0010
0000
2010
0000
3001
0000
,  // measure 37
1000
0010
0100
1000
0000
0100
0001
0010
0100
0000
0010
0100
0010
0000
1001
0000
,  // measure 38
1000
0010
0100
1000
0000
0100
0001
0000
0010
0001
0010
0000
0012
0000
1003
0000
,  // measure 39
0001
0010
0100
0001
0000
0100
1000
0010
0100
0000
0010
0100
0010
0000
1001
0000
,  // measure 40
0012
0000
0000
0000
0000
1000
0100
2000
,  // measure 41
0003
3000
0000
0000
0000
0000
0000
0000
;
