#TITLE:Come With Me Now;
#SUBTITLE:;
#ARTIST:KONGOS;
#TITLETRANSLIT:;
#SUBTITLETRANSLIT:;
#ARTISTTRANSLIT:;
#GENRE:Rock;
#CREDIT:;
#BANNER:Come With Me Now.png;
#BACKGROUND:Come With Me Now-bg.png;
#LYRICSPATH:;
#CDTITLE:;
#MUSIC:Come With Me Now.mp3;
#OFFSET:-0.041371;
#SAMPLESTART:53.079998;
#SAMPLELENGTH:15.000000;
#SELECTABLE:YES;
#BPMS:0.000000=104.000000
,16.000000=52.000000
,20.000000=104.000000
,52.000000=52.000000
,54.000000=104.000000
,142.000000=52.000000
,158.000000=104.000000
,190.000000=52.000000
,192.000000=104.000000
;
#STOPS:
;
#BGCHANGES:-0.250=Come With Me Now.avi=1.000=0=0=0=StretchNoLoop====,
99999=-nosongbg-=1.000=0=0=0 // don't automatically add -songbackground-
;
#KEYSOUNDS:;
#ATTACKS:;

//---------------dance-single - ----------------
#NOTES:
     dance-single:
     :
     Beginner:
     3:
     0.094307,0.114993,0.035492,0.127770,0.000000,70.000000,5.000000,18.000000,0.000000,0.000000,0.000000,0.094307,0.114993,0.035492,0.127770,0.000000,70.000000,5.000000,18.000000,0.000000,0.000000,0.000000:
0000
0000
0000
0000
,
0000
0000
0000
0000
,
0000
0000
0000
0000
,
0000
0000
0000
0000
,
2002
0000
0000
3003
,
1000
0000
0000
0000
,
1000
0000
0000
0000
,
0001
0000
0000
0000
,
0001
0000
0000
0000
,
0010
0000
0000
0000
,
0010
0000
0000
0000
,
0100
0000
0000
0000
,
0100
0000
0000
0000
,
2002
3003
1000
0000
,
0000
0000
1000
0000
,
0000
0000
0001
0000
,
1000
0000
0001
0000
,
0000
0000
0010
0000
,
0000
0000
0010
0000
,
0000
0000
0100
0000
,
0010
0000
0100
0000
,
0000
0000
0000
1000
,
1000
0000
0001
0000
,
0000
0000
0100
0000
,
0000
0000
0010
0000
,
0000
0000
2000
0000
,
3000
0000
2000
0000
,
3000
0000
0002
0000
,
0003
0000
0002
0000
,
0003
0000
0200
0000
,
0300
0000
0200
0000
,
0300
0000
0020
0000
,
0030
0000
0020
0000
,
0030
0000
2000
0000
,
3000
0000
0002
0000
,
0003
0000
1001
0000
,
1000
0000
0001
0000
,
0100
0000
0020
0030
,
0020
0030
1000
0000
,
0001
1000
0001
0000
,
0001
0000
0001
0000
,
0001
0000
0010
0000
,
0000
0000
0010
0000
,
0000
0000
0100
0000
,
0100
0000
0100
0000
,
0100
0000
1000
0000
,
0000
0000
1000
0000
,
0000
0000
0000
0000
2002
0000
0000
3003
,
1000
0000
1000
0000
,
0001
0000
0001
0000
,
1000
0000
1000
0000
,
0001
0000
0001
0000
,
0010
0000
0010
0000
,
0100
0000
0100
0000
,
0110
0000
0000
0000
;

//---------------dance-single - ----------------
#NOTES:
     dance-single:
     :
     Easy:
     6:
     0.236273,0.310907,0.205852,0.156163,0.000000,182.000000,29.000000,22.000000,0.000000,0.000000,0.000000,0.236273,0.310907,0.205852,0.156163,0.000000,182.000000,29.000000,22.000000,0.000000,0.000000,0.000000:
0000
0000
0000
0000
,
0000
0000
0000
0000
,
0000
0000
0000
0000
,
0000
0000
0000
0000
,
0000
0000
1000
1000
0000
0000
1000
1000
,
0001
0000
0001
0001
,
0010
0000
0010
0010
,
0100
0000
0100
0100
,
1000
0000
1000
1000
,
1001
0000
0001
0001
,
0100
0000
0100
0100
,
0010
0000
0010
0010
,
1000
0000
1000
1000
,
0000
0001
2002
3003
1000
0000
0000
0000
,
1000
0000
0100
0001
,
0100
0000
1000
0010
,
0100
0001
0010
0001
,
0100
0000
0010
0000
,
0110
0000
0010
0000
,
1010
0000
1000
0100
,
0001
0100
0010
0001
,
0100
1100
0000
0110
,
0010
1000
0001
0010
,
0100
1000
0001
0001
,
0100
0001
1000
0010
,
0100
0001
2001
3000
,
1002
0000
0003
0000
0021
0030
0012
0003
,
0021
0031
0100
0000
,
0110
0010
1000
0000
,
1001
0001
0000
0010
,
0100
0000
0010
0000
0000
0001
0000
0000
,
1000
0000
1000
0000
0000
0010
0000
0000
,
0100
0000
0100
0000
0000
0001
0000
0000
,
0010
0000
0010
0000
0000
0100
0000
0000
,
1000
0000
1001
0000
0000
0001
0000
0000
,
0100
0110
0020
2030
,
3002
0023
0230
2300
,
3002
0000
0203
0000
0301
0100
0002
0000
,
1003
0001
2000
0000
3100
1000
0200
0000
,
0310
0100
0010
0110
0010
0000
0001
0000
,
0100
0101
0001
1000
,
0100
1100
1000
0100
,
0010
0001
1000
1000
,
0001
0100
0010
0100
,
0001
0101
0001
0010
,
0100
0110
0010
0010
,
0100
0100
1000
0010
,
0100
0000
0001
0000
2001
0000
3001
0110
,
0010
1000
0100
1100
,
0100
0010
0001
0011
,
0001
1000
0010
1010
,
0010
0100
0001
0101
,
0002
1000
0013
0011
,
0020
0100
1030
1010
,
0012
0000
1000
1003
;

//---------------dance-single - ----------------
#NOTES:
     dance-single:
     :
     Medium:
     8:
     0.362015,0.447950,0.177459,0.177459,0.110024,307.000000,25.000000,25.000000,0.000000,0.000000,0.000000,0.362015,0.447950,0.177459,0.177459,0.110024,307.000000,25.000000,25.000000,0.000000,0.000000,0.000000:
// measure 0
0000
0000
0000
0000
,  // measure 1
0000
0000
0000
0000
,  // measure 2
0000
0000
0000
0000
,  // measure 3
0000
0000
0000
0000
,  // measure 4
0000
0000
0000
1000
0100
0010
0001
0000
0000
0000
0000
1000
0100
0010
0001
0000
,  // measure 5
1001
0000
0000
0001
0100
0001
1000
0000
,  // measure 6
0100
0010
0000
0010
0100
0010
0001
0000
,  // measure 7
1001
0000
0000
0001
1000
0010
1000
0000
,  // measure 8
0010
0100
0000
0100
0010
0100
0001
0000
,  // measure 9
1001
0000
0000
0001
0010
0001
0100
0000
,  // measure 10
0010
0100
0000
0100
0001
0100
0010
0000
,  // measure 11
0110
0000
0000
0010
1000
0001
1000
0000
,  // measure 12
0100
0010
0000
0010
0001
0100
0001
0000
,  // measure 13
1000
1000
2002
3003
1000
0000
0100
0010
,  // measure 14
0100
0000
1000
0000
0010
0100
0010
1000
,  // measure 15
0001
0000
0010
0000
0100
0010
0100
0000
,  // measure 16
1000
0100
1000
0000
0100
1000
0001
0100
,  // measure 17
1000
0100
0010
0000
1010
0000
1000
0001
,  // measure 18
1000
0000
0001
0000
0011
0000
0001
1000
,  // measure 19
0001
0000
1000
0000
0100
0001
0100
0000
,  // measure 20
0010
0001
0010
0000
0001
1000
0010
0001
,  // measure 21
0010
0100
0110
0000
0100
0000
0101
0001
,  // measure 22
0010
0100
0010
0000
0001
0010
0000
0001
,  // measure 23
1000
0001
0100
0000
0101
0000
0000
0001
,  // measure 24
0010
0001
1000
0000
0010
1000
0000
1000
,  // measure 25
0100
0010
0100
0000
0120
0000
0031
0000
,  // measure 26
0012
0000
0103
0000
0201
0300
0120
0030
,  // measure 27
2010
0000
3001
1000
0001
0000
0010
0000
,  // measure 28
0100
0010
0100
1000
0020
0000
0130
0000
,  // measure 29
0010
1000
0001
0000
0010
0001
0010
0100
,  // measure 30
0000
1000
0001
1000
0000
0020
0000
0130
,  // measure 31
0010
1000
0100
0010
0000
0200
0000
1300
,  // measure 32
0100
1000
0002
0103
0000
0002
0000
0013
,  // measure 33
0001
0100
0010
1000
0000
0020
0000
0130
,  // measure 34
0010
1000
0002
0013
0000
0200
0000
0310
,  // measure 35
0100
0000
1000
0000
0001
0000
1000
0000
0000
0010
0000
0010
0000
0100
0000
0100
,  // measure 36
0000
0001
0000
0001
0000
1000
0000
1000
0000
1100
0000
1100
0000
0011
0000
0011
,  // measure 37
0000
0101
0000
0101
0000
1010
0000
0010
1000
0000
1000
0000
0002
0000
0000
0000
,  // measure 38
0013
0010
0002
0000
0103
0100
0002
0000
,  // measure 39
1003
0000
1000
0000
0001
0000
0010
0100
0010
0000
0000
0000
0010
0000
0000
0000
,  // measure 40
0001
0000
0000
0000
1000
0000
0010
0000
1000
0000
0000
0010
0000
0000
1000
0000
,  // measure 41
0100
0000
0000
0000
0010
0000
0100
0000
0010
0000
0000
0001
0000
0000
1000
0000
,  // measure 42
0001
0000
0000
0100
0000
0000
0010
0000
1000
0000
0000
0000
0010
0000
1000
0000
,  // measure 43
0001
0010
0100
0010
0100
0000
1000
0000
,  // measure 44
0100
0000
0000
0000
0010
0000
0100
0000
0010
0000
0000
0100
0000
0100
0000
0000
,  // measure 45
1000
0000
0000
0000
0001
0000
0100
0000
0001
0000
0000
0010
0000
0000
0100
0000
,  // measure 46
0001
0000
0000
0100
0000
0000
1000
0000
0010
0000
0000
0100
0000
0000
0001
0000
,  // measure 47
1000
0000
0001
0000
1000
0000
0000
0000
1001
0000
0000
0001
0010
0100
1100
0000
,  // measure 48
0000
2000
0000
3010
1000
0001
0020
0130
,  // measure 49
0000
0020
0000
0031
0010
0100
1000
0010
,  // measure 50
0000
0200
0000
0310
0100
0001
2000
3001
,  // measure 51
0000
2000
0000
3100
1000
0010
0100
0010
,  // measure 52
1000
0000
0100
1000
0100
1000
0100
0000
,  // measure 53
0010
0100
0000
0010
0001
0100
0001
0100
,  // measure 54
0110
0000
0000
0010
1000
0001
0200
0310
;

//---------------dance-single - ----------------
#NOTES:
     dance-single:
     :
     Hard:
     13:
     0.568881,0.954327,0.269737,0.283934,0.518179,483.000000,38.000000,40.000000,0.000000,0.000000,0.000000,0.568881,0.954327,0.269737,0.283934,0.518179,483.000000,38.000000,40.000000,0.000000,0.000000,0.000000:
0000
0000
0000
0000
,
0000
0000
0000
0000
,
0000
0000
0000
0000
,
0000
0000
0000
0000
,
1000
1000
1000
0001
1000
0010
0100
0000
0010
0010
0010
0100
0001
1000
0100
0000
,
0110
0000
0010
0100
1000
0010
0100
0000
,
0110
0020
0000
0130
0010
1000
0001
0000
,
0011
0000
0010
0100
1000
0100
0010
0000
,
0001
0100
0000
0001
0010
0001
0100
0000
,
0110
0000
0010
1000
0001
1000
0010
0000
,
0100
0010
0000
0010
1000
0100
0010
0000
,
0110
0000
0100
1000
0001
1000
0100
0000
,
0010
0001
0000
0001
0100
0001
1000
0000
,
0100
0000
0100
0000
0100
0000
0010
0000
0022
0000
0000
0000
0033
0000
0000
0001
1000
0000
0000
0000
0000
0000
1000
0000
0010
0000
0000
0000
0000
0000
0010
0000
,
0100
0000
0000
0000
0101
0000
0001
0000
1000
0001
0000
0010
0000
0000
0100
0000
,
0010
0000
0100
0000
1000
0000
0010
0000
0100
0000
0010
0100
0000
0000
0100
0000
,
0001
0000
1000
0001
0000
0000
1000
0000
0100
0010
0000
0000
0100
0000
0010
0000
,
0001
0000
0100
0001
0000
0000
0001
1000
0001
0000
0000
0010
0100
0000
0010
0000
,
0011
0000
0000
0000
0001
0000
1000
0000
0010
0000
0100
0010
0000
1000
0000
0000
,
1001
0000
0000
0000
0001
0000
0010
0000
0100
0000
0001
0100
0000
0000
1000
0000
,
0010
0000
0100
1000
0000
0000
0100
0000
0010
0000
1000
0001
0000
0000
0010
0000
,
0100
0010
0011
0000
0001
0000
1001
1000
,
0010
0000
0100
0000
0020
0000
1000
0000
0130
0000
0210
0000
0000
0000
0301
0100
,
0001
1000
1001
0000
0011
0000
0010
0100
,
1000
0000
0001
0000
0200
0000
0001
0000
0320
0000
2000
0000
0030
0000
3001
1000
,
0001
0010
0200
1300
0120
0000
0031
0000
,
0012
0000
0100
0000
0100
0000
0103
0000
0120
0000
0000
0030
2010
0000
0000
3000
,
1002
0000
0000
0000
0013
0001
0100
0010
1000
0000
0002
0000
0000
0000
0013
0000
,
0001
0000
0100
0010
1000
0001
0010
0001
0100
0000
0020
0000
0000
0000
1030
0000
,
0010
0000
1000
0001
2000
0000
0000
0000
3100
0000
1000
0000
0000
0100
0010
0000
,
0100
0000
1000
0000
1000
0000
1000
0000
0001
0000
0201
0000
0000
0310
0100
0000
,
0001
0000
0010
0000
0010
0100
1000
0000
1000
0000
1020
0000
0000
0130
0010
0000
,
0010
1000
0001
0000
2000
0000
3010
0000
1000
0000
1200
0000
0000
0310
0100
0000
,
0010
0100
1000
0000
1000
0001
0100
0000
0001
0000
0201
0000
0000
0310
0100
0000
,
0010
0100
0001
0000
2001
0000
3100
0000
1000
0000
1200
0000
0000
0310
0100
0000
,
1000
0000
0000
0000
0001
0000
0000
0000
1000
0000
0000
0000
0000
0000
0000
0000
0001
0000
0000
0000
0100
0000
0000
0000
0001
0000
0000
0000
0100
0000
0000
0000
0010
0000
0000
0000
1010
0000
0000
0000
0010
0000
0000
0000
1010
0000
0000
0000
1000
0000
0001
0000
0000
0000
0001
0000
0010
0000
0100
0010
0100
0000
1000
0000
,
0010
0000
0100
0000
0000
0000
0010
0000
0100
0000
0000
0000
0110
0000
0000
0000
0100
0000
0001
0000
0000
0000
0001
0000
1000
0000
0100
1000
0100
0000
0010
0000
0100
0000
1000
0000
0000
0000
0100
0000
1000
0000
0000
0000
1000
0000
0010
0000
0100
0000
0010
0000
0000
0000
0100
0000
0001
0000
1000
0001
1000
0000
0100
0000
,
0010
0100
0000
0010
0100
0000
1000
0100
0010
0001
2000
0000
3020
0000
0230
0000
0301
0000
0001
0000
0001
0000
1000
0000
0200
0000
0000
0000
0310
0000
0000
0000
,
0100
0100
0100
1000
0020
0000
0130
0000
0010
0010
0010
0100
0002
0000
1003
0000
,
0001
0000
0001
0000
0001
0000
0010
0000
0200
0000
0000
0000
1300
0100
1000
0001
0100
0000
0000
0000
0000
0000
0100
0000
0010
0000
0000
0000
0000
0000
0010
0000
,
1000
0000
1000
0000
0001
0010
0001
0010
0100
0010
0000
0010
0000
0001
1000
0000
,
0010
0000
0010
0000
0100
0010
0100
0010
1000
0000
0100
1000
0100
0000
0010
0000
,
0001
0000
0100
0001
0100
0001
0100
0001
1000
0010
0000
1000
0010
0000
1000
0000
,
1001
0000
0001
0000
0010
0001
0010
0001
0100
0000
0000
0100
0010
0000
0010
0000
,
1000
0000
1000
0000
0001
0010
0001
0010
0100
0000
0010
0100
0000
1000
0000
0000
,
1010
0000
0010
0000
0100
0010
0100
0010
1000
0000
0001
1000
0001
0000
0010
0000
,
1000
0000
0001
1000
0001
0100
0001
0100
1000
0000
0010
1000
0010
0000
0100
0000
,
1000
0000
0001
0010
1000
0100
0001
0100
2000
0000
0000
3001
1000
0010
0110
0000
,
0100
0000
0102
0000
0000
0013
0001
0000
0010
0001
0100
0000
0010
1000
0010
1000
,
0010
0000
2010
0000
0000
3100
1000
0000
1000
0010
0100
0000
0010
0100
0001
0100
,
0010
0000
0120
0000
0000
1030
0010
0000
0100
0010
1000
0000
0100
0010
0100
0010
,
0100
0000
2100
0000
0000
3001
1000
0000
0010
1000
0100
0000
0010
0100
0010
0001
,
0100
0000
0000
0000
0101
0000
0001
0000
0010
0000
0100
0000
0010
0100
0010
0100
,
1000
0000
1020
0000
0000
0000
0130
0010
0100
0000
0001
0000
1000
0001
1000
0001
,
2002
0000
0003
3001
1000
0010
0200
0310
;
