#VERSION:0.81;
#TITLE:Chandelier;
#SUBTITLE:;
#ARTIST:Sia;
#TITLETRANSLIT:;
#SUBTITLETRANSLIT:;
#ARTISTTRANSLIT:;
#GENRE:Pop;
#ORIGIN:;
#CREDIT:;
#BANNER:Chandelier.png;
#BACKGROUND:Chandelier-bg.png;
#PREVIEWVID:;
#JACKET:Chandelier-jacket.png;
#CDIMAGE:;
#DISCIMAGE:;
#LYRICSPATH:;
#CDTITLE:;
#MUSIC:Chandelier.mp3;
#OFFSET:-0.755000;
#SAMPLESTART:33.852001;
#SAMPLELENGTH:15.000000;
#SELECTABLE:YES;
#BPMS:0.000=87.000;
#STOPS:;
#DELAYS:;
#WARPS:;
#TIMESIGNATURES:0.000=4=4;
#TICKCOUNTS:0.000=4;
#COMBOS:0.000=1;
#SPEEDS:0.000=1.000=0.000=0;
#SCROLLS:0.000=1.000;
#FAKES:;
#LABELS:0.000=Song Start;
#BGCHANGES:-1.500=Chandelier.avi=1.000=0=0=0=StretchNoLoop====,
99999=-nosongbg-=1.000=0=0=0 // don't automatically add -songbackground-
;
#KEYSOUNDS:;
#ATTACKS:
;

//---------------dance-single - ----------------
#NOTEDATA:;
#CHARTNAME:;
#STEPSTYPE:dance-single;
#DESCRIPTION:;
#CHARTSTYLE:;
#DIFFICULTY:Hard;
#METER:12;
#RADARVALUES:0.358347,0.382256,0.071898,0.111841,0.315551,291.000000,9.000000,14.000000,0.000000,0.000000,0.000000,0.000000,0.000000,0.358347,0.382256,0.071898,0.111841,0.315551,291.000000,9.000000,14.000000,0.000000,0.000000,0.000000,0.000000,0.000000;
#CREDIT:;
#NOTES:
0000
0000
0000
0000
,
0000
0000
0000
0000
,
0000
0000
0000
0000
,
0000
0000
0000
0000
,
0010
0000
0000
0100
0010
0000
0010
0000
0000
1000
0000
0000
0001
0000
0000
0000
,
1000
0000
0000
0100
1000
0000
1000
0000
0000
0010
0000
0000
0010
0000
0000
0000
,
0100
0000
0000
0001
0010
0000
0010
0000
0000
0001
0000
0000
0001
0000
0000
0000
,
0100
0000
0000
0010
1000
0000
0100
0000
0000
0000
1000
0000
0001
0000
0000
0000
,
0100
0100
0100
0010
0010
0010
0110
0000
,
1000
1000
1000
0100
0100
0100
1100
0000
,
0010
0010
0010
0001
0001
0001
0011
0000
,
0200
0000
0000
0010
0000
0000
0000
0000
1000
0000
1000
0000
0301
0000
0000
0000
,
1001
0000
0000
0001
0100
0000
0010
0000
0000
0100
0100
0000
0010
0000
0000
0000
,
0100
0000
0000
0001
0010
0000
0010
0000
0000
0001
1000
0000
0010
0000
0000
0000
,
0100
0000
0001
0010
0001
0000
0100
0010
1000
0000
0100
0010
0001
0000
0100
0000
,
0001
0000
0010
0001
0100
0000
0010
1000
0100
0000
1000
0001
0100
0000
0010
0000
,
0100
0000
0000
0010
1000
0000
1000
0000
0000
0100
1000
0000
1000
0000
0000
0000
,
0010
0000
0000
0100
0001
0000
0001
0000
0010
0000
0000
0001
0100
0000
0000
0010
,
0010
0000
1000
0100
1000
0000
0010
0100
0001
0000
0010
0100
1000
0000
0010
0000
,
1000
0000
0100
1000
0010
0000
0100
0001
0010
0000
0001
1000
0010
0000
0100
0000
,
0100
0000
0000
0010
0100
0000
0100
0000
0000
0001
0010
0000
0010
0000
0001
0000
,
0100
0000
0000
0010
1000
0000
1000
0000
0200
0000
0000
0000
1300
0000
0000
0000
,
0010
0000
0100
0001
0010
0000
0001
0100
0010
0000
1000
0100
0010
0000
0001
0000
,
0100
0000
0010
1000
0100
0000
0010
0001
0100
0000
0010
0000
1000
0010
0100
0000
,
0110
0000
0000
0100
0010
0000
0010
0000
0000
1000
0100
0000
0100
0000
1000
0000
,
0010
0000
0000
0100
0001
0000
0010
0000
0000
0001
0100
0000
0010
0000
0000
0100
,
0010
0000
1000
0100
1000
0000
0010
0100
0001
0000
0010
0001
0100
0000
0010
0000
,
0010
0000
1000
0100
0010
0000
0001
0100
0000
0001
0000
0000
0100
0000
0000
0000
,
0010
0000
0000
1000
0100
0000
1000
0010
0100
0001
0000
0010
0001
0000
0000
0100
,
0010
0000
1000
0100
0010
0000
0001
0100
0001
0010
0000
0001
0100
0000
0100
0000
,
0010
0000
1000
0100
1000
0000
0010
0100
0001
0000
0010
0001
0100
0000
0100
0000
,
0001
0000
0100
0010
1000
0000
0100
0010
0001
0000
0100
0010
1000
0000
0100
0000
,
0100
0000
0000
0010
0001
0000
0001
0100
0010
1000
0000
0100
1000
0000
0000
0010
,
0100
0000
0001
0010
0100
0000
1000
0010
1000
0100
0000
1000
0010
0000
0010
0000
,
0100
0000
0001
0010
0001
0000
0100
0010
1000
0000
0100
1000
0010
0000
0010
0000
,
1000
0000
0010
0100
0001
0000
0010
0100
1000
0000
0010
0100
0001
0000
0010
0000
,
0002
0000
0000
0013
,
0020
0000
0000
0130
,
0200
0000
0000
1300
,
2000
0000
0000
3000
,
2002
0000
3003
0000
,
2002
0000
3003
0000
,
2002
0000
3003
0000
,
2002
0000
3003
0000
;

//---------------dance-single - ----------------
#NOTEDATA:;
#CHARTNAME:;
#STEPSTYPE:dance-single;
#DESCRIPTION:;
#CHARTSTYLE:;
#DIFFICULTY:Medium;
#METER:8;
#RADARVALUES:0.252212,0.281200,0.087875,0.071898,0.000000,201.000000,11.000000,9.000000,0.000000,0.000000,0.000000,0.000000,0.000000,0.252212,0.281200,0.087875,0.071898,0.000000,201.000000,11.000000,9.000000,0.000000,0.000000,0.000000,0.000000,0.000000;
#CREDIT:;
#NOTES:
0000
0000
0000
0000
,
0000
0000
0000
0000
,
0000
0000
0000
0000
,
0000
0000
0000
0000
,
1000
0100
0010
0000
0001
0001
0001
0000
,
1000
0010
0100
0000
0001
0000
0001
0000
,
1000
0100
1000
0000
0010
0100
0010
0000
,
1001
0000
0001
0001
,
0010
0001
0001
0010
0001
0001
1000
0000
,
0010
1000
1000
0010
1000
1000
0001
0000
,
1000
0100
0010
0001
0100
0010
1000
0000
,
0002
0000
0000
0000
1000
1000
1003
0000
,
1001
0000
0110
0000
0010
1000
0100
0000
,
1100
0000
0011
0000
0100
0010
1000
0000
,
0100
0010
0001
0010
0100
1000
0010
0100
,
0001
0010
0001
0100
0010
1000
0100
1000
,
1010
0000
0110
0000
0100
0001
0010
0000
,
0101
0000
0011
0000
0001
1000
0010
0000
,
0100
0010
1000
0100
0010
0001
0100
0001
,
0010
0001
1000
0010
0100
0010
1000
0100
,
1000
0000
0010
0000
1000
0100
0010
0000
,
0001
0101
0100
0110
,
0010
1000
0100
1000
0010
0100
0001
0010
,
0001
0001
1000
1000
0010
0100
0001
0000
,
0010
0000
0010
0000
0001
0100
0010
0000
,
1000
0000
1000
0000
0100
1000
0010
0000
,
0100
0001
0010
0001
0100
0010
1000
0100
,
1000
1000
0010
0000
0100
0000
0100
0000
,
0001
0010
0001
0000
1000
0010
1000
0000
,
0100
1000
0100
0000
0010
0001
0100
0000
,
0001
0100
0001
0000
0010
0001
1000
0000
,
0010
0010
0010
0000
0100
0000
0100
0000
,
0010
1000
0100
0000
0010
0001
0100
0000
,
0001
0001
0001
0000
1000
1000
1000
0000
,
0010
0100
0001
0000
0010
0001
1000
0000
,
0010
0010
0010
0000
0100
0100
0100
0000
,
0010
0010
0020
0000
0000
0000
0030
0000
,
2000
0000
0000
3000
,
0002
0000
0000
0003
,
0020
0000
0000
0000
0000
0000
0000
0030
,
0200
0000
0000
0300
,
2000
0000
0000
0000
0000
0000
0000
3000
,
0002
0000
0000
0003
,
2000
0000
0000
0000
,
3000
0000
0000
0000
;

//---------------dance-single - ----------------
#NOTEDATA:;
#CHARTNAME:;
#STEPSTYPE:dance-single;
#DESCRIPTION:;
#CHARTSTYLE:;
#DIFFICULTY:Easy;
#METER:4;
#RADARVALUES:0.183738,0.246050,0.119829,0.119829,0.000000,131.000000,15.000000,15.000000,0.000000,0.000000,0.000000,0.000000,0.000000,0.183738,0.246050,0.119829,0.119829,0.000000,131.000000,15.000000,15.000000,0.000000,0.000000,0.000000,0.000000,0.000000;
#CREDIT:;
#NOTES:
0000
0000
0000
0000
,
0000
0000
0000
0000
,
0000
0000
0000
0000
,
0000
0000
0000
0000
,
0010
1000
0100
0101
,
1000
0010
0100
1010
,
1000
1000
0001
0001
,
2002
0000
0000
3003
,
0100
0010
0100
0010
,
1000
0001
1000
0001
,
0010
0100
1000
0010
,
2000
0000
0000
0000
0001
0001
3001
0000
,
0100
0001
0010
0000
0001
0000
0001
0000
,
0100
0010
1000
0000
0100
0000
0100
0000
,
1000
1000
0001
0001
,
0100
0100
0010
0010
,
0100
0000
0010
0000
1000
0100
1000
0000
,
0010
0010
0100
0100
,
0001
0010
0001
0100
,
0010
1000
0100
1000
,
1010
0000
0101
0000
0100
0010
1000
0000
,
1100
0000
0011
0000
0100
0001
0010
0000
,
0001
0001
1000
1000
,
0001
0001
0100
0100
,
0010
1000
0100
0000
,
0100
1000
0001
0000
,
0100
0100
0010
0010
,
1000
1000
0000
0001
,
1001
0000
0010
0100
,
0110
0000
0100
1000
,
1010
0000
0100
0001
,
0011
0000
0010
0000
,
0010
0001
0100
0000
0010
0000
0000
0000
,
1000
0100
1000
0000
0010
0000
0000
0000
,
0100
0100
0100
0000
0001
0000
0000
0000
,
0010
0100
1000
0000
0001
0000
0001
0000
,
2000
0000
0000
3000
,
0020
0000
0000
0030
,
0200
0000
0000
0300
,
0002
0000
0000
0003
,
2002
0000
0000
3003
,
2002
0000
0000
3003
,
2002
0000
0000
3003
,
2002
0000
0000
0000
,
3003
0000
0000
0000
;

//---------------dance-single - ----------------
#NOTEDATA:;
#CHARTNAME:;
#STEPSTYPE:dance-single;
#DESCRIPTION:;
#CHARTSTYLE:;
#DIFFICULTY:Beginner;
#METER:2;
#RADARVALUES:0.085592,0.103053,0.000000,0.000000,0.000000,75.000000,0.000000,0.000000,0.000000,0.000000,0.000000,0.000000,0.000000,0.085592,0.103053,0.000000,0.000000,0.000000,75.000000,0.000000,0.000000,0.000000,0.000000,0.000000,0.000000,0.000000;
#CREDIT:;
#NOTES:
0000
0000
0000
0000
,
0000
0000
0000
0000
,
0000
0000
0000
0000
,
0000
0000
0000
0000
,
1000
0000
0100
0000
,
1000
0000
0010
0000
,
0100
0000
0001
0000
,
1000
0000
0000
0000
,
0001
0001
0001
0000
,
1000
1000
1000
0000
,
0010
0000
0010
0000
,
0100
0000
0000
0100
,
0100
0000
0010
0000
,
0100
0000
0100
0000
,
0010
0000
1000
0000
,
0100
0000
1000
0000
,
0010
0000
0100
0000
,
0001
0000
0010
0000
,
0001
0000
1000
0000
,
0010
0000
0100
0000
,
0001
0000
0010
0000
,
0001
0000
1000
0000
,
0001
0001
0001
0000
,
1000
1000
1000
0000
,
0010
0000
0100
0000
,
0001
0000
1000
0000
,
0010
0000
0010
0000
,
0100
0000
0100
0000
,
0001
0000
0001
0000
,
1000
0000
1000
0000
,
0010
0000
0010
0000
,
0100
0000
0100
0000
,
0001
0000
1000
0000
,
0010
0000
0100
0000
,
0001
0000
0001
0000
,
1000
0000
1000
0000
,
0010
0000
0000
0000
,
0100
0000
0000
0000
,
0001
0000
0000
0000
,
1000
0000
0000
0000
,
0010
0000
0000
0000
,
0010
0000
0000
0000
,
0010
0000
0000
0000
,
0010
0000
0000
0000
;

//---------------dance-single - ----------------
#NOTEDATA:;
#CHARTNAME:;
#STEPSTYPE:dance-single;
#DESCRIPTION:;
#CHARTSTYLE:;
#DIFFICULTY:Challenge;
#METER:13;
#RADARVALUES:0.402855,0.421799,0.095863,0.151784,0.499289,322.000000,12.000000,19.000000,0.000000,0.000000,0.000000,0.000000,0.000000,0.402855,0.421799,0.095863,0.151784,0.499289,322.000000,12.000000,19.000000,0.000000,0.000000,0.000000,0.000000,0.000000;
#CREDIT:;
#NOTES:
0000
0000
0000
0000
,
0000
0000
0000
0000
,
0000
0000
0000
0000
,
0000
0000
0000
0000
,
1000
0000
0000
0010
0100
0000
0001
0000
0000
0010
0000
0000
0110
0000
0000
0000
,
0010
0000
0000
0100
1000
0000
0001
0000
0000
0100
0000
0000
0110
0000
0000
0000
,
0010
0000
0000
0100
0001
0000
0010
0000
0000
0100
0000
0000
1100
0000
0000
0000
,
1000
0000
0000
0010
0100
0000
0001
0000
0000
0100
0000
0000
0101
0000
0000
0000
,
0002
0000
0013
0010
0100
0000
2000
0000
3010
0010
0100
0000
1001
0000
0000
0000
,
0002
0000
0103
0100
0010
0000
2000
0000
3100
0100
0010
0000
1001
0000
0000
0000
,
2000
0000
3001
0001
0100
0000
0002
0000
1003
1000
0100
0000
1001
0000
0000
0000
,
0001
0000
0000
0100
0000
0000
0000
0000
0010
0000
0010
0000
1001
0000
0000
0000
,
1001
0000
0000
0001
0100
0000
0010
0000
0000
0010
0100
0000
0001
0000
0010
0100
,
1000
0000
0000
1000
0010
0000
0100
0000
0000
0010
0100
0000
0001
0000
0010
0100
,
1000
0000
0000
0001
0100
0000
0010
0000
0000
0100
0001
0000
0010
0000
0100
1000
,
0001
0000
0000
0001
1000
0000
0010
0000
0000
0100
0001
0000
0010
0100
1000
0100
,
1001
0000
0000
0001
1000
0000
0010
0000
0000
0100
0001
0000
0010
0000
0100
1000
,
0001
0000
0000
0100
0010
0000
0100
0000
0000
0001
0010
0000
0100
0000
0010
0001
,
1000
0000
0000
0010
0100
0000
0001
0000
0000
0010
0100
0000
0010
0000
0001
1000
,
0010
0000
0000
0100
0001
0000
0010
0100
0000
1000
0001
0000
0100
0010
1000
0100
,
1100
0000
0000
0100
0010
0000
0001
0000
0000
0100
0010
0000
0100
0000
0001
0010
,
0100
0000
0000
0010
0001
0000
0100
0000
0000
0010
0100
0000
0001
0000
1000
0100
,
1000
0000
0000
0001
0100
0000
0010
0000
0000
0100
0001
0000
0010
0000
0100
0010
,
0001
0000
0000
0100
0010
0000
1000
0100
0000
0100
0010
0000
0010
0001
0100
0010
,
0110
0000
0000
0010
0100
0000
0001
0000
0000
0010
0100
0000
1000
0000
0001
1000
,
0010
0000
0000
0100
0001
0000
0010
0000
0000
0100
1000
0000
0001
0000
1000
0010
,
0100
0000
0000
0001
1000
0000
0100
0000
0000
0010
0100
0000
1000
0000
0001
0100
,
0010
0000
0000
0000
0000
0000
0100
0000
0001
0000
0000
0000
0010
0000
0000
0000
0000
0000
0100
0000
0000
0000
1000
0000
0001
0000
0000
1000
0000
0000
0100
0000
,
1000
0000
0000
0000
0000
0000
0000
0000
0000
0000
0000
0000
0000
0000
0000
0000
0000
0000
0001
0000
0000
0000
0000
0000
0000
0000
0000
0000
0000
0000
0000
0000
0000
0000
0000
0000
0100
0000
0000
0000
0000
0000
0000
0000
0000
0000
0000
0000
0010
0000
0000
0000
0000
0000
0000
0000
0000
0000
0000
0000
0000
0000
0000
0000
0000
0000
0000
0000
0000
0000
0000
0000
0000
0000
0000
0000
0000
0000
0000
0000
0000
0000
0000
0000
0000
0000
0000
0000
0000
0000
0000
0000
0000
0000
0000
0000
1000
0000
0000
0000
0000
0000
0000
0000
0000
0000
0000
0000
0000
0000
0000
0000
0100
0000
0000
0000
0000
0000
0000
0000
0000
0000
0000
0000
0000
0000
0000
0000
0010
0000
0000
0000
0000
0000
0000
0000
0000
0000
0000
0000
0000
0000
0000
0000
0001
0000
0000
0000
0000
0000
0000
0000
0000
0000
0000
0000
0000
0000
0000
0000
0000
0000
0000
0000
0000
0000
0000
0000
0000
0000
0000
0000
0000
0000
0000
0000
0000
0000
0000
0000
0100
0000
0000
0000
0000
0000
0000
0000
0000
0000
0000
0000
,
0010
0000
0000
0000
0000
0000
0000
0000
0000
0000
0000
0000
0000
0000
0000
0000
0000
0000
0100
0000
0000
0000
0000
0000
0000
0000
0000
0000
0000
0000
0000
0000
0000
0000
0000
0000
0001
0000
0000
0000
0000
0000
0000
0000
0000
0000
0000
0000
0010
0000
0000
0000
0000
0000
0000
0000
0000
0000
0000
0000
0000
0000
0000
0000
0000
0000
0000
0000
0000
0000
0000
0000
0000
0000
0000
0000
0000
0000
0000
0000
0000
0000
0000
0000
0000
0000
0000
0000
0000
0000
0000
0000
0000
0000
0000
0000
0100
0000
0000
0000
0000
0000
0000
0000
0000
0000
0000
0000
0000
0000
0000
0000
1000
0000
0000
0000
0000
0000
0000
0000
0000
0000
0000
0000
0000
0000
0000
0000
0010
0000
0000
0000
0000
0000
0000
0000
0000
0000
0000
0000
0000
0000
0000
0000
0100
0000
0000
0000
0000
0000
0000
0000
0000
0000
0000
0000
0000
0000
0000
0000
0000
0000
0000
0000
0000
0000
0000
0000
0001
0000
0000
0000
0000
0000
0000
0000
0000
0000
0000
0000
0010
0000
0000
0000
0000
0000
0000
0000
0000
0000
0000
0000
,
0100
0000
0000
0000
0000
0000
0000
0000
0000
0000
0000
0000
0000
0000
0000
0000
0000
0000
0010
0000
0000
0000
0000
0000
0000
0000
0000
0000
0000
0000
0000
0000
0000
0000
0000
0000
0001
0000
0000
0000
0000
0000
0000
0000
0000
0000
0000
0000
1000
0000
0000
0000
0000
0000
0000
0000
0000
0000
0000
0000
0000
0000
0000
0000
0000
0000
0000
0000
0000
0000
0000
0000
0000
0000
0000
0000
0000
0000
0000
0000
0000
0000
0000
0000
0000
0000
0000
0000
0000
0000
0000
0000
0000
0000
0000
0000
0001
0000
0000
0000
0000
0000
0000
0000
0000
0000
0000
0000
0000
0000
0000
0000
0100
0000
0000
0000
0000
0000
0000
0000
0000
0000
0000
0000
0000
0000
0000
0000
0010
0000
0000
0000
0000
0000
0000
0000
0000
0000
0000
0000
0000
0000
0000
0000
0100
0000
0000
0000
0000
0000
0000
0000
0000
0000
0000
0000
0000
0000
0000
0000
0001
0000
0000
0000
0000
0000
0000
0000
0000
0000
0000
0000
0000
0000
0000
0000
0010
0000
0000
0000
0000
0000
0000
0000
0000
0000
0000
0000
0000
0000
0000
0000
,
0100
0000
0000
0000
1000
0000
0001
0000
0100
0000
0000
0000
0000
0000
0000
0000
0000
0000
0100
0000
0000
0000
0010
0000
1000
0000
0000
0100
0000
0000
0010
0000
,
0001
0000
0000
0000
0000
0000
0100
0000
0000
0010
0000
0000
0100
0000
0000
0000
0000
0000
0000
0000
0000
0000
0000
0000
0001
0000
0000
0000
0100
0000
0000
0000
0010
0000
0000
0000
1000
0000
0000
0000
0000
0000
0000
0000
0000
1000
0000
0000
,
0100
0000
0000
0000
0000
0000
0000
0000
0000
0000
0000
0000
0000
0000
0000
0000
0000
0000
0010
0000
0000
0000
0000
0000
0000
0000
0000
0000
0000
0000
0000
0000
0000
0000
0000
0000
0001
0000
0000
0000
0000
0000
0000
0000
0000
0000
0000
0000
1000
0000
0000
0000
0000
0000
0000
0000
0000
0000
0000
0000
0000
0000
0000
0000
0000
0000
0000
0000
0000
0000
0000
0000
0000
0000
0000
0000
0000
0000
0000
0000
0000
0000
0000
0000
0000
0000
0000
0000
0000
0000
0000
0000
0000
0000
0000
0000
1000
0000
0000
0000
0000
0000
0000
0000
0000
0000
0000
0000
0000
0000
0000
0000
0100
0000
0000
0000
0000
0000
0000
0000
0000
0000
0000
0000
0000
0000
0000
0000
0010
0000
0000
0000
0000
0000
0000
0000
0000
0000
0000
0000
0000
0000
0000
0000
0001
0000
0000
0000
0000
0000
0000
0000
0000
0000
0000
0000
0000
0000
0000
0000
0000
0000
0000
0000
0000
0000
0000
0000
0100
0000
0000
0000
0000
0000
0000
0000
0000
0000
0000
0000
0010
0000
0000
0000
0000
0000
0000
0000
0000
0000
0000
0000
,
1000
0000
0000
0000
0000
0000
0000
0000
0000
0000
0000
0000
0000
0000
0000
0000
0000
0000
0100
0000
0000
0000
0000
0000
0000
0000
0000
0000
0000
0000
0000
0000
0000
0000
0000
0000
0010
0000
0000
0000
0000
0000
0000
0000
0000
0000
0000
0000
0100
0000
0000
0000
0000
0000
0000
0000
0000
0000
0000
0000
0000
0000
0000
0000
0000
0000
0000
0000
0000
0000
0000
0000
0000
0000
0000
0000
0000
0000
0000
0000
0000
0000
0000
0000
0000
0000
0000
0000
0000
0000
0000
0000
0000
0000
0000
0000
1000
0000
0000
0000
0000
0000
0000
0000
0000
0000
0000
0000
0000
0000
0000
0000
0001
0000
0000
0000
0000
0000
0000
0000
0000
0000
0000
0000
0000
0000
0000
0000
0100
0000
0000
0000
0000
0000
0000
0000
0000
0000
0000
0000
0000
0000
0000
0000
0010
0000
0000
0000
0000
0000
0000
0000
0000
0000
0000
0000
0000
0000
0000
0000
0100
0000
0000
0000
0000
0000
0000
0000
0000
0000
0000
0000
0000
0000
0000
0000
0001
0000
0000
0000
0000
0000
0000
0000
0000
0000
0000
0000
0000
0000
0000
0000
,
0010
0000
0001
0100
0010
0000
0000
0000
0100
0000
0001
0010
0100
0000
0000
0000
,
1000
0000
0000
0000
0000
0000
0001
0000
0000
1000
0000
0000
0002
0000
0000
0000
0000
0000
0000
0000
0000
0000
0000
0000
0000
0000
0000
0000
1003
0000
0000
0000
1000
0000
0000
0000
1000
0000
0000
0000
1000
0000
0000
0000
1000
0000
0000
0000
,
2000
0000
0000
0000
0000
0000
3010
0000
0000
0010
0000
0000
0020
0000
0000
0000
0000
0000
0000
0000
0000
0000
0000
0000
0000
0000
0000
0000
0130
0000
0000
0000
0100
0000
0000
0000
0100
0000
0000
0000
0100
0000
0000
0000
0100
0000
0000
0000
,
0002
0000
0013
0010
0020
0000
0000
0000
0230
0000
1000
1000
2300
0000
0000
0000
,
3020
0000
0000
0000
0000
0000
0130
0000
0000
0100
0000
0000
0200
0000
0000
0000
0000
0000
0000
0000
0000
0000
0000
0000
0300
0000
0000
0000
0001
0000
0000
0000
0001
0000
0000
0000
0001
0000
0000
0000
0001
0000
0000
0000
0001
0000
0000
0000
,
0020
0000
0000
0100
,
0230
0000
0000
1000
,
2300
0000
0001
0000
,
3002
0000
0000
0000
,
0003
0000
0000
0000
;

//---------------dance-double - ----------------
#NOTEDATA:;
#CHARTNAME:;
#STEPSTYPE:dance-double;
#DESCRIPTION:;
#CHARTSTYLE:;
#DIFFICULTY:Challenge;
#METER:13;
#RADARVALUES:0.401714,0.421799,0.095863,0.151784,0.495295,321.000000,12.000000,19.000000,0.000000,0.000000,0.000000,0.000000,0.000000,0.401714,0.421799,0.095863,0.151784,0.495295,321.000000,12.000000,19.000000,0.000000,0.000000,0.000000,0.000000,0.000000;
#CREDIT:;
#NOTES:
// measure 0
00000000
00000000
00000000
00000000
,  // measure 1
00000000
00000000
00000000
00000000
,  // measure 2
00000000
00000000
00000000
00000000
,  // measure 3
00000000
00000000
00000000
00000000
,  // measure 4
10000000
00000000
00000000
00100000
01000000
00000000
00010000
00000000
00000000
00100000
00000000
00000000
00101000
00000000
00000000
00000000
,  // measure 5
00001000
00000000
00000000
00000100
00000001
00000000
00000100
00000000
00000000
00000010
00000000
00000000
00001010
00000000
00000000
00000000
,  // measure 6
00001000
00000000
00000000
00000100
00001000
00000000
01000000
00000000
00000000
00100000
00000000
00000000
00110000
00000000
00000000
00000000
,  // measure 7
10000000
00000000
00000000
00100000
01000000
00000000
00010000
00000000
00000000
00000100
00000000
00000000
00000110
00000000
00000000
00000000
,  // measure 8
00020000
00000000
00031000
00001000
00100000
00000000
00002000
00000000
00013000
00010000
00000100
00000000
00011000
00000000
00000000
00000000
,  // measure 9
02000000
00000000
03001000
00001000
00010000
00000000
00000200
00000000
00010300
00010000
00001000
00000000
00011000
00000000
00000000
00000000
,  // measure 10
00000020
00000000
00010030
00010000
00001000
00000000
00200000
00000000
00301000
00001000
00010000
00000000
00011000
00000000
00000000
00000000
,  // measure 11
00010000
00000000
00000000
00001000
00000000
00000000
00000000
00000000
00100000
00000000
00100000
00000000
01010000
00000000
00000000
00000000
,  // measure 12
00011000
00000000
00000000
00010000
00000100
00000000
00001000
00000000
00000000
00000010
00000100
00000000
00000001
00000000
00000010
00000100
,  // measure 13
00001000
00000000
00000000
00000100
00000010
00000000
00000001
00000000
00000000
00000100
00000010
00000000
00001000
00000000
00010000
00000000
,  // measure 14
00100000
00000000
00000000
10000000
00100000
00000000
01000000
00000000
00000000
10000000
00100000
00000000
01000000
00000000
00010000
01000000
,  // measure 15
00010000
00000000
00000000
00100000
00001000
00000000
00010000
00000000
00000000
00000100
00000010
00000000
00000001
00000010
00000100
00001000
,  // measure 16
00011000
00000000
00000000
00010000
00000100
00000000
00100000
00000000
00000000
01000000
10000000
00000000
00100000
00000000
01000000
10000000
,  // measure 17
01000000
00000000
00000000
00010000
00100000
00000000
01000000
00000000
00000000
00001000
00010000
00000000
00000010
00000000
00000001
00000100
,  // measure 18
00000010
00000000
00000000
00001000
00000100
00000000
00010000
00000000
00000000
00000100
00010000
00000000
01000000
00000000
10000000
00100000
,  // measure 19
01000000
00000000
00000000
10000000
01000000
00000000
00100000
00010000
00000000
00000010
00000100
00000000
00000010
00001000
00000100
00010000
,  // measure 20
00110000
00000000
00000000
01000000
00100000
00000000
00010000
00000000
00000000
00001000
00000100
00000000
00000010
00000000
00010000
00100000
,  // measure 21
01000000
00000000
00000000
00100000
00010000
00000000
01000000
00000000
00000000
00100000
01000000
00000000
00010000
00000000
10000000
01000000
,  // measure 22
10000000
00000000
00000000
00010000
01000000
00000000
00100000
00000000
00000000
01000000
00010000
00000000
00100000
00000000
01000000
00100000
,  // measure 23
00010000
00000000
00000000
01000000
00100000
00000000
10000000
01000000
00000000
01000000
00100000
00000000
00100000
00010000
01000000
00100000
,  // measure 24
01100000
00000000
00000000
00100000
01000000
00000000
00010000
00000000
00000000
00100000
01000000
00000000
10000000
00000000
00010000
10000000
,  // measure 25
00100000
00000000
00000000
01000000
00010000
00000000
00100000
00000000
00000000
01000000
10000000
00000000
00010000
00000000
10000000
00100000
,  // measure 26
01000000
00000000
00000000
00010000
10000000
00000000
01000000
00000000
00000000
00100000
01000000
00000000
10000000
00000000
00010000
01000000
,  // measure 27
00100000
00000000
00000000
00000000
00000000
00000000
01000000
00000000
00010000
00000000
00000000
00000000
00100000
00000000
00000000
00000000
00000000
00000000
01000000
00000000
00000000
00000000
10000000
00000000
00010000
00000000
00000000
10000000
00000000
00000000
01000000
00000000
,  // measure 28
10000000
00000000
00000000
00000000
00000000
00000000
00000000
00000000
00000000
00000000
00000000
00000000
00000000
00000000
00000000
00000000
00000000
00000000
00010000
00000000
00000000
00000000
00000000
00000000
00000000
00000000
00000000
00000000
00000000
00000000
00000000
00000000
00000000
00000000
00000000
00000000
01000000
00000000
00000000
00000000
00000000
00000000
00000000
00000000
00000000
00000000
00000000
00000000
00100000
00000000
00000000
00000000
00000000
00000000
00000000
00000000
00000000
00000000
00000000
00000000
00000000
00000000
00000000
00000000
00000000
00000000
00000000
00000000
00000000
00000000
00000000
00000000
00000000
00000000
00000000
00000000
00000000
00000000
00000000
00000000
00000000
00000000
00000000
00000000
00000000
00000000
00000000
00000000
00000000
00000000
00000000
00000000
00000000
00000000
00000000
00000000
10000000
00000000
00000000
00000000
00000000
00000000
00000000
00000000
00000000
00000000
00000000
00000000
00000000
00000000
00000000
00000000
01000000
00000000
00000000
00000000
00000000
00000000
00000000
00000000
00000000
00000000
00000000
00000000
00000000
00000000
00000000
00000000
00100000
00000000
00000000
00000000
00000000
00000000
00000000
00000000
00000000
00000000
00000000
00000000
00000000
00000000
00000000
00000000
00010000
00000000
00000000
00000000
00000000
00000000
00000000
00000000
00000000
00000000
00000000
00000000
00000000
00000000
00000000
00000000
00000000
00000000
00000000
00000000
00000000
00000000
00000000
00000000
00000000
00000000
00000000
00000000
00000000
00000000
00000000
00000000
00000000
00000000
00000000
00000000
01000000
00000000
00000000
00000000
00000000
00000000
00000000
00000000
00000000
00000000
00000000
00000000
,  // measure 29
00100000
00000000
00000000
00000000
00000000
00000000
00000000
00000000
00000000
00000000
00000000
00000000
00000000
00000000
00000000
00000000
00000000
00000000
01000000
00000000
00000000
00000000
00000000
00000000
00000000
00000000
00000000
00000000
00000000
00000000
00000000
00000000
00000000
00000000
00000000
00000000
00010000
00000000
00000000
00000000
00000000
00000000
00000000
00000000
00000000
00000000
00000000
00000000
00100000
00000000
00000000
00000000
00000000
00000000
00000000
00000000
00000000
00000000
00000000
00000000
00000000
00000000
00000000
00000000
00000000
00000000
00000000
00000000
00000000
00000000
00000000
00000000
00000000
00000000
00000000
00000000
00000000
00000000
00000000
00000000
00000000
00000000
00000000
00000000
00000000
00000000
00000000
00000000
00000000
00000000
00000000
00000000
00000000
00000000
00000000
00000000
01000000
00000000
00000000
00000000
00000000
00000000
00000000
00000000
00000000
00000000
00000000
00000000
00000000
00000000
00000000
00000000
10000000
00000000
00000000
00000000
00000000
00000000
00000000
00000000
00000000
00000000
00000000
00000000
00000000
00000000
00000000
00000000
00100000
00000000
00000000
00000000
00000000
00000000
00000000
00000000
00000000
00000000
00000000
00000000
00000000
00000000
00000000
00000000
01000000
00000000
00000000
00000000
00000000
00000000
00000000
00000000
00000000
00000000
00000000
00000000
00000000
00000000
00000000
00000000
00000000
00000000
00000000
00000000
00000000
00000000
00000000
00000000
00010000
00000000
00000000
00000000
00000000
00000000
00000000
00000000
00000000
00000000
00000000
00000000
00100000
00000000
00000000
00000000
00000000
00000000
00000000
00000000
00000000
00000000
00000000
00000000
,  // measure 30
01000000
00000000
00000000
00000000
00000000
00000000
00000000
00000000
00000000
00000000
00000000
00000000
00000000
00000000
00000000
00000000
00000000
00000000
00100000
00000000
00000000
00000000
00000000
00000000
00000000
00000000
00000000
00000000
00000000
00000000
00000000
00000000
00000000
00000000
00000000
00000000
00010000
00000000
00000000
00000000
00000000
00000000
00000000
00000000
00000000
00000000
00000000
00000000
10000000
00000000
00000000
00000000
00000000
00000000
00000000
00000000
00000000
00000000
00000000
00000000
00000000
00000000
00000000
00000000
00000000
00000000
00000000
00000000
00000000
00000000
00000000
00000000
00000000
00000000
00000000
00000000
00000000
00000000
00000000
00000000
00000000
00000000
00000000
00000000
00000000
00000000
00000000
00000000
00000000
00000000
00000000
00000000
00000000
00000000
00000000
00000000
00010000
00000000
00000000
00000000
00000000
00000000
00000000
00000000
00000000
00000000
00000000
00000000
00000000
00000000
00000000
00000000
01000000
00000000
00000000
00000000
00000000
00000000
00000000
00000000
00000000
00000000
00000000
00000000
00000000
00000000
00000000
00000000
00100000
00000000
00000000
00000000
00000000
00000000
00000000
00000000
00000000
00000000
00000000
00000000
00000000
00000000
00000000
00000000
01000000
00000000
00000000
00000000
00000000
00000000
00000000
00000000
00000000
00000000
00000000
00000000
00000000
00000000
00000000
00000000
00010000
00000000
00000000
00000000
00000000
00000000
00000000
00000000
00000000
00000000
00000000
00000000
00000000
00000000
00000000
00000000
00100000
00000000
00000000
00000000
00000000
00000000
00000000
00000000
00000000
00000000
00000000
00000000
00000000
00000000
00000000
00000000
,  // measure 31
01000000
00000000
00000000
00000000
10000000
00000000
00010000
00000000
01000000
00000000
00000000
00000000
00000000
00000000
00000000
00000000
00000000
00000000
01000000
00000000
00000000
00000000
00100000
00000000
10000000
00000000
00000000
01000000
00000000
00000000
00100000
00000000
,  // measure 32
00010000
00000000
00000000
00000000
00000000
00000000
01000000
00000000
00000000
00100000
00000000
00000000
01000000
00000000
00000000
00000000
00000000
00000000
00000000
00000000
00000000
00000000
00000000
00000000
00010000
00000000
00000000
00000000
01000000
00000000
00000000
00000000
00100000
00000000
00000000
00000000
10000000
00000000
00000000
00000000
00000000
00000000
00000000
00000000
00000000
10000000
00000000
00000000
,  // measure 33
01000000
00000000
00000000
00000000
00000000
00000000
00000000
00000000
00000000
00000000
00000000
00000000
00000000
00000000
00000000
00000000
00000000
00000000
00100000
00000000
00000000
00000000
00000000
00000000
00000000
00000000
00000000
00000000
00000000
00000000
00000000
00000000
00000000
00000000
00000000
00000000
00010000
00000000
00000000
00000000
00000000
00000000
00000000
00000000
00000000
00000000
00000000
00000000
10000000
00000000
00000000
00000000
00000000
00000000
00000000
00000000
00000000
00000000
00000000
00000000
00000000
00000000
00000000
00000000
00000000
00000000
00000000
00000000
00000000
00000000
00000000
00000000
00000000
00000000
00000000
00000000
00000000
00000000
00000000
00000000
00000000
00000000
00000000
00000000
00000000
00000000
00000000
00000000
00000000
00000000
00000000
00000000
00000000
00000000
00000000
00000000
10000000
00000000
00000000
00000000
00000000
00000000
00000000
00000000
00000000
00000000
00000000
00000000
00000000
00000000
00000000
00000000
01000000
00000000
00000000
00000000
00000000
00000000
00000000
00000000
00000000
00000000
00000000
00000000
00000000
00000000
00000000
00000000
00100000
00000000
00000000
00000000
00000000
00000000
00000000
00000000
00000000
00000000
00000000
00000000
00000000
00000000
00000000
00000000
00010000
00000000
00000000
00000000
00000000
00000000
00000000
00000000
00000000
00000000
00000000
00000000
00000000
00000000
00000000
00000000
00000000
00000000
00000000
00000000
00000000
00000000
00000000
00000000
01000000
00000000
00000000
00000000
00000000
00000000
00000000
00000000
00000000
00000000
00000000
00000000
00100000
00000000
00000000
00000000
00000000
00000000
00000000
00000000
00000000
00000000
00000000
00000000
,  // measure 34
10000000
00000000
00000000
00000000
00000000
00000000
00000000
00000000
00000000
00000000
00000000
00000000
00000000
00000000
00000000
00000000
00000000
00000000
01000000
00000000
00000000
00000000
00000000
00000000
00000000
00000000
00000000
00000000
00000000
00000000
00000000
00000000
00000000
00000000
00000000
00000000
00100000
00000000
00000000
00000000
00000000
00000000
00000000
00000000
00000000
00000000
00000000
00000000
01000000
00000000
00000000
00000000
00000000
00000000
00000000
00000000
00000000
00000000
00000000
00000000
00000000
00000000
00000000
00000000
00000000
00000000
00000000
00000000
00000000
00000000
00000000
00000000
00000000
00000000
00000000
00000000
00000000
00000000
00000000
00000000
00000000
00000000
00000000
00000000
00000000
00000000
00000000
00000000
00000000
00000000
00000000
00000000
00000000
00000000
00000000
00000000
10000000
00000000
00000000
00000000
00000000
00000000
00000000
00000000
00000000
00000000
00000000
00000000
00000000
00000000
00000000
00000000
00010000
00000000
00000000
00000000
00000000
00000000
00000000
00000000
00000000
00000000
00000000
00000000
00000000
00000000
00000000
00000000
01000000
00000000
00000000
00000000
00000000
00000000
00000000
00000000
00000000
00000000
00000000
00000000
00000000
00000000
00000000
00000000
00100000
00000000
00000000
00000000
00000000
00000000
00000000
00000000
00000000
00000000
00000000
00000000
00000000
00000000
00000000
00000000
01000000
00000000
00000000
00000000
00000000
00000000
00000000
00000000
00000000
00000000
00000000
00000000
00000000
00000000
00000000
00000000
00010000
00000000
00000000
00000000
00000000
00000000
00000000
00000000
00000000
00000000
00000000
00000000
00000000
00000000
00000000
00000000
,  // measure 35
00100000
00000000
00010000
01000000
00100000
00000000
00000000
00000000
01000000
00000000
00010000
00100000
01000000
00000000
00000000
00000000
,  // measure 36
10000000
00000000
00000000
00000000
00000000
00000000
00010000
00000000
00000000
10000000
00000000
00000000
00020000
00000000
00000000
00000000
00000000
00000000
00000000
00000000
00000000
00000000
00000000
00000000
00000000
00000000
00000000
00000000
10030000
00000000
00000000
00000000
10000000
00000000
00000000
00000000
10000000
00000000
00000000
00000000
10000000
00000000
00000000
00000000
10000000
00000000
00000000
00000000
,  // measure 37
20000000
00000000
00000000
00000000
00000000
00000000
30100000
00000000
00000000
00100000
00000000
00000000
00200000
00000000
00000000
00000000
00000000
00000000
00000000
00000000
00000000
00000000
00000000
00000000
00000000
00000000
00000000
00000000
01300000
00000000
00000000
00000000
01000000
00000000
00000000
00000000
01000000
00000000
00000000
00000000
01000000
00000000
00000000
00000000
01000000
00000000
00000000
00000000
,  // measure 38
00020000
00000000
00130000
00100000
00200000
00000000
00000000
00000000
02300000
00000000
10000000
10000000
23000000
00000000
00000000
00000000
,  // measure 39
30200000
00000000
00000000
00000000
00000000
00000000
01300000
00000000
00000000
01000000
00000000
00000000
02000000
00000000
00000000
00000000
00000000
00000000
00000000
00000000
00000000
00000000
00000000
00000000
03000000
00000000
00000000
00000000
00010000
00000000
00000000
00000000
00010000
00000000
00000000
00000000
00010000
00000000
00000000
00000000
00010000
00000000
00000000
00000000
00010000
00000000
00000000
00000000
,  // measure 40
00200000
00000000
00000000
01000000
,  // measure 41
02300000
00000000
00000000
10000000
,  // measure 42
23000000
00000000
00010000
00000000
,  // measure 43
30020000
00000000
00000000
00000000
,  // measure 44
00030000
00000000
00000000
00000000
;
