#VERSION:0.81;
#TITLE:Burn;
#SUBTITLE:;
#ARTIST:Ellie Goulding;
#TITLETRANSLIT:;
#SUBTITLETRANSLIT:;
#ARTISTTRANSLIT:;
#GENRE:;
#ORIGIN:;
#CREDIT:;
#BANNER:Burn.png;
#BACKGROUND:;
#PREVIEWVID:;
#JACKET:Burn-jacket.png;
#CDIMAGE:;
#DISCIMAGE:;
#LYRICSPATH:;
#CDTITLE:;
#MUSIC:Burn.mp3;
#OFFSET:-5.687363;
#SAMPLESTART:54.279987;
#SAMPLELENGTH:15.000000;
#SELECTABLE:YES;
#BPMS:0.000=174.000;
#STOPS:;
#DELAYS:;
#WARPS:;
#TIMESIGNATURES:0.000=4=4;
#TICKCOUNTS:0.000=4;
#COMBOS:0.000=1;
#SPEEDS:0.000=1.000=0.000=0;
#SCROLLS:0.000=1.000;
#FAKES:;
#LABELS:0.000=Song Start;
#BGCHANGES:-17.000=Burn.avi=1.000=0=0=0=StretchNoLoop====,
99999=-nosongbg-=1.000=0=0=0 // don't automatically add -songbackground-
;
#KEYSOUNDS:;
#ATTACKS:
;

//---------------dance-single - ----------------
#NOTEDATA:;
#CHARTNAME:;
#STEPSTYPE:dance-single;
#DESCRIPTION:;
#CHARTSTYLE:;
#DIFFICULTY:Beginner;
#METER:3;
#RADARVALUES:0.144111,0.166396,0.062399,0.000000,0.000000,91.000000,6.000000,0.000000,0.000000,0.000000,0.000000,0.000000,0.000000,0.144111,0.166396,0.062399,0.000000,0.000000,91.000000,6.000000,0.000000,0.000000,0.000000,0.000000,0.000000,0.000000;
#CREDIT:;
#NOTES:
0000
0000
0000
0000
,
0000
0000
0000
0000
,
0000
0000
0000
0000
,
0000
0000
0000
0000
,
1000
0000
0000
0000
,
0001
0000
0000
0000
,
0001
0000
0000
0000
,
0001
0000
0000
0000
,
1000
0000
0000
0000
,
0001
0000
0000
0000
,
0100
0000
0000
0000
,
0000
0000
0000
0000
,
0001
0000
0000
0000
,
1000
0000
0000
0000
,
0010
0000
0000
0000
,
0000
0000
0000
0000
,
1000
0000
0000
0000
,
0100
0000
0000
0000
,
0010
0000
0000
0000
,
0001
0000
0000
0000
,
0100
0000
0000
0000
,
0010
0000
0000
0000
,
1000
0000
0000
0000
,
0001
0000
0000
0000
,
1000
0000
1000
0000
,
1000
0000
0000
0000
,
0001
0000
0001
0000
,
0001
0000
0000
0000
,
0100
0000
0100
0000
,
0100
0000
0000
0000
,
0010
0000
0010
0000
,
0010
0000
0000
0000
,
1000
0000
1000
0000
,
0001
0000
0000
0000
,
0001
0000
0001
0000
,
1000
0000
0000
0000
,
0010
0000
0010
0000
,
0010
0000
0010
0000
,
0100
0000
0100
0000
,
0100
0000
0000
0000
,
1001
0000
1000
0000
,
0001
0000
0001
0000
,
1001
0000
0001
0000
,
1000
0000
1000
0000
,
1001
0000
0010
0000
,
0100
0000
0100
0000
,
1001
0000
0100
0000
,
0010
0000
0010
0000
,
1000
0000
1000
0000
,
0001
0000
0001
0000
,
1000
0000
1000
0000
,
0001
0000
0001
0000
,
0100
0000
0100
0000
,
0010
0000
0010
0000
,
0100
0000
0100
0000
,
0010
0000
0010
0000
,
1000
0000
1000
0000
,
0100
0000
0100
0000
,
0010
0000
0010
0000
,
0001
0000
0001
0000
,
1001
0000
0000
0000
,
1000
0000
1000
0000
,
0001
0000
1000
0000
,
0001
0000
1000
0000
,
1001
0000
0000
0000
;

//---------------dance-single - ----------------
#NOTEDATA:;
#CHARTNAME:;
#STEPSTYPE:dance-single;
#DESCRIPTION:;
#CHARTSTYLE:;
#DIFFICULTY:Easy;
#METER:6;
#RADARVALUES:0.212452,0.232955,0.114397,0.010400,0.000000,131.000000,11.000000,1.000000,0.000000,0.000000,0.000000,0.000000,0.000000,0.212452,0.232955,0.114397,0.010400,0.000000,131.000000,11.000000,1.000000,0.000000,0.000000,0.000000,0.000000,0.000000;
#CREDIT:;
#NOTES:
0000
0000
0000
0000
,
0000
0000
0000
0000
,
0000
0000
0000
0000
,
0000
0000
0000
0000
,
1001
0000
0000
0000
,
1000
0000
1000
0000
,
0010
0000
0000
0000
,
0000
0000
0000
0000
,
1000
0000
0000
0000
,
0001
0100
0001
0000
,
1000
0000
0000
0000
,
0001
0000
0000
0000
,
0010
0000
0000
0000
,
0100
1000
0100
0000
,
0010
0000
0000
0000
,
0001
0000
0000
0000
,
1000
0000
0000
0000
,
0010
0010
0100
0000
,
0001
0000
0001
0000
,
1000
0000
1000
0000
,
0001
0000
0000
1000
,
0100
0000
0000
1000
,
0010
0000
0010
0000
,
0100
0000
0100
0000
,
0001
0000
0000
1000
,
0001
0000
0000
0001
,
0010
0000
0010
0000
,
0100
0000
0100
0000
,
1000
0000
0100
0000
,
0010
0000
0001
0000
,
0100
0000
0010
0000
,
1000
0000
0001
0000
,
1000
0100
1000
0000
,
0001
0100
0001
0000
,
1000
0010
1000
0000
,
0001
0010
0100
1000
,
1100
0000
1100
0000
,
0011
0000
0000
0000
,
0011
0000
0011
0000
,
1100
0000
0000
0000
,
1000
0000
0001
0100
,
0000
0010
1000
0000
,
0100
0000
0010
0100
,
0000
1000
0001
0000
,
0100
0000
0010
1000
,
0000
0100
0010
0000
,
0001
0000
0100
0001
,
0000
1000
0010
0000
,
1000
1000
0100
0000
,
0001
0001
0100
0000
,
1000
1000
0010
0000
,
0001
0001
0010
0000
,
1000
1000
0100
0000
,
0010
0010
0001
0000
,
1000
1000
0010
0000
,
0100
0100
0001
0000
,
1000
0100
1000
0000
,
0001
0100
0001
0000
,
1000
0010
0100
0000
,
0001
0010
0100
0000
,
1100
0000
1001
0000
,
0001
0000
0000
0100
0000
0000
0000
0000
,
1001
0000
0101
0000
,
1000
0000
0000
0200
0000
0000
0000
0000
,
0300
0000
0000
0000
;

//---------------dance-single - ----------------
#NOTEDATA:;
#CHARTNAME:;
#STEPSTYPE:dance-single;
#DESCRIPTION:;
#CHARTSTYLE:;
#DIFFICULTY:Medium;
#METER:9;
#RADARVALUES:0.325364,0.366072,0.218395,0.083198,0.000000,190.000000,21.000000,8.000000,0.000000,0.000000,0.000000,0.000000,0.000000,0.325364,0.366072,0.218395,0.083198,0.000000,190.000000,21.000000,8.000000,0.000000,0.000000,0.000000,0.000000,0.000000;
#CREDIT:;
#NOTES:
0000
0000
0000
0000
,
0000
0000
0000
0000
,
0000
0000
0000
0000
,
0000
0000
0000
0000
0000
0000
0000
0001
,
0000
0000
0000
0000
,
1000
0100
1000
0000
0001
0000
0000
0100
,
0000
0000
0000
0000
,
0000
0000
0000
0000
0000
0000
0000
0001
,
0000
0000
0000
0000
,
0010
0100
0010
0000
0100
0000
0000
1000
,
0000
0000
0000
0000
,
0000
0000
0000
0000
0000
0000
0000
0010
,
0000
0000
0000
0000
,
0000
1000
0010
0000
0100
0000
0000
0010
,
0000
0000
1000
0000
0000
0000
0000
0010
,
0000
0000
1000
0000
0000
0000
0000
0001
,
0000
0000
0000
0000
,
0000
0010
0100
0000
1000
0000
0000
0001
,
0000
0000
0100
0000
0000
0000
0000
0001
,
0000
0000
0100
0000
0000
0000
0000
0020
,
0000
0000
0000
0000
0000
0000
0000
2030
,
0000
0000
0000
0000
0000
0001
0000
3002
,
0000
0000
0000
0000
0000
0103
0001
0100
,
0000
0000
0000
0000
0000
0010
0000
0000
,
0010
0000
0000
1000
0000
0000
0100
0000
,
0010
0000
0000
0001
0000
0000
0100
0000
,
1000
0000
0000
0001
0000
0000
0010
0000
,
0001
0000
0000
0010
0000
0000
1000
0000
,
0100
0000
0000
0100
0000
0000
0010
0000
,
0001
0000
0000
0100
0000
0000
0010
0000
,
0100
0000
0000
0001
0000
0000
1000
0000
,
0100
0000
0000
1000
0000
0000
0010
0000
,
0100
0000
0000
0101
0000
0000
0001
0000
,
0010
0000
0000
0110
0000
0000
0100
0000
,
1000
0000
0000
1010
0000
0000
0010
0000
,
0100
0000
0001
0000
1000
0100
1000
0000
,
1100
0000
0000
0011
0000
0000
1001
0000
,
0000
0110
0000
0000
0010
1000
0100
0000
,
1100
0000
0000
0011
0000
0000
1100
0000
,
0001
0000
1000
0000
0001
0001
0100
0000
,
0101
0000
0000
1010
0000
0000
0101
0000
,
0000
1010
0000
0000
1000
0100
1000
0000
,
0011
0000
0000
1100
0000
0000
0011
0000
,
0000
1100
0000
0000
0001
0010
0001
0000
,
0101
0000
0000
0110
0000
0000
1010
0000
,
0000
0000
0100
0000
0100
0010
0001
0000
,
0000
0000
0001
0000
0001
1000
0100
0000
,
0000
0000
0100
0000
1000
0100
1000
0000
,
0001
0000
0001
0100
0000
0100
0001
0000
,
1000
0000
0100
1000
0000
1000
0010
0000
,
0100
0000
0001
0100
0000
0100
0010
0000
,
0100
0000
0001
1000
0000
1000
0100
0000
,
0010
0000
0001
0100
0000
0100
0010
0000
,
0100
0000
0001
1000
0000
1000
0100
0000
,
1000
0000
0001
0100
0000
0100
0010
0000
,
1000
0000
0010
0100
0000
0100
0001
0000
,
1000
0000
0100
0001
0000
0100
1000
0000
,
0001
0000
0100
1000
0000
0100
0001
0000
,
0010
0000
0100
1000
0000
0010
0100
0000
,
0001
0000
1000
0000
0100
0010
0100
0000
,
2000
0000
0000
0001
0000
0000
0100
0000
,
3002
0000
0000
0100
0000
0000
1000
0000
,
2003
0000
0000
0010
0000
0000
0100
0000
,
3002
0000
0000
0010
0000
0000
0203
0000
,
0300
0000
0000
0000
;

//---------------dance-single - ----------------
#NOTEDATA:;
#CHARTNAME:;
#STEPSTYPE:dance-single;
#DESCRIPTION:;
#CHARTSTYLE:;
#DIFFICULTY:Hard;
#METER:12;
#RADARVALUES:0.555645,0.565747,0.322393,0.135197,0.000000,330.000000,31.000000,13.000000,0.000000,0.000000,0.000000,0.000000,0.000000,0.555645,0.565747,0.322393,0.135197,0.000000,330.000000,31.000000,13.000000,0.000000,0.000000,0.000000,0.000000,0.000000;
#CREDIT:;
#NOTES:
0000
0000
0000
0000
,
0000
0000
0000
0000
,
0000
0000
0000
0000
,
0000
0000
0000
0000
,
1000
0000
0000
0001
0000
0000
0010
0100
,
1000
0000
0000
0001
0000
0000
1000
0100
,
1000
0000
0000
0001
0000
0000
1000
0000
,
0001
0000
0000
0100
0010
1000
0010
0100
,
0001
0000
0000
0001
0000
0000
1000
0100
,
0001
0100
1000
0000
0010
0000
0100
0001
,
0000
1000
0000
0001
0000
1000
0010
0000
,
0100
0000
0000
0001
0000
0000
0010
0100
,
0010
0000
0000
0001
0000
0000
0100
0010
,
1000
0001
1000
0000
0100
0000
0010
0100
,
0000
0100
1000
0000
0001
0000
1000
0100
,
0000
1000
0001
0100
0000
0001
1000
0100
,
0001
0000
0000
0001
0000
0000
0100
1000
,
0010
0100
0001
1000
0100
0001
0100
1000
,
0001
0010
0100
0000
0010
0000
0100
0010
,
0000
0100
1000
0000
0001
1000
0010
1000
,
0100
0000
0000
0100
0000
0010
0100
0000
,
1000
0000
0000
0010
0000
0100
0001
0000
,
0100
0000
0000
0010
0000
0000
0100
0001
,
0100
0000
0000
0001
0000
1000
0100
2000
,
0000
0000
3000
0011
0000
0010
0001
0200
,
0000
0000
0300
0110
0000
0010
1000
0200
,
0000
0000
0300
1100
0000
0001
0100
0020
,
0000
0000
0030
1001
0000
0001
1000
0200
,
1000
0000
0300
1100
0000
1000
0010
0200
,
0001
0000
0300
0101
0000
0001
1000
0200
,
0010
0000
0300
0011
0000
0001
0100
0002
,
1000
0000
0003
1100
0000
1000
0001
0001
,
1000
0000
0000
0011
0000
0001
0100
0010
,
0100
0000
0000
1010
0000
1000
0100
0010
,
0001
0000
0000
1010
0000
0010
1000
0100
,
0010
0000
0001
0001
1000
0010
0100
0001
,
1010
0000
0000
1010
0000
0000
0101
0000
,
0000
0101
0000
0001
0001
0010
0100
1000
,
1100
0000
0000
0011
0000
0000
1100
0000
,
0000
1001
0000
0001
0100
0010
1000
0100
,
0110
0000
0010
0001
0000
0001
0100
0000
,
0100
0020
0000
1030
1000
0100
0001
0100
,
1000
0000
1000
0001
0000
0001
0100
0001
,
0000
0010
0000
0010
1000
0010
0100
1000
,
0010
0000
0010
0100
0000
0100
0001
1000
,
1000
0001
0010
0001
1000
0010
0100
0001
,
0010
0100
1000
0010
0100
0001
1000
0100
,
1000
0001
0100
0001
1000
0100
0010
0100
,
1000
0000
0100
1000
0000
1000
0001
0100
,
1000
0100
0001
0001
0100
1000
0100
0010
,
1000
0010
0001
0001
0010
1000
0100
0010
,
0100
1000
0010
0100
0001
0010
0100
1000
,
0001
0000
0010
0100
0000
0100
1000
0100
,
0010
0001
0100
0010
0000
0010
1000
0100
,
0010
0001
0100
0010
0000
0010
1000
0100
,
0010
0100
1000
0001
0000
0001
1000
0100
,
1100
0100
0010
0001
0000
0001
0100
0010
,
0110
0010
1000
0100
0000
0100
1000
0100
,
0110
0010
0001
0100
0000
0100
0001
0100
,
0110
0010
1000
0100
0001
0100
1000
0001
,
1100
0000
0200
0310
0000
0020
0031
0000
,
0101
0000
0000
0110
0000
0000
1010
0000
,
1000
0001
0010
0110
0000
0000
0000
0000
,
1000
0001
0100
0110
0000
2002
0000
0000
,
3003
0000
0000
0000
;
