#VERSION:0.81;
#TITLE:Break Free (feat. Zedd);
#SUBTITLE:;
#ARTIST:Ariana Grande;
#TITLETRANSLIT:;
#SUBTITLETRANSLIT:;
#ARTISTTRANSLIT:;
#GENRE:Electro-Pop;
#ORIGIN:;
#CREDIT:hooky;
#BANNER:Break Free (feat. Zedd).png;
#BACKGROUND:Break Free (feat. Zedd)-bg.png;
#PREVIEWVID:;
#JACKET:Break Free (feat. Zedd)-jacket.png;
#CDIMAGE:;
#DISCIMAGE:;
#LYRICSPATH:;
#CDTITLE:;
#MUSIC:Break Free (feat. Zedd).ogg;
#OFFSET:-0.213000;
#SAMPLESTART:99.199997;
#SAMPLELENGTH:15.000002;
#SELECTABLE:YES;
#DISPLAYBPM:130.000000;
#BPMS:0.000=130.000;
#STOPS:;
#DELAYS:;
#WARPS:;
#TIMESIGNATURES:0.000=4=4;
#TICKCOUNTS:0.000=4;
#COMBOS:0.000=1;
#SPEEDS:0.000=1.000=0.000=0;
#SCROLLS:0.000=1.000;
#FAKES:;
#LABELS:0.000=Song Start;
#BGCHANGES:-0.500=Break Free (feat. Zedd).avi=1.000=0=0=0=StretchNoLoop====,
99999=-nosongbg-=1.000=0=0=0 // don't automatically add -songbackground-
;
#KEYSOUNDS:;
#ATTACKS:
;

//---------------dance-single - hooky----------------
#NOTEDATA:;
#CHARTNAME:hooky;
#STEPSTYPE:dance-single;
#DESCRIPTION:hooky;
#CHARTSTYLE:;
#DIFFICULTY:Hard;
#METER:10;
#RADARVALUES:0.426426,0.450693,0.172067,0.306728,0.145883,335.000000,23.000000,41.000000,0.000000,0.000000,0.000000,0.000000,0.000000,0.426426,0.450693,0.172067,0.306728,0.145883,335.000000,23.000000,41.000000,0.000000,0.000000,0.000000,0.000000,0.000000;
#CREDIT:hooky;
#DISPLAYBPM:130.000000;
#NOTES:
0000
0000
0000
0000
,
0000
0000
0000
0000
,
0000
0000
0000
0000
,
0000
0000
0000
0000
,
1000
0100
1000
0000
0010
0000
0100
0000
,
0001
0010
0001
0000
0100
0000
0010
0000
,
1000
1000
1000
0000
0001
0001
0001
0000
,
0100
0110
0010
1010
,
1000
0010
0100
0000
0100
0001
0010
0000
,
0010
0001
0100
0000
0100
0010
1000
0000
,
0100
0100
0110
0000
0010
0010
0011
0000
,
0100
0000
0100
0000
0010
0011
0000
0001
,
1001
0000
1001
0000
0100
0010
1000
0000
,
0100
0100
0010
0100
0000
0010
0001
0000
,
0100
0100
0010
0000
0010
0010
0100
0000
,
0001
0010
0001
0000
0001
0000
1000
1100
,
1000
0000
0010
0000
0100
0001
0010
0000
,
0001
0000
0001
0000
1000
0010
0100
0000
,
0001
0001
0001
0000
1000
1000
1000
0000
,
0010
0100
0010
0100
0010
0100
0010
0100
,
0210
0000
0000
0020
0000
0000
0330
0000
,
2000
0000
0000
0002
3000
0000
0013
0000
,
0200
0000
0000
0020
0000
0000
0330
0000
,
0002
0000
0000
2000
0003
0000
3010
0000
,
0200
0000
0000
0020
0000
0000
0330
0000
,
2000
0000
0000
0200
0000
0000
3300
0000
,
0020
0000
0000
0002
0000
0000
0033
0000
,
0100
0010
0100
0010
0100
0010
0100
0010
,
0110
0000
0010
1000
0100
0100
0010
0000
,
0001
0000
1000
0010
0100
0001
0001
0000
,
0100
0010
1000
0000
0001
0010
0001
0000
,
0001
0100
1000
0100
0001
0100
1000
0100
,
0001
0010
0001
0000
0100
0000
0100
0000
,
0010
1000
0100
0000
0001
0100
1000
0000
,
0010
0001
0010
1000
0100
0000
0100
0000
,
1000
0001
1000
0001
1000
0001
1000
0000
2002
0000
0000
0000
0000
0000
3003
0000
,
0220
0000
0030
0302
,
0020
0003
0200
0030
,
2000
0000
0000
0300
,
0200
0000
0000
3300
,
0020
0000
0000
0032
,
2000
0003
0020
3000
,
0200
0030
0001
0300
,
2002
0000
0000
3003
,
1000
0010
1000
0000
0010
0100
0010
0000
,
0100
0001
0100
0000
0001
0010
0001
0000
,
1000
0100
1000
0000
0001
0100
0001
0000
,
0010
0010
0010
0000
0100
0100
0100
0000
,
1000
0010
0100
0000
0001
0010
0100
0000
,
1000
0001
0100
0000
0100
0010
1000
0000
,
2002
0000
0000
0000
,
0000
0000
0000
3003
,
1000
0010
1000
0000
0100
0000
0100
0000
0010
0001
0010
0000
0001
0000
0001
0000
,
0202
0000
0303
1001
,
0110
0010
1000
0100
1000
0010
0010
0000
,
0100
0001
0010
0001
1000
1000
1000
0000
,
0010
0010
0010
0000
0100
0100
0100
0000
,
0001
0010
1000
0010
0001
0010
1000
0010
,
0001
0000
0101
0000
0100
0010
1000
0000
,
0100
0010
0001
0000
0100
0010
1000
0000
,
0220
0000
0000
0000
0000
0000
0000
0000
0000
0000
0000
0000
0000
0330
0000
0000
,
0100
0010
0100
0010
0100
0010
0100
0010
0100
0110
0000
0000
,
1001
0000
0001
1000
0000
1000
0010
0000
0010
0100
0000
0000
,
0010
0000
0010
0100
0000
0100
0001
0000
0001
1000
0000
0000
,
0100
0000
0100
1000
0000
1000
0010
0000
0010
0100
0000
0000
,
0001
0000
0001
0010
0000
0010
0001
0100
0010
0100
0000
0010
,
1000
0000
1000
0100
0000
0100
0010
0000
0010
0002
0000
0000
,
0103
0000
0100
0010
0000
0010
0100
0000
0100
0001
0000
0000
,
1000
0100
1000
0100
1000
0100
1000
0010
1000
0010
1000
0010
,
2020
0000
0000
3030
,
0220
0000
0000
0000
0000
0000
0300
0030
;

//---------------dance-single - ----------------
#NOTEDATA:;
#CHARTNAME:;
#STEPSTYPE:dance-single;
#DESCRIPTION:;
#CHARTSTYLE:;
#DIFFICULTY:Medium;
#METER:6;
#RADARVALUES:0.263978,0.318137,0.082293,0.179548,0.000000,212.000000,11.000000,24.000000,0.000000,0.000000,0.000000,0.000000,0.000000,0.263978,0.318137,0.082293,0.179548,0.000000,212.000000,11.000000,24.000000,0.000000,0.000000,0.000000,0.000000,0.000000;
#CREDIT:;
#DISPLAYBPM:130.000000;
#NOTES:
0000
0000
0000
0000
,
0000
0000
0000
0000
,
0000
0000
0000
0000
,
0000
0000
0000
0000
,
1000
1000
0001
0001
,
1000
1000
0010
0010
,
0100
0001
0010
0010
,
0002
0000
2000
3003
,
1000
1000
0010
0100
,
0001
0001
0010
0001
,
0100
0100
0010
0010
,
2000
0000
0002
3003
,
0100
0010
1000
1000
,
0010
0000
0100
0001
0010
0000
0000
0000
,
0010
0010
0001
0100
,
0010
1000
0100
0000
0000
0000
0100
0000
,
1100
1000
0010
0100
,
0001
0001
0010
0001
,
0100
0010
1000
0000
1000
0000
0100
0000
,
0010
0001
0100
0000
0010
0000
0100
0000
,
2002
0000
0000
0003
,
0200
0000
0000
0300
,
0020
0000
0000
0030
,
0002
0000
0000
3003
,
0002
0000
0000
0000
,
0020
0000
0000
0030
,
0200
0000
0000
0303
,
1000
0010
1000
0010
,
0101
0010
0001
0100
,
1010
0010
0100
0001
,
0011
0100
1100
1000
,
0010
0100
0001
0001
,
0010
0001
0100
0000
0010
0000
0010
0000
,
0010
1000
0100
0000
1000
0000
1000
0000
,
0010
0010
0100
0100
,
0010
0100
0010
0100
0010
0100
0010
0100
,
0220
0000
0000
0000
,
0300
0000
0000
0000
,
1000
0000
0100
0000
,
0001
0000
0100
0000
,
0200
0000
0000
0000
,
0000
0000
0000
0330
,
1000
0000
0001
0000
,
2000
0000
0010
3000
,
0010
0010
0010
0010
,
0100
0100
0100
0100
,
0001
0001
0001
0001
,
1000
1000
1000
1000
,
0010
0010
0010
0010
,
0100
0100
0100
0100
,
0220
0000
0000
0000
,
0000
0000
0000
0330
,
1000
1000
0001
0001
,
2002
0000
0000
3003
,
0010
0000
0010
0000
0100
0001
0010
0000
,
0001
0001
1000
0000
,
0010
0100
0010
0000
0010
0000
0000
0000
,
1000
0100
1000
0000
1000
0000
0000
0000
,
0001
0010
0001
0001
,
0100
0010
1000
1000
,
0001
0001
1000
0000
,
2002
0000
0000
3003
,
1000
1000
0001
0001
,
1000
1000
0001
0001
,
1000
1000
0001
0001
,
0100
0100
0010
0010
,
0100
0100
0001
0001
,
0010
0010
0001
0001
,
0100
0100
0010
0010
,
1000
1000
0100
0100
,
2002
0000
0000
0000
0000
0000
3000
0003
;

//---------------dance-single - ----------------
#NOTEDATA:;
#CHARTNAME:;
#STEPSTYPE:dance-single;
#DESCRIPTION:;
#CHARTSTYLE:;
#DIFFICULTY:Easy;
#METER:5;
#RADARVALUES:0.195579,0.211717,0.119699,0.104736,0.000000,153.000000,16.000000,14.000000,0.000000,0.000000,0.000000,0.000000,0.000000,0.195579,0.211717,0.119699,0.104736,0.000000,153.000000,16.000000,14.000000,0.000000,0.000000,0.000000,0.000000,0.000000;
#CREDIT:;
#DISPLAYBPM:130.000000;
#NOTES:
0000
0000
0000
0000
,
0000
0000
0000
0000
,
0000
0000
0000
0000
,
0000
0000
0000
0000
,
1000
0000
1000
0000
,
0001
0000
0001
0000
,
1000
0000
0001
0000
,
1001
0000
0000
0000
,
0100
0000
0010
0000
,
0100
0000
0010
0000
,
0100
0000
0100
0000
,
0110
0000
0000
0000
,
1000
0000
0010
0000
,
0100
0100
0100
0000
,
0001
0010
0001
0000
,
0100
0100
0100
0000
,
0010
1000
0100
0000
,
1000
1000
1000
0000
,
0010
0100
0001
0000
,
0001
0001
0001
0001
,
1002
0000
0000
0000
,
0100
0000
0000
0000
,
0010
0000
0000
0000
,
1000
0000
0000
0003
,
0200
0000
0000
0000
,
0010
0000
0000
0000
,
0001
0000
0000
0300
,
0001
1000
0001
1000
,
1001
0000
0001
0001
,
0101
0000
0100
0100
,
0110
0000
0010
0010
,
1010
0000
1000
1000
,
1100
0000
1000
1000
,
1001
0000
0001
0001
,
0101
0000
0101
0000
,
2002
0000
0000
3003
,
0220
0000
0000
0000
,
0300
0000
0000
0000
,
1000
0000
0000
0000
,
0001
0000
0000
0000
,
0200
0000
0000
0000
,
0330
0000
0000
0000
,
1000
0000
0001
0000
,
0100
0000
0010
0000
,
1000
0001
1000
1000
,
0010
0100
0010
0010
,
1000
0100
1000
1000
,
0001
0010
0001
0001
,
0001
0100
1000
0100
,
0001
0001
0010
0001
,
2002
0000
0000
0000
,
0000
0000
0000
3003
,
0100
0100
0100
0100
,
0220
0000
0000
0330
,
0001
0010
0001
0001
,
0100
0010
1000
0000
,
0100
0100
0010
0100
,
0100
1000
0100
0000
,
1000
1000
0010
0010
,
0100
0100
0001
0001
,
0010
0001
0100
0010
,
2000
0000
0000
3001
,
0001
0000
0001
0000
,
1000
0000
1000
0000
,
0001
0000
0001
0000
,
1000
0000
1000
0000
,
0010
0000
0010
0000
,
0100
0000
0100
0000
,
0010
0000
0010
0000
,
0100
0000
0100
0000
,
2002
0000
0000
3003
;

//---------------dance-single - ----------------
#NOTEDATA:;
#CHARTNAME:;
#STEPSTYPE:dance-single;
#DESCRIPTION:;
#CHARTSTYLE:;
#DIFFICULTY:Beginner;
#METER:3;
#RADARVALUES:0.112217,0.130920,0.067330,0.082293,0.000000,85.000000,9.000000,11.000000,0.000000,0.000000,0.000000,0.000000,0.000000,0.112217,0.130920,0.067330,0.082293,0.000000,85.000000,9.000000,11.000000,0.000000,0.000000,0.000000,0.000000,0.000000;
#CREDIT:;
#DISPLAYBPM:130.000000;
#NOTES:
0000
0000
0000
0000
,
0000
0000
0000
0000
,
0000
0000
0000
0000
,
0000
0000
0000
0000
,
1000
0000
1000
0000
,
1000
0000
0000
0000
,
0001
0000
0001
0000
,
0001
0000
0000
0000
,
0100
0000
0100
0000
,
0100
0000
0000
0000
,
0010
0000
0010
0000
,
0010
0000
0000
0000
,
1000
0000
0100
0000
,
1000
1000
1000
0000
,
0010
0000
0001
0000
,
0010
0010
0010
0000
,
0100
0000
0001
0000
,
0100
0100
0100
0000
,
0001
0000
0010
0000
,
0001
0001
0001
0000
,
2002
0000
0000
0000
,
3000
0000
0000
0000
,
0003
0000
0000
0000
,
1000
0000
0000
0000
,
2002
0000
0000
0000
,
0003
0000
0000
0000
,
3000
0000
0000
0000
,
0001
0000
0000
0000
,
1000
0000
0000
0000
,
0001
0000
0000
0000
,
1000
0000
0000
0000
,
0001
0000
0000
0000
,
0100
0000
0010
0000
,
0100
0100
0100
0000
,
0002
0000
0003
0000
,
2000
0000
3000
0000
,
0220
0000
0000
0000
,
0030
0000
0000
0000
,
0300
0000
0000
0000
,
0010
0000
0000
0000
,
0220
0000
0000
0000
,
0300
0000
0000
0000
,
0030
0000
0000
0000
,
0100
0000
0000
0000
,
0010
0000
0000
0000
,
0010
0000
0000
0000
,
0100
0000
0000
0000
,
0100
0000
0000
0000
,
0001
0000
0000
0000
,
0001
0000
0000
0000
,
2000
0000
0000
0000
,
0000
0000
0000
3000
,
1001
0000
0000
0000
,
0110
0000
0000
0000
,
1001
0000
0001
0000
,
0100
0000
0000
0000
,
0010
0000
1000
0000
,
0100
0100
0100
0000
,
1000
0000
0010
0000
,
0100
0000
0001
0000
,
1000
1000
1000
0000
,
1001
0000
0000
0000
,
0100
0000
0000
0000
,
0010
0000
0000
0000
,
0100
0000
0000
0000
,
0010
0000
0000
0000
,
1000
0000
0000
0000
,
0001
0000
0000
0000
,
1000
0000
0000
0000
,
0001
0000
0000
0000
,
1001
0000
0000
0000
;

//---------------dance-single - ----------------
#NOTEDATA:;
#CHARTNAME:;
#STEPSTYPE:dance-single;
#DESCRIPTION:;
#CHARTSTYLE:;
#DIFFICULTY:Challenge;
#METER:15;
#RADARVALUES:0.752392,1.000000,0.426426,0.456351,0.635899,586.000000,57.000000,61.000000,0.000000,0.000000,0.000000,0.000000,0.000000,0.752392,1.000000,0.426426,0.456351,0.635899,586.000000,57.000000,61.000000,0.000000,0.000000,0.000000,0.000000,0.000000;
#CREDIT:;
#DISPLAYBPM:130.000000;
#NOTES:
// measure 0
0000
0000
0000
0000
,  // measure 1
0000
0000
0000
0000
,  // measure 2
0000
0000
0000
0000
,  // measure 3
0000
0000
0000
0000
0000
0000
0100
0001
,  // measure 4
1001
1000
0100
0000
0110
0010
0100
0000
,  // measure 5
1100
1000
0001
0000
0101
0001
1000
0010
,  // measure 6
1000
1000
0100
0001
0200
0010
1300
0100
,  // measure 7
1000
0000
1001
0000
0001
0100
0010
1000
,  // measure 8
1001
0001
0010
0000
0110
0010
0001
0000
,  // measure 9
1001
0001
0100
0000
0110
0010
1000
0001
,  // measure 10
0010
0100
1000
0001
0200
0001
1300
1100
,  // measure 11
0100
0000
0010
0000
1000
2010
3001
0000
,  // measure 12
1000
0000
1100
0000
0100
0010
0100
1000
,  // measure 13
1002
0000
0103
0002
0013
0000
0001
0101
,  // measure 14
0000
0001
0100
0010
2000
0100
0001
3100
,  // measure 15
1000
0010
0110
0000
0100
0001
0010
0011
,  // measure 16
0010
0000
0110
0000
0100
1000
0010
0100
,  // measure 17
0210
0000
0301
0200
0310
0000
0010
1010
,  // measure 18
0000
1000
0001
0010
0200
0010
1300
0100
,  // measure 19
1000
0001
1000
0001
0100
0010
0100
0010
,  // measure 20
1010
0000
1000
1001
0000
0021
0130
0000
,  // measure 21
0010
0000
0001
1001
0000
1010
0000
0110
,  // measure 22
0020
0000
1000
0100
1000
0130
0010
1000
,  // measure 23
0001
0000
0010
0000
0100
0000
0001
0000
0200
0000
0000
0000
1300
0000
0100
1000
,  // measure 24
0010
0000
0100
0110
0000
0102
1003
0000
,  // measure 25
0001
0000
0010
0011
0000
0110
0000
1100
,  // measure 26
2000
0000
0001
0100
3001
0000
0100
1000
,  // measure 27
0010
0000
0100
0010
0100
0000
0010
0000
1000
0000
0001
1000
0001
0000
1000
0000
,  // measure 28
1002
0000
0000
0000
0103
0001
0100
0000
0001
0000
0021
0000
0000
0000
0000
0000
,  // measure 29
0230
0000
0000
0000
1300
0100
1000
0000
0200
0000
0010
0000
0302
0000
0100
0000
,  // measure 30
2003
0000
0000
0000
3010
0001
0010
0000
0001
0000
0100
0000
0000
0000
0010
0000
,  // measure 31
1000
0000
0010
0000
0100
0000
0001
0000
2001
0000
0000
0000
3100
0000
1000
0100
,  // measure 32
0020
0000
0000
0000
0031
0010
0001
0000
0100
0000
0120
0000
0000
0000
0000
0000
,  // measure 33
2030
0000
0000
0000
3001
1000
0001
0000
0010
0000
0100
0000
1000
0000
0010
0000
,  // measure 34
0210
0000
0000
0000
0301
0100
0001
0000
1000
0000
0000
0000
0100
0000
0010
0000
,  // measure 35
0100
0000
0000
1000
0000
0000
0010
0000
0000
1000
0000
0000
0001
0000
0000
0100
0000
0000
0010
0000
0000
0100
0000
0000
0001
0000
0010
0000
0001
0000
0010
0000
0001
0000
0010
0000
0100
0000
1000
0000
0100
0000
1000
0000
0100
0000
1000
0000
,  // measure 36
0001
0000
0000
1000
0000
0001
1000
0000
0100
0010
0100
0000
0010
0100
1000
0001
,  // measure 37
0100
0000
0010
0000
0100
0000
0001
0000
1000
0001
1000
0000
0100
0000
0010
0000
,  // measure 38
0100
1000
0001
0100
0000
0010
0100
0000
0001
0100
0001
0000
1000
0100
1000
0001
,  // measure 39
0100
0000
0000
0010
0000
1000
0010
0000
1000
0001
1000
0000
0001
0010
0100
1000
,  // measure 40
0001
0000
0000
0100
0000
0001
0100
0000
0010
0100
0010
0000
1000
0010
1000
0001
,  // measure 41
0010
0000
0000
0100
0000
0010
0100
0000
0010
0100
1000
0000
0100
1000
0001
0100
,  // measure 42
0010
0000
1000
0010
1000
0000
0010
0000
0100
0000
0001
0010
0001
0000
0010
0000
,  // measure 43
0210
0000
1000
0000
0001
0000
1300
0100
,  // measure 44
0120
0000
0001
0000
0130
0020
1030
0020
,  // measure 45
0032
0100
1000
0000
0103
0002
0013
0002
,  // measure 46
0203
0010
1000
0000
0310
0200
0301
0100
,  // measure 47
0110
0010
1000
0001
0000
1000
0100
1000
,  // measure 48
1020
0000
0100
0000
0031
0020
1030
0020
,  // measure 49
0230
0001
0010
0000
0310
0200
1300
0200
,  // measure 50
0302
0000
0000
0000
1000
0000
0000
1000
0000
0000
1003
0000
1001
0000
0000
0000
,  // measure 51
0022
0033
2200
3300
,  // measure 52
1000
0001
1000
0001
0100
0010
0100
0010
1000
0010
1000
0010
0100
0001
0100
0001
,  // measure 53
1000
0001
1000
0001
1000
0001
1000
0001
1000
0001
1000
0001
1000
0001
1000
0001
1000
0001
1001
0000
0000
0000
0000
0000
,  // measure 54
0102
0000
0000
0000
0103
0001
0010
0000
0100
0000
2100
0000
0000
0000
3001
1000
,  // measure 55
0002
0000
0000
0000
0103
0001
0010
0000
0100
0000
0010
0000
0001
0000
1000
0000
,  // measure 56
2001
0000
0000
0000
0010
0000
0001
0000
0010
0000
3001
0000
0110
0000
0010
1000
,  // measure 57
0100
0000
0010
0000
0100
0000
1000
0000
0001
0000
0200
0000
0310
0000
0100
0001
,  // measure 58
2000
0000
0000
0000
3100
1000
0100
0000
1000
0000
1002
0000
0000
0000
0103
0001
,  // measure 59
0200
0000
0000
0000
0310
0100
0001
0000
1000
0000
0001
0000
0010
0000
0100
0000
,  // measure 60
0010
0100
0010
0100
0010
0100
0010
0100
0010
0100
0010
0100
1000
0001
1000
0001
1000
0001
1000
0001
1000
0001
1000
0001
,  // measure 61
0100
0001
1000
0010
0100
0001
0010
0100
1000
1001
0000
0000
,  // measure 62
0001
0001
0001
0100
0100
0100
1000
1000
1000
1200
0000
0000
,  // measure 63
0310
0010
0010
0100
0100
0100
0001
0001
0001
2001
0000
0000
,  // measure 64
3100
0100
0100
1000
1000
1000
0010
0010
0010
0210
0000
0000
,  // measure 65
0301
0000
0001
0000
0001
0000
0100
0000
0100
0000
0100
0010
0100
0000
0001
0000
1000
0000
1010
0000
0000
0000
1000
0000
,  // measure 66
0001
0001
0001
0010
0010
0010
0100
0100
0100
0120
0000
0000
,  // measure 67
0031
0001
0001
1000
1000
1000
0010
0010
0010
0210
0000
0000
,  // measure 68
0301
0001
0001
0100
0100
0100
1000
1000
1000
1200
1300
0100
,  // measure 69
0010
1000
0010
1000
0010
1000
0010
1000
0010
1000
0010
1000
0001
0010
0001
0010
0001
0010
0001
0010
0001
0010
0001
0010
,  // measure 70
0100
1000
0001
0100
0010
1000
0001
0010
0100
0010
0001
1000
2020
0000
0000
0000
,  // measure 71
3030
0000
0000
0000
;
