#TITLE:Boom Clap;
#SUBTITLE:;
#ARTIST:Charli XCX;
#TITLETRANSLIT:;
#SUBTITLETRANSLIT:;
#ARTISTTRANSLIT:;
#GENRE:Electro-Pop;
#CREDIT:;
#BANNER:[Theme] - Boom Clap.png;
#BACKGROUND:[Theme] - Boom Clap-bg.png;
#LYRICSPATH:;
#CDTITLE:;
#MUSIC:[Theme] - Boom Clap.mp3;
#OFFSET:-0.204787;
#SAMPLESTART:34.090031;
#SAMPLELENGTH:15.000000;
#SELECTABLE:YES;
#BPMS:0.000000=92.000000
;
#STOPS:
;
#BGCHANGES:-0.750=Boom Clap.avi=1.000=0=0=1=====,
99999=-nosongbg-=1.000=0=0=0 // don't automatically add -songbackground-
;
#KEYSOUNDS:;
#ATTACKS:;

//---------------dance-single - ----------------
#NOTES:
     dance-single:
     :
     Medium:
     6:
     0.267656,0.275390,0.225961,0.131811,0.000000,161.000000,24.000000,14.000000,0.000000,0.000000,0.000000,0.267656,0.275390,0.225961,0.131811,0.000000,161.000000,24.000000,14.000000,0.000000,0.000000,0.000000:
0000
0000
0000
0000
,
0000
0000
0000
0000
,
0000
0000
0000
0000
,
0000
0000
0000
0000
,
0000
0000
0000
0000
,
1000
0000
0100
0000
0001
0100
2000
0000
,
3010
0000
0100
0000
0001
0001
0200
0000
,
0310
1000
0001
1000
,
1100
0011
0101
1010
,
0001
0000
1000
0000
0001
0100
2000
0000
,
3100
0000
0001
0000
0010
0010
0200
0000
,
1300
0010
0100
0001
,
1000
0000
2002
3003
,
0110
0000
1010
0000
1000
0001
1000
0000
,
0001
0100
1000
0001
0010
1000
0001
0100
,
0110
0000
1001
0000
0010
0100
0010
0000
,
1000
1000
1000
0000
0001
0001
0001
0000
,
0101
0000
0011
0000
0001
0010
0001
0000
,
1000
0100
0001
1000
0010
0001
1000
0100
,
1100
0000
0011
0000
1000
0100
1000
0000
,
0010
0010
0010
0000
0100
0100
0100
0000
,
0202
0000
0000
0000
,
0000
0000
0000
0000
,
0303
0001
0100
2000
,
3000
1000
0100
0002
,
0003
0001
0010
0100
,
2000
0000
0002
3003
,
1000
0000
0100
0000
0001
0100
2000
0000
,
3010
0000
0100
0000
0001
0100
2000
0000
,
3100
0001
0010
0100
,
1000
0000
0000
0000
0001
0001
1001
0000
,
0011
0000
1100
0000
0100
0100
0100
0000
,
1000
0100
0001
1000
0010
0001
1000
0100
,
0101
0000
1100
0000
0001
0010
0001
0000
,
0100
0100
0100
0000
0010
0010
0010
0000
,
1010
0000
1100
0000
1000
1000
1000
0000
,
0001
0100
1000
0001
0010
1000
0001
0100
,
1100
0000
0101
0000
0001
0100
0010
0000
,
1000
1000
1000
0000
0100
0100
0100
0000
,
1001
0000
0000
0000
;

//---------------dance-single - ----------------
#NOTES:
     dance-single:
     :
     Easy:
     4:
     0.166781,0.183593,0.112981,0.028245,0.000000,109.000000,12.000000,3.000000,0.000000,0.000000,0.000000,0.166781,0.183593,0.112981,0.028245,0.000000,109.000000,12.000000,3.000000,0.000000,0.000000,0.000000:
0000
0000
0000
0000
,
0000
0000
0000
0000
,
0000
0000
0000
0000
,
0000
0000
0000
0000
,
0000
0000
0000
0000
,
0000
1000
1000
1000
,
0000
0010
0010
0010
,
0000
0100
0100
0100
,
0020
0000
0000
0130
,
0000
0001
0001
0001
,
0000
0100
0100
0100
,
0000
0010
0010
0010
,
2000
0000
0000
3000
,
1000
1001
0100
0100
,
0001
0001
0100
1000
,
0010
0110
0100
0100
,
0001
0001
1000
1000
,
0100
0110
0001
0001
,
0100
0100
1000
0010
,
0100
0101
0001
0001
,
0100
0100
0010
0010
,
2000
0000
0000
0000
,
0000
0000
0000
0000
,
3000
0001
0001
0100
,
0000
0010
0010
1000
,
0000
0100
0000
0010
,
0000
0001
0000
1001
,
0000
0001
0100
0010
,
0000
1000
0100
0010
,
0000
0001
0001
1000
,
1000
0000
0110
1001
,
1000
1100
0001
0001
,
0100
0100
1000
1000
,
0010
0110
0001
0001
,
0100
0100
1000
1000
,
0100
0101
0001
0010
,
0100
1000
0001
0010
,
0100
1100
1000
1000
,
0010
0010
0001
0001
,
1001
0000
0000
0000
;

//---------------dance-single - ----------------
#NOTES:
     dance-single:
     :
     Hard:
     11:
     0.380637,0.367187,0.282451,0.188301,0.131811,233.000000,30.000000,20.000000,0.000000,0.000000,0.000000,0.380637,0.367187,0.282451,0.188301,0.131811,233.000000,30.000000,20.000000,0.000000,0.000000,0.000000:
0000
0000
0000
0000
,
0000
0000
0000
0000
,
0000
0000
0000
0000
,
0000
0000
0000
0000
,
0000
0000
0000
0000
,
1000
0001
0100
0010
1000
0100
0020
0000
,
0031
1000
0100
1000
0001
0010
0200
0000
,
1300
0010
1000
0100
0020
0000
0031
0100
,
0101
0000
1010
0000
1001
1000
2010
0000
,
3010
0100
0001
0100
0010
1000
0002
0000
,
1003
0001
1000
0010
0100
0010
2000
0000
,
3001
0100
0010
1000
0002
0000
1003
0100
,
2000
0000
0002
3003
,
1001
0000
0000
0000
0110
0000
0010
1000
0000
1000
0100
0000
1000
0000
0010
0000
,
0001
0000
0010
0000
1000
0000
0001
0010
0000
0100
1000
0010
0100
0000
0001
0000
,
0101
0000
0000
0000
1001
0000
0001
0100
0000
0100
0010
0000
1000
0000
0001
0000
,
1000
0100
1100
0000
0010
0100
0101
0000
,
1010
0000
0000
0000
1001
0000
0001
1000
0000
1000
0010
0000
0100
0000
0001
0000
,
0010
0000
0100
0000
1000
0000
0001
1000
0000
0001
0010
0100
1000
0000
1000
0000
,
0101
0000
0000
0000
1010
0000
0010
1000
0000
1000
0001
0000
0100
0000
0010
0000
,
1000
0010
0110
0000
0100
0001
0101
0000
,
0020
0000
0000
0000
,
0200
0000
0000
0330
,
1000
0100
1000
0010
0100
0001
0200
0000
,
0310
1000
0001
1000
0010
1000
0002
0000
,
0103
0001
0010
0100
0020
0000
0031
1000
,
0002
0000
0103
0001
0200
0000
0310
0000
,
1000
0100
0001
0100
1000
0010
0200
0000
,
0301
0100
0001
0100
0010
1000
0200
0000
,
1300
0100
0001
0100
2000
0000
3001
1000
,
0002
0000
0013
0001
0100
0010
0110
0000
,
1001
0000
0000
0000
1010
0000
0010
1000
0000
1000
0100
0000
0010
0000
0001
0000
,
1000
0000
0001
0000
0100
0000
0001
1000
0000
0001
0100
1000
0100
0000
0001
0000
,
0101
0000
0000
0000
0110
0000
0010
1000
0000
1000
0100
0000
1000
0000
0010
0000
,
0100
0001
1010
0000
1000
0100
1001
0000
,
1100
0000
0000
0000
0011
0000
0001
0100
0000
0100
0010
0000
1000
0000
0001
0000
,
0100
0000
0010
0000
1000
0000
0100
0010
0000
0001
0010
1000
0010
0000
0001
0000
,
1010
0000
0000
0000
0110
0000
0100
0001
0000
0001
0100
0000
0010
0000
1000
0000
,
0100
0010
1001
0000
0001
1000
0110
0000
,
0101
0000
0000
0000
;

//---------------dance-single - ----------------
#NOTES:
     dance-single:
     :
     Beginner:
     1:
     0.052455,0.091797,0.018830,0.028245,0.000000,34.000000,2.000000,3.000000,0.000000,0.000000,0.000000,0.052455,0.091797,0.018830,0.028245,0.000000,34.000000,2.000000,3.000000,0.000000,0.000000,0.000000:
0000
0000
0000
0000
,
0000
0000
0000
0000
,
0000
0000
0000
0000
,
0000
0000
0000
0000
,
0000
0000
0000
0000
,
0000
1000
0000
0000
,
0000
1000
0000
0000
,
0000
0001
0000
0000
,
0000
0001
0000
0000
,
0000
0100
0000
0000
,
0000
0100
0000
0000
,
0000
0010
0000
0000
,
0020
0000
0000
0000
,
0130
0000
0000
0000
,
0010
0000
0000
0000
,
1000
0000
0000
0000
,
0001
0000
0000
0000
,
0010
0000
0000
0000
,
0100
0000
0000
0000
,
1000
0000
0000
0000
,
0001
0000
0000
0000
,
2002
0000
0000
0000
,
0000
0000
0000
0000
,
3003
1000
0000
0000
,
0000
1000
0000
0000
,
0000
0010
0000
0000
,
0000
0010
0000
0000
,
0000
0100
0000
0000
,
0000
0100
0000
0000
,
0000
0001
0000
0000
,
0000
0001
0000
0000
,
1000
0000
0000
0000
,
0010
0000
0000
0000
,
1000
0000
0000
0000
,
0001
0000
0000
0000
,
0010
0000
0000
0000
,
0100
0000
0000
0000
,
0010
0000
0000
0000
,
0001
0000
0000
0000
,
1001
0000
0000
0000
;

//---------------dance-single - ----------------
#NOTES:
     dance-single:
     :
     Challenge:
     13:
     0.531277,0.532421,0.414262,0.028245,0.522535,348.000000,44.000000,3.000000,0.000000,0.000000,0.000000,0.531277,0.532421,0.414262,0.028245,0.522535,348.000000,44.000000,3.000000,0.000000,0.000000,0.000000:
// measure 0
0000
0000
0000
0000
,  // measure 1
0000
0000
0000
0000
,  // measure 2
0000
0000
0000
0000
,  // measure 3
0000
0000
0000
0000
,  // measure 4
0000
0000
0000
0000
,  // measure 5
0001
0010
0011
0001
1000
0010
0110
0000
,  // measure 6
0010
0000
0100
0000
0101
0000
0001
0000
1000
0000
0100
0000
0010
0100
0010
0100
,  // measure 7
1000
0000
0001
0000
0100
0001
0010
0001
0100
0000
0010
0100
0020
0000
0000
0000
,  // measure 8
1030
0000
1000
0000
0001
0001
0011
0000
,  // measure 9
0010
0100
1100
1000
0010
0001
0011
0000
,  // measure 10
0010
0000
0100
0000
0101
0000
0001
0000
1000
0000
0100
0000
0010
0100
0010
0100
,  // measure 11
1000
0010
1000
0100
0001
0100
1000
0001
0100
0000
0010
0100
0010
0000
1000
0000
,  // measure 12
2010
0000
0000
0001
0010
0100
3001
0000
,  // measure 13
1100
0000
0000
0000
0101
0000
0100
0010
0000
0010
0001
0000
1001
0000
1000
0000
,  // measure 14
0010
0000
0100
0000
0101
0000
0010
0001
0000
0001
1000
0001
0100
0010
0100
0010
,  // measure 15
1010
0000
0000
0000
0101
0000
0001
0010
0000
0010
0100
0000
0001
0000
0100
1000
,  // measure 16
0100
0000
1000
0010
1000
0000
0010
0100
0010
0000
0100
0001
0100
0010
0100
0010
,  // measure 17
1010
0000
0000
0000
1100
0000
0100
0010
0000
0100
1000
0000
1001
0000
0001
0000
,  // measure 18
0100
0000
1000
0000
1100
0000
0100
0010
0000
1000
0010
0100
0001
0010
0001
0010
,  // measure 19
0110
0000
0000
0000
1100
0000
1000
0001
0000
0001
0100
0000
0110
0000
1000
0001
,  // measure 20
1000
0000
0001
0100
0001
0000
0100
0010
0100
0000
0010
1000
0010
0100
0010
0100
,  // measure 21
0001
0001
1000
1000
0001
0001
1000
1000
0001
0001
0010
0001
1000
0100
1000
0010
,  // measure 22
0100
0100
0001
0001
0100
0100
0001
0001
0100
0100
0010
1000
0001
0010
0001
0010
,  // measure 23
0100
1000
1100
1000
0001
1000
0100
0000
,  // measure 24
0010
0100
0010
0000
0110
0000
0100
0000
1000
0000
0001
0000
0100
0010
0100
0010
,  // measure 25
1000
0000
0010
0010
1000
0001
0010
0100
0010
0001
0000
0001
0100
0000
0010
0000
,  // measure 26
0120
0000
0000
0000
0000
1030
0010
0100
0001
0000
1000
0000
0001
1000
0001
1000
,  // measure 27
0100
0010
0110
0100
1000
0001
1001
0000
,  // measure 28
0001
0100
0001
0000
0101
0000
0100
0000
0010
0000
1000
0000
0001
1000
0001
1000
,  // measure 29
0100
0010
0100
1000
0010
0010
0100
0001
1000
0001
0000
0001
0100
0000
0010
0000
,  // measure 30
0110
0000
0000
0000
1010
0000
1000
0000
0001
0000
0010
0000
0100
0010
0100
0010
,  // measure 31
0011
0000
0000
0000
1100
0000
1000
0001
0000
0001
0100
0000
0110
0000
0010
0000
,  // measure 32
1000
0000
0100
0000
0101
0000
0100
0010
0000
0010
0001
1000
0010
0100
0010
0100
,  // measure 33
0101
0000
0000
0000
1001
0000
1000
0100
0000
0100
0001
0000
0101
0000
0100
1000
,  // measure 34
0010
0000
0100
0001
0010
0000
1000
0010
0001
0000
0100
1000
0001
0010
0001
0010
,  // measure 35
0110
0000
0000
0000
0101
0000
0001
1000
0000
1000
0100
0000
0110
0000
0100
0000
,  // measure 36
1000
0000
0010
0000
0110
0000
0010
0100
0000
0100
0001
1000
0001
0010
0001
0100
,  // measure 37
0101
0000
0000
0000
1010
0000
1000
0001
0000
0001
0010
0000
0110
0000
0100
1000
,  // measure 38
0010
0000
0100
0001
0010
0000
0100
0001
1000
0000
0010
0001
0100
0010
0100
0010
,  // measure 39
0110
0000
0000
0000
;
