#VERSION:0.81;
#TITLE:Blurred Lines (feat. Pharrell);
#SUBTITLE:;
#ARTIST:Robin Thicke;
#TITLETRANSLIT:;
#SUBTITLETRANSLIT:;
#ARTISTTRANSLIT:;
#GENRE:Disco;
#ORIGIN:;
#CREDIT:;
#BANNER:Blurred Lines (feat. Pharrell).png;
#BACKGROUND:Blurred Lines (feat. Pharrell)-bg.png;
#PREVIEWVID:;
#JACKET:Blurred Lines (feat. Pharrell)-jacket.png;
#CDIMAGE:;
#DISCIMAGE:;
#LYRICSPATH:;
#CDTITLE:;
#MUSIC:Blurred Lines (feat. Pharrell).mp3;
#OFFSET:-0.093764;
#SAMPLESTART:48.340004;
#SAMPLELENGTH:15.000000;
#SELECTABLE:YES;
#BPMS:0.000=120.000;
#STOPS:;
#DELAYS:;
#WARPS:;
#TIMESIGNATURES:0.000=4=4;
#TICKCOUNTS:0.000=4;
#COMBOS:0.000=1;
#SPEEDS:0.000=1.000=0.000=0;
#SCROLLS:0.000=1.000;
#FAKES:;
#LABELS:0.000=Song Start;
#BGCHANGES:-0.750=Blurred Lines (feat. Pharrell).avi=1.000=0=0=0=StretchNoLoop====,
99999=-nosongbg-=1.000=0=0=0 // don't automatically add -songbackground-
;
#KEYSOUNDS:;
#ATTACKS:
;

//---------------pump-single - ----------------
#NOTEDATA:;
#CHARTNAME:;
#STEPSTYPE:pump-single;
#DESCRIPTION:;
#CHARTSTYLE:;
#DIFFICULTY:Easy;
#METER:3;
#RADARVALUES:0.220810,0.214999,0.162702,0.104594,0.000000,110.000000,14.000000,9.000000,0.000000,0.000000,0.000000,0.000000,0.000000,0.220810,0.214999,0.162702,0.104594,0.000000,110.000000,14.000000,9.000000,0.000000,0.000000,0.000000,0.000000,0.000000;
#CREDIT:;
#NOTES:
00000
00000
00000
00000
,
00000
00100
00000
00100
,
00000
00000
00100
00000
00000
01000
00000
00000
,
00000
00010
00000
00010
,
00000
00010
00000
00100
,
00100
00000
00001
00100
,
00100
00000
10000
00100
,
00100
00000
00001
00100
,
00100
00010
01000
00100
,
10000
01000
10000
00001
,
00000
00010
00001
10000
,
00000
01000
00100
00010
,
00000
01000
00010
00100
,
00000
00001
00010
00001
,
00000
10000
01000
10000
,
00000
00010
10000
00001
,
02000
00100
00010
03001
,
00000
01000
00100
01000
,
00000
00010
00110
10010
,
00000
10000
00100
10000
,
00000
00001
00101
01001
,
00000
01000
01010
01010
,
00000
00010
10010
10010
,
00000
10000
10001
10001
,
00000
00001
00010
00100
,
01010
02020
00000
03030
,
00000
01000
00100
10000
,
00000
00010
00100
00001
,
00000
01000
00100
10000
,
10001
20002
00000
30003
,
00000
00001
00100
00010
,
00000
10000
00100
01000
,
00000
00001
00100
00010
,
01000
01000
00100
20000
,
30010
00010
00100
00002
,
10003
10000
00100
02000
,
03001
00001
00100
00020
,
01030
00000
00000
00000
;

//---------------dance-single - ----------------
#NOTEDATA:;
#CHARTNAME:;
#STEPSTYPE:dance-single;
#DESCRIPTION:;
#CHARTSTYLE:;
#DIFFICULTY:Hard;
#METER:13;
#RADARVALUES:0.722197,0.611875,0.418376,0.232431,0.441619,379.000000,36.000000,20.000000,0.000000,0.000000,0.000000,0.000000,0.000000,0.722197,0.611875,0.418376,0.232431,0.441619,379.000000,36.000000,20.000000,0.000000,0.000000,0.000000,0.000000,0.000000;
#CREDIT:;
#NOTES:
0000
0000
0000
0000
0000
0000
0000
0000
0000
0000
1000
0001
1000
0010
0100
0001
,
1000
0000
0100
1000
0010
0000
0100
0010
1000
0001
0010
0001
0100
0000
0020
0000
,
1030
0000
0010
0100
0001
0000
0010
0001
1000
0100
0001
0100
1000
0000
0020
0000
,
0130
0000
0010
1000
0001
0000
0010
0001
0010
1000
0001
0100
1000
0000
0020
0000
,
0130
0000
0010
1000
0010
0000
1000
0001
0010
0001
0010
0100
1000
0000
1010
0000
,
0010
0000
0100
0010
0100
0000
0001
0100
0001
0100
0001
1000
0100
0000
0200
0000
,
0310
0000
0001
1000
0001
0000
0100
0001
0100
0010
1000
0001
0010
0000
0110
0000
,
0100
0000
1000
0100
1000
0000
0010
1000
0001
0010
1000
0010
0100
0000
2000
0000
,
3010
0000
0010
0000
0100
0000
0100
0000
0001
0000
1000
0001
1000
0000
0010
0000
,
0100
0001
0101
0001
1001
0000
1100
0200
,
0310
0000
0010
0000
0100
0000
1000
0000
1010
0000
0010
0000
0110
0000
0100
0001
,
0000
0001
1000
0000
0100
0000
0010
0000
0110
0000
0100
0000
1100
0000
2000
0000
,
3010
1000
0001
0010
0110
0100
1100
1000
,
0001
0100
0100
1000
0100
0001
0010
0210
,
1300
0100
0100
0001
0100
1000
0010
0110
,
0001
0010
0010
1000
0010
0001
1000
1200
,
0301
0000
0100
0010
0100
0000
0010
1000
0010
0000
1000
0001
1000
0010
0100
0001
,
1000
0100
0100
0010
0100
1000
0001
0201
,
0310
0100
0100
0001
1001
1000
0100
0010
,
0100
1000
1000
0001
0100
0010
0100
0102
,
0013
0001
0001
1000
0100
0001
0100
0010
,
0001
0100
0100
1000
0100
0001
0100
0120
,
1030
0000
0110
0100
0101
0001
1000
1100
,
0100
0001
0001
0100
0100
0010
0001
0021
,
0130
0010
0001
0100
0010
1000
0001
0100
,
0110
0000
0000
0000
0110
0000
0010
1000
0010
1000
0010
1000
0001
0000
0020
0000
,
0130
0010
0010
0001
0001
1000
0110
1010
,
1000
0001
0001
0010
0010
0100
0010
0012
,
1003
0001
0001
0100
0100
0010
1010
0010
,
0110
0000
0000
0000
0110
0000
0100
0001
0100
0001
0100
0001
1000
0000
1200
0000
,
0310
0000
0100
0000
0100
1000
0001
0000
0100
0000
0100
0000
0120
0000
1000
0000
,
1030
0010
0100
0000
0100
0000
0010
0000
0010
0000
0100
0000
0001
0000
0201
0000
,
0310
0000
0100
0010
0100
0000
0001
0000
1000
0000
0100
0000
0001
0000
0100
0000
,
0010
0000
0100
1000
0100
0000
1000
0001
0100
1000
0100
0001
0010
0100
2000
3001
,
1000
0000
0100
1000
0100
0000
1000
0001
0100
0001
0100
0010
1000
0000
0001
0000
,
0010
0000
0100
0010
0100
0000
1000
0100
1000
0001
0100
0010
1000
0100
0020
0130
,
0010
0000
0001
0010
0001
0000
0100
0001
0100
0010
0100
0010
1000
0000
1010
0000
,
0010
0000
0100
0010
0100
0000
0001
0100
0001
1000
0100
1000
0010
0000
0110
0000
,
0100
0000
0001
0100
0001
0000
1000
0100
1000
0010
0100
0010
1000
0000
1001
0000
,
0001
0000
0000
0000
;

//---------------dance-single - ----------------
#NOTEDATA:;
#CHARTNAME:;
#STEPSTYPE:dance-single;
#DESCRIPTION:;
#CHARTSTYLE:;
#DIFFICULTY:Beginner;
#METER:1;
#RADARVALUES:0.068069,0.086000,0.081351,0.000000,0.000000,34.000000,7.000000,0.000000,0.000000,0.000000,0.000000,0.000000,0.000000,0.068069,0.086000,0.081351,0.000000,0.000000,34.000000,7.000000,0.000000,0.000000,0.000000,0.000000,0.000000,0.000000;
#CREDIT:;
#NOTES:
// measure 0
0000
0000
0000
0000
,  // measure 1
0000
0000
0000
0000
,  // measure 2
0000
0000
0000
0000
,  // measure 3
0000
0000
0000
0000
,  // measure 4
0000
0000
0000
0000
,  // measure 5
1000
0000
0000
0000
,  // measure 6
1000
0000
0000
0000
,  // measure 7
1000
0000
0000
0000
,  // measure 8
0000
0000
0000
0000
,  // measure 9
0001
0000
0000
0000
,  // measure 10
0001
0000
0000
0000
,  // measure 11
0001
0000
0000
0000
,  // measure 12
0001
0000
0000
0000
,  // measure 13
0010
0000
0000
0000
,  // measure 14
0010
0000
0000
0000
,  // measure 15
0010
0000
0000
0000
,  // measure 16
0010
0000
0000
0000
,  // measure 17
0100
0000
0000
0000
,  // measure 18
0100
0000
0000
0000
,  // measure 19
0100
0000
0000
0000
,  // measure 20
0100
0000
0000
0000
,  // measure 21
1000
0000
0000
0000
,  // measure 22
1000
0000
0000
0000
,  // measure 23
1000
0000
0000
0000
,  // measure 24
1000
0000
0000
0000
,  // measure 25
0001
0001
0000
0000
,  // measure 26
0000
0000
1001
0000
,  // measure 27
0000
0000
1001
0000
,  // measure 28
0000
0000
1001
0000
,  // measure 29
1000
1000
0000
0000
,  // measure 30
0000
0000
0110
0000
,  // measure 31
0000
0000
0110
0000
,  // measure 32
0000
0000
0110
0000
,  // measure 33
0010
0000
0000
0000
,  // measure 34
0010
0000
0000
0000
,  // measure 35
0100
0000
0000
0000
,  // measure 36
0100
0000
0000
0000
,  // measure 37
1001
0000
0000
0000
;

//---------------dance-single - ----------------
#NOTEDATA:;
#CHARTNAME:;
#STEPSTYPE:dance-single;
#DESCRIPTION:;
#CHARTSTYLE:;
#DIFFICULTY:Easy;
#METER:4;
#RADARVALUES:0.200887,0.171999,0.058108,0.011622,0.000000,115.000000,5.000000,1.000000,0.000000,0.000000,0.000000,0.000000,0.000000,0.200887,0.171999,0.058108,0.011622,0.000000,115.000000,5.000000,1.000000,0.000000,0.000000,0.000000,0.000000,0.000000;
#CREDIT:;
#NOTES:
0000
0000
0000
0000
,
1000
0001
1000
0000
,
0100
0001
0100
1000
,
0010
0100
0010
0000
,
1000
0001
1000
0100
,
0001
0000
0001
0100
,
1000
0000
1000
0010
,
0001
0000
0001
0010
,
1000
0010
0100
0001
,
0000
1000
1000
1000
,
0000
0001
0001
0001
,
0000
0010
0010
0010
,
0000
0100
0100
0100
,
0000
1000
0100
1000
,
0000
0001
0100
0001
,
0000
1000
0010
1000
,
0002
0010
0100
1003
,
0000
0001
0010
0001
,
0000
1000
1010
1000
,
0000
0100
1000
0100
,
0000
0010
0001
0010
,
0000
0001
1000
0001
,
0000
0100
0010
0100
,
0000
0010
1000
0001
,
0000
0010
0001
1000
,
1100
1100
0000
0100
,
0000
0010
0100
0010
,
0000
0001
1000
0001
,
0000
0100
0001
0100
,
0110
0110
0000
0010
,
0000
1000
0010
1000
,
0000
0001
0010
0001
,
0000
1000
0100
0001
,
0100
1000
0100
0000
,
1000
0010
0001
0010
,
0100
0001
0100
0000
,
0001
0010
0100
1000
,
0001
0000
0000
0000
;

//---------------dance-single - ----------------
#NOTEDATA:;
#CHARTNAME:;
#STEPSTYPE:dance-single;
#DESCRIPTION:;
#CHARTSTYLE:;
#DIFFICULTY:Medium;
#METER:8;
#RADARVALUES:0.366909,0.300998,0.081351,0.023243,0.005811,212.000000,7.000000,2.000000,0.000000,0.000000,0.000000,0.000000,0.000000,0.366909,0.300998,0.081351,0.023243,0.005811,212.000000,7.000000,2.000000,0.000000,0.000000,0.000000,0.000000,0.000000;
#CREDIT:;
#NOTES:
0000
0000
0000
0000
0000
1000
0010
0000
,
1000
0000
0001
0000
1000
0001
0010
0000
,
0100
0000
0010
0000
0100
1000
0001
0100
,
0001
0000
0100
0000
0010
0100
0001
0000
,
1000
0000
0100
0000
0001
0100
1000
1000
,
0010
0000
0100
0000
0001
0000
0010
0010
,
0001
0000
1000
0000
0100
0000
0010
0010
,
0100
0000
1000
0000
0010
0000
0100
0001
,
0000
0001
1000
0001
0100
0001
0010
0001
,
0000
0000
0010
0100
0010
0000
0110
0000
,
0100
0000
0000
0000
1000
0000
0100
0000
1000
0000
0000
0000
0001
0000
0000
0100
,
0000
0100
0010
0010
1000
0000
1001
0000
,
0001
0000
0010
0100
0010
0000
0001
0000
,
0000
0100
0010
0100
1000
0100
0001
0000
,
0000
0010
0100
0010
1000
0010
0001
0000
,
0000
0100
0001
0100
0010
1000
0100
0000
,
0020
0001
0100
1030
,
0000
0010
0001
0100
0001
0001
1000
0000
,
0000
0100
0100
1000
0010
0100
0001
1000
,
0000
0100
1000
0010
0100
0001
1000
0000
,
0000
0001
0001
1000
0001
0010
0100
0010
,
0000
0001
0010
0001
0100
0010
0100
0010
,
0000
0000
1000
0010
1000
0100
0010
0100
,
0000
1000
1000
0001
0100
1000
0100
0010
,
0000
1000
1000
0010
0100
0001
1000
0100
,
1000
1010
0010
0110
,
0000
0100
0001
1000
0010
0001
0000
0010
,
0000
0100
0001
1000
0100
0001
0000
0100
,
0000
0010
0100
1000
0010
0100
0001
0001
,
1000
1001
0001
0011
,
0000
0010
0100
0010
0001
1000
0010
0000
,
0100
0010
0010
1000
0010
0100
0002
0000
,
1000
0010
0100
1003
,
0001
0010
0001
0000
0010
0100
0010
0000
,
0100
1000
0100
0000
1000
0001
1000
0010
,
0100
0010
0100
0000
0001
0100
0001
0000
,
1000
0001
1000
0000
0100
0100
1000
0100
,
0110
0000
0000
0000
;
