#VERSION:0.81;
#TITLE:Birthday;
#SUBTITLE:;
#ARTIST:Katy Perry;
#TITLETRANSLIT:;
#SUBTITLETRANSLIT:;
#ARTISTTRANSLIT:;
#GENRE:Pop;
#ORIGIN:;
#CREDIT:;
#BANNER:Birthday.png;
#BACKGROUND:Birthday-bg.png;
#PREVIEWVID:;
#JACKET:Birthday-jacket.png;
#CDIMAGE:;
#DISCIMAGE:;
#LYRICSPATH:;
#CDTITLE:cdtitle.png;
#MUSIC:Birthday.mp3;
#OFFSET:-0.638213;
#SAMPLESTART:38.701000;
#SAMPLELENGTH:15.000000;
#SELECTABLE:YES;
#BPMS:0.000=126.000,
144.000=63.000,
172.000=126.000;
#STOPS:;
#DELAYS:;
#WARPS:;
#TIMESIGNATURES:0.000=4=4;
#TICKCOUNTS:0.000=4;
#COMBOS:0.000=1;
#SPEEDS:0.000=1.000=0.000=0;
#SCROLLS:0.000=1.000;
#FAKES:;
#LABELS:0.000=Song Start;
#BGCHANGES:-1.750=Birthday.avi=1.000=0=0=0=StretchNoLoop====,
99999=-nosongbg-=1.000=0=0=0 // don't automatically add -songbackground-
;
#KEYSOUNDS:;
#ATTACKS:
;

//---------------dance-single - ----------------
#NOTEDATA:;
#CHARTNAME:;
#STEPSTYPE:dance-single;
#DESCRIPTION:;
#CHARTSTYLE:;
#DIFFICULTY:Hard;
#METER:12;
#RADARVALUES:0.537966,0.551999,0.218305,0.506779,0.163729,390.000000,28.000000,65.000000,0.000000,0.000000,0.000000,0.000000,0.000000,0.537966,0.551999,0.218305,0.506779,0.163729,390.000000,28.000000,65.000000,0.000000,0.000000,0.000000,0.000000,0.000000;
#CREDIT:;
#NOTES:
0000
0000
0000
0000
,
0000
0000
0000
0000
,
0000
0000
0000
0000
,
0000
0000
0000
0000
,
2000
0000
3001
0010
0001
1000
0100
0000
,
0010
0001
1000
0010
2000
0000
3001
0000
,
1000
0000
0010
0000
0001
0000
0100
0000
0001
0000
0010
1000
0000
0000
0000
0000
,
2002
0000
3003
0202
0000
0303
2020
0000
0000
0000
3030
0000
0001
0000
0000
0000
,
0200
0000
0310
1000
0010
0100
0001
0000
,
1000
0010
0100
1000
0200
0000
0301
0000
,
0100
0001
1000
0100
0010
0100
0000
0100
,
0220
0000
0330
0202
0000
0303
2200
0000
0000
0000
3300
0000
0000
0000
0001
0000
,
1000
0100
0010
0001
0020
0000
0031
0100
,
1000
0100
0001
0100
2000
0000
3100
0010
,
1000
0001
0010
0100
2000
0000
3100
0000
,
0022
0000
0033
0202
0000
0303
2020
0000
0000
0000
3030
0000
0000
0000
0100
0000
,
0001
0010
0100
1000
0200
0000
1300
0010
,
0001
0010
1000
0010
0002
0000
0013
0100
,
0001
0100
0010
1000
0002
0000
0023
0030
,
2200
0000
3300
0220
0000
0330
0202
0000
0000
0000
0303
0000
0100
0000
1000
0000
,
0001
1000
0001
1000
0002
0000
1003
0000
,
0001
1000
0001
1000
0002
0000
0103
0000
,
0010
1000
0010
1000
0200
0000
0302
0000
,
1003
0000
0000
0010
0100
0000
0010
0000
0100
0000
0000
0000
0001
0000
0100
0000
,
1000
0010
1000
0010
0200
0000
1300
0100
,
0010
0001
0010
0001
2000
0000
3100
0000
,
0010
1000
0010
1000
0200
0000
0301
0000
,
1000
0000
0000
0010
0100
0000
0010
0000
0001
1000
0001
0000
0200
0000
0000
0000
,
0301
1000
0001
1000
0001
1000
0001
1000
,
0100
0010
0100
0010
0100
0010
0100
1000
,
0010
1000
0001
0010
2000
0000
3100
0000
,
0001
0000
0000
0100
0010
0000
0010
0000
0200
0000
0000
0000
1300
0000
0000
0000
,
0010
0100
0010
0100
0010
0100
0010
0100
,
0001
1000
0001
1000
0001
1000
0001
0100
,
0010
1000
0010
0100
0020
0000
0031
0000
,
0010
0000
0000
1000
0001
0000
1000
0000
0001
0000
0100
0000
0020
0000
1000
0000
,
0130
0000
0100
0000
0100
0000
0100
0102
0000
0000
0010
0000
0010
0000
0013
0000
,
0001
0000
0001
0000
0001
0000
0001
0201
0000
0000
0310
0120
0000
0000
1030
0000
,
0010
0000
0010
0000
0010
0000
0010
0210
0000
0000
0001
0000
0001
0000
0301
0000
,
0100
0000
0100
0000
0100
0000
0100
0120
0000
0000
1030
2010
0000
0000
3001
0000
,
1000
0100
1000
0001
0100
0001
0000
0010
0001
0000
0001
0100
0000
0100
0010
0000
,
1000
0010
1000
0001
0010
0001
0000
0100
0010
0000
0010
1000
0000
0001
0010
0000
,
0100
1000
0000
0001
0100
0000
0010
1000
0000
1000
0001
0000
0011
0010
0011
0010
,
0011
1000
0001
1000
0002
0000
1003
0001
,
0100
1000
0001
1000
0002
0000
0013
0100
,
0100
0010
1000
0100
0200
0000
0302
0000
,
1003
0000
0000
0010
0100
0000
0010
0000
0100
0000
1001
0000
0001
0000
0010
0000
,
0100
1000
0010
0100
0002
0000
1003
0100
,
0010
0001
0010
0001
2000
0000
3100
0000
,
0010
1000
0010
1000
0200
0000
0301
0000
,
1000
0000
0000
0010
0100
0000
0010
0000
0001
0000
1000
0001
0200
0000
0000
0000
,
0301
1000
1001
1000
1100
1000
0001
1000
,
0100
0010
0110
0010
0011
0010
0100
1000
,
0010
1000
0001
0010
2000
0000
3100
0000
,
0001
0000
0000
0100
0010
0000
0010
0100
1000
0001
1000
0000
1000
0000
0000
0000
,
0010
0000
0200
0000
0310
0100
0001
0000
0010
0000
0100
0000
0010
0000
0100
0000
,
1000
0001
1001
1000
1100
1000
0001
0100
,
0010
1000
0010
0100
0020
0000
0031
0000
,
0010
0000
0000
1000
0001
0000
1000
0000
0001
0000
0100
0000
0020
0000
1000
0000
,
0030
0000
0000
0000
;

//---------------dance-single - ----------------
#NOTEDATA:;
#CHARTNAME:;
#STEPSTYPE:dance-single;
#DESCRIPTION:;
#CHARTSTYLE:;
#DIFFICULTY:Beginner;
#METER:3;
#RADARVALUES:0.136997,0.228051,0.038983,0.062373,0.000000,110.000000,5.000000,8.000000,0.000000,0.000000,0.000000,0.000000,0.000000,0.136997,0.228051,0.038983,0.062373,0.000000,110.000000,5.000000,8.000000,0.000000,0.000000,0.000000,0.000000,0.000000;
#CREDIT:;
#NOTES:
// measure 0
0000
0000
0000
0000
,  // measure 1
0000
0000
0000
0000
,  // measure 2
0000
0000
0000
0000
,  // measure 3
0000
0000
0000
0000
,  // measure 4
1000
0000
0000
0000
,  // measure 5
0010
0000
0000
0000
,  // measure 6
1000
0000
0000
0000
,  // measure 7
0001
0000
0100
0000
,  // measure 8
0001
0000
0000
0000
,  // measure 9
0100
0000
0000
0000
,  // measure 10
0001
0000
0000
0000
,  // measure 11
1000
0000
0010
0000
,  // measure 12
1000
0000
1000
0000
,  // measure 13
0001
0000
0001
0000
,  // measure 14
0100
0000
0000
0000
,  // measure 15
0010
0000
0000
0000
,  // measure 16
1000
0000
1000
0000
,  // measure 17
0001
0000
0001
0000
,  // measure 18
0100
0000
0010
0000
,  // measure 19
0110
0000
0000
0000
,  // measure 20
1000
0000
0100
0000
,  // measure 21
0001
0000
0100
0000
,  // measure 22
1000
0000
0100
0000
,  // measure 23
0001
0000
0000
0000
,  // measure 24
0001
0000
0010
0000
,  // measure 25
1000
0000
0010
0000
,  // measure 26
0001
0000
0010
0000
,  // measure 27
1000
0000
0000
0000
,  // measure 28
0100
0100
0100
0000
,  // measure 29
0010
0010
0010
0000
,  // measure 30
1000
0000
0001
0000
,  // measure 31
1000
0000
0001
0000
,  // measure 32
0010
0010
0010
0000
,  // measure 33
0100
0100
0100
0000
,  // measure 34
1000
0000
0001
0000
,  // measure 35
1000
0000
0001
0000
,  // measure 36
2000
0000
3020
0000
,  // measure 37
0230
0000
0302
0000
,  // measure 38
2003
0000
3200
0000
,  // measure 39
0320
0000
0032
0000
,  // measure 40
1003
1001
0000
1001
,  // measure 41
0001
1001
0001
0001
,  // measure 42
0001
0001
0001
1001
,  // measure 43
1000
0000
0100
0000
,  // measure 44
0001
0000
0100
0000
,  // measure 45
1000
0000
0100
0000
,  // measure 46
0001
0000
0000
0000
,  // measure 47
0001
0000
0010
0000
,  // measure 48
1000
0000
0010
0000
,  // measure 49
0001
0000
0010
0000
,  // measure 50
1000
0000
0000
0000
,  // measure 51
0100
0100
0100
0000
,  // measure 52
0010
0010
0010
0000
,  // measure 53
0001
0000
1000
0000
,  // measure 54
0001
0000
1000
0000
,  // measure 55
0010
0010
0010
0000
,  // measure 56
0100
0100
0100
0000
,  // measure 57
0001
0000
1000
0000
,  // measure 58
0001
0000
1000
0000
;

//---------------dance-single - ----------------
#NOTEDATA:;
#CHARTNAME:;
#STEPSTYPE:dance-single;
#DESCRIPTION:;
#CHARTSTYLE:;
#DIFFICULTY:Medium;
#METER:9;
#RADARVALUES:0.448862,0.460000,0.140339,0.623728,0.093559,305.000000,18.000000,80.000000,0.000000,0.000000,0.000000,0.000000,0.000000,0.448862,0.460000,0.140339,0.623728,0.093559,305.000000,18.000000,80.000000,0.000000,0.000000,0.000000,0.000000,0.000000;
#CREDIT:;
#NOTES:
0000
0000
0000
0000
,
0000
0000
0000
0000
,
0000
0000
0000
0000
,
0000
0000
0000
0000
,
0020
0000
0130
0001
0100
0010
0000
0000
,
2000
3200
2300
3001
,
1000
0000
0010
0100
0001
0000
0010
0000
,
0200
0000
0000
2300
0000
0000
3002
0000
0000
0000
0000
0000
1003
0000
0000
0000
,
0200
0000
0310
0001
1000
0010
0000
0000
,
0200
0320
0230
0301
,
1000
0000
0100
1000
0010
0000
0100
0000
,
0200
0000
0000
0302
0000
0000
2003
0000
0000
0000
0000
0000
3100
0000
1000
0000
,
0010
1000
0100
0020
0000
0000
0031
0001
,
0010
0001
0100
0002
0000
0000
1003
1000
,
0100
0010
0001
1000
0200
0000
0302
0000
,
0023
0000
0000
2030
0000
0000
3002
0000
0000
0000
0000
0000
1003
0000
0010
0000
,
0100
0001
0100
0020
0000
0000
1030
1000
,
0010
1000
0001
0020
0000
0000
0031
0001
,
0100
0001
0010
1000
0020
0000
0032
0000
,
2003
0000
0000
3002
0000
0000
0203
0000
0000
0000
0000
0000
0301
0000
0000
0000
,
1000
0001
1000
0010
0200
0000
0300
0000
,
0010
1000
0001
0100
0002
0000
0003
0000
,
0010
0100
1000
0010
0200
0000
0302
0000
,
1003
0000
0010
2020
0000
3030
0000
1000
,
0010
0100
0001
0100
0020
0000
0030
0010
,
0001
0010
0100
1000
0002
0000
0003
0000
,
0010
1000
0100
0001
2000
0000
3020
0000
,
0130
0000
0001
0022
0000
0033
1000
0000
,
0200
0000
0010
0000
0010
0010
0320
0000
,
0032
0000
1000
0000
1000
1000
1003
0001
,
0100
0010
1000
0001
0002
0000
0023
0000
,
0130
0000
1000
2200
0000
3300
0001
0000
,
0200
0000
0010
0000
0010
0010
0320
0000
,
2030
0000
0001
0000
0001
0001
3001
0000
,
0010
0001
1000
0001
2000
0000
3020
0000
,
0130
0000
0001
0202
0000
0303
1000
0100
,
0010
0000
0001
0000
0010
0000
0000
0011
0000
0000
0001
0000
1000
0000
0000
0000
,
0010
0000
1000
0000
0010
0000
0000
1010
0000
0000
0010
0100
0000
0000
0001
0000
,
0010
0000
0001
0000
0010
0000
0000
0110
0000
0000
0100
0000
1000
0000
0000
0000
,
0010
0000
1000
0000
0010
0000
0000
0110
0000
0000
0100
0001
0000
0000
1000
0000
,
0000
0100
0010
0100
1000
0001
0000
0001
1000
0000
0000
0010
0000
0000
0010
0000
,
0000
1000
0001
1000
0010
0100
0000
0010
0100
0000
0000
0100
0000
0000
0101
0000
,
0000
0101
0000
0000
0101
0000
0000
1001
0000
0000
1001
0000
0001
0010
0100
1000
,
1001
0001
1000
0010
0200
0000
0300
0010
,
0010
1000
0001
0100
0002
0000
1003
0001
,
0000
0001
1000
0010
0200
0000
0302
0000
,
1003
0000
0010
2010
0000
3001
0000
1000
,
0010
0100
0001
0100
0020
0000
0030
0010
,
0001
0010
0100
1000
0002
0000
0003
0000
,
0010
1000
0100
0001
2000
0000
3020
0000
,
0130
0000
0001
0022
0000
0033
1000
0000
,
0200
0000
0010
0000
0010
0010
0320
0000
,
0032
0000
1000
0000
1000
1000
1003
0001
,
0100
0010
1000
0001
0002
0000
0023
0000
,
0130
0000
1000
2200
0000
3300
0001
0000
,
0200
0010
1000
0001
0010
0010
0320
0000
,
2030
0000
0001
0000
0001
0001
3001
0000
,
0010
0001
1000
0001
2000
0000
3020
0000
,
0130
0000
0001
0202
0000
0303
1000
0200
,
0300
0000
0000
0000
;

//---------------dance-single - ----------------
#NOTEDATA:;
#CHARTNAME:;
#STEPSTYPE:dance-single;
#DESCRIPTION:;
#CHARTSTYLE:;
#DIFFICULTY:Challenge;
#METER:6;
#RADARVALUES:0.266198,0.251928,0.023390,0.452203,0.035085,178.000000,3.000000,58.000000,152.000000,0.000000,0.000000,0.000000,0.000000,0.266198,0.251928,0.023390,0.452203,0.035085,178.000000,3.000000,58.000000,152.000000,0.000000,0.000000,0.000000,0.000000;
#CREDIT:;
#NOTES:
0000
0000
0000
0000
,
0000
0000
0000
0000
,
0000
0000
0000
0000
,
0000
0000
0000
0000
,
2000
0010
3010
MMMM
,
0010
1000
0001
MMMM
,
0001
0100
0001
MMMM
,
0020
0000
0000
1030
0000
0000
MMMM
0000
,
0002
0100
0103
MMMM
,
0100
0001
1000
MMMM
,
1000
0010
1000
MMMM
,
0200
0000
0000
0301
0000
0000
MMMM
0000
,
0020
0130
0010
MMMM
,
0200
0310
0100
MMMM
,
2000
3002
2003
3002
,
0203
0000
0000
0301
0000
0000
MMMM
0000
,
0200
0310
0100
MMMM
,
0020
0130
0010
MMMM
,
0002
2003
3002
2003
,
3020
0000
0000
1030
0000
0000
MMMM
0000
,
1000
0001
2000
3001
,
0100
0010
0200
0310
,
1000
0100
0020
0032
,
2003
0000
0000
3001
0000
0000
MMMM
0000
,
0001
1000
0002
1003
,
0010
0100
0020
0130
,
0001
0010
0200
2300
,
3002
0000
0000
1003
0000
0000
MMMM
0000
,
2000
0001
3001
0001
,
0002
1000
1003
MMMM
,
0001
0010
0200
2300
,
3002
0000
0000
1003
0000
0000
MMMM
0000
,
2000
0001
3001
0001
,
0002
1000
1003
MMMM
,
0001
1000
0020
0230
,
0302
0000
0000
0103
0000
0000
MMMM
0000
,
1000
0000
0000
0000
MMMM
0000
0000
0001
0000
0000
0000
0000
MMMM
0000
0000
0000
,
0010
0000
0000
0000
MMMM
0000
0000
0100
0000
0000
0000
1000
MMMM
0000
0001
0000
,
0001
0000
0000
0000
MMMM
0000
0000
0100
0000
0000
0000
0000
MMMM
0000
0000
0000
,
0001
0000
0000
0000
MMMM
0000
0000
1000
0000
0000
0000
0100
MMMM
0000
0010
0000
,
MMMM
0010
MMMM
0110
,
MMMM
0000
0000
0000
0100
0000
0000
0000
0100
0000
0000
0100
0000
0000
0100
0000
,
0000
0100
0000
0000
0100
0000
0000
0100
0000
0000
0100
0000
0110
0000
MMMM
0000
,
1000
0001
2000
3001
,
0100
0010
0200
0310
,
1000
0100
0020
0032
,
2003
0000
0000
3001
0000
1001
MMMM
0000
,
0001
1000
0002
1003
,
0010
0100
0020
0130
,
0001
0010
0200
2300
,
3002
0000
0000
1003
0000
0000
MMMM
0000
,
2000
0001
3001
0001
,
0002
1000
1003
MMMM
,
0001
0010
0200
2300
,
3002
0000
0000
1003
0000
0000
MMMM
0000
,
2000
0001
3001
0001
,
0002
1000
1003
MMMM
,
0001
1000
0020
0230
,
0302
0000
0000
0103
0000
0000
MMMM
0000
;

//---------------dance-single - ----------------
#NOTEDATA:;
#CHARTNAME:;
#STEPSTYPE:dance-single;
#DESCRIPTION:;
#CHARTSTYLE:;
#DIFFICULTY:Easy;
#METER:6;
#RADARVALUES:0.292929,0.274830,0.070169,0.530169,0.035085,186.000000,9.000000,68.000000,0.000000,0.000000,0.000000,0.000000,0.000000,0.292929,0.274830,0.070169,0.530169,0.035085,186.000000,9.000000,68.000000,0.000000,0.000000,0.000000,0.000000,0.000000;
#CREDIT:;
#NOTES:
0000
0000
0000
0000
,
0000
0000
0000
0000
,
0000
0000
0000
0000
,
0000
0000
0000
0000
,
2000
0010
3010
0000
,
0010
1000
0001
0000
,
0001
0100
0001
0000
,
0020
0000
0000
1030
0000
0000
0000
0000
,
0002
0100
0103
0000
,
0100
0001
1000
0000
,
1000
0010
1000
0000
,
0200
0000
0000
0301
0000
0000
0000
0000
,
0020
0130
0010
0000
,
0200
0310
0100
0000
,
2000
3002
2003
3002
,
0203
0000
0000
0301
0000
0000
0000
0000
,
0200
0310
0100
0000
,
0020
0130
0010
0000
,
0002
2003
3002
2003
,
3020
0000
0000
1030
0000
0000
0000
0000
,
1000
0001
2000
3001
,
0100
0010
0200
0310
,
1000
0100
0020
0032
,
2003
0000
0000
3001
0000
0000
0000
0000
,
0001
1000
0002
1003
,
0010
0100
0020
0130
,
0001
0010
0200
2300
,
3002
0000
0000
1003
0000
0000
0000
0000
,
2000
0001
3001
0001
,
0002
1000
1003
0000
,
0001
0010
0200
2300
,
3002
0000
0000
1003
0000
0000
0110
0000
,
2000
0001
3001
0001
,
0002
1000
1003
0000
,
0001
1000
0020
0230
,
0302
0000
0000
0103
0000
0000
0001
0000
,
2000
0000
0000
0000
0000
0000
0000
3002
0000
0000
0000
0000
0000
0000
0000
0000
,
0023
0000
0000
0000
0000
0000
0000
0230
0000
0000
0000
2300
0000
0000
3001
0000
,
0002
0000
0000
0000
0000
0000
0000
0203
0000
0000
0000
0000
0000
0000
0000
0000
,
0302
0000
0000
0000
0000
0000
0000
2003
0000
0000
0000
3200
0000
0000
0310
0000
,
0100
0110
0010
0110
,
0100
0000
0000
0000
1001
0000
0000
0000
0100
0000
0000
0100
0000
0000
0100
0000
,
0000
0100
0000
0000
0100
0000
0000
0100
0000
0000
0100
0000
0110
0000
0000
0000
,
1000
0001
2000
3001
,
0100
0010
0200
0310
,
1000
0100
0020
0032
,
2003
0000
0000
3001
0000
1001
0000
0000
,
0001
1000
0002
1003
,
0010
0100
0020
0130
,
0001
0010
0200
2300
,
3002
0000
0000
1003
0000
0000
0110
0000
,
2000
0001
3001
0001
,
0002
1000
1003
0000
,
0001
0010
0200
2300
,
3002
0000
0000
1003
0000
0000
0110
0000
,
2000
0001
3001
0001
,
0002
1000
1003
0000
,
0001
1000
0020
0230
,
0302
0000
0000
0103
0000
0000
1001
0000
;
