#TITLE:Best Day of My Life;
#SUBTITLE:;
#ARTIST:American Authors;
#TITLETRANSLIT:;
#SUBTITLETRANSLIT:;
#ARTISTTRANSLIT:;
#GENRE:Pop-Rock;
#CREDIT:;
#BANNER:Best Day of My Life.png;
#BACKGROUND:Best Day of My Life-bg.png;
#LYRICSPATH:;
#CDTITLE:;
#MUSIC:Best Day of My Life.mp3;
#OFFSET:-0.058000;
#SAMPLESTART:48.029793;
#SAMPLELENGTH:15.000001;
#SELECTABLE:YES;
#BPMS:0.000000=100.000000
;
#STOPS:
;
#BGCHANGES:-0.500=Best Day of My Life.avi=1.000=0=0=0=StretchNoLoop====,
99999=-nosongbg-=1.000=0=0=0 // don't automatically add -songbackground-
;
#KEYSOUNDS:;
#ATTACKS:;

//---------------dance-single - ----------------
#NOTES:
     dance-single:
     :
     Beginner:
     3:
     0.134941,0.143513,0.094459,0.000000,0.000000,99.000000,11.000000,0.000000,0.000000,0.000000,0.000000,0.134941,0.143513,0.094459,0.000000,0.000000,99.000000,11.000000,0.000000,0.000000,0.000000,0.000000:
// measure 0
0000
0000
0000
0000
,  // measure 1
0000
0000
0000
0000
,  // measure 2
0000
0000
0000
0000
,  // measure 3
0000
0000
0000
0000
,  // measure 4
0010
0000
0001
0000
,  // measure 5
0100
0000
1000
0000
,  // measure 6
0010
0010
0010
0000
,  // measure 7
0100
0100
0100
0000
,  // measure 8
0010
0000
1000
0000
,  // measure 9
0100
0000
0001
0000
,  // measure 10
0010
0010
0010
0000
,  // measure 11
0100
0100
0100
0000
,  // measure 12
1000
0000
1000
0000
,  // measure 13
0001
0000
0001
0000
,  // measure 14
0100
0000
0010
0000
,  // measure 15
1001
0000
0000
0000
,  // measure 16
0000
0100
0000
0100
,  // measure 17
0000
0010
0000
0010
,  // measure 18
0000
1000
0000
0001
,  // measure 19
0000
1000
1000
1000
,  // measure 20
0000
0010
0000
0100
,  // measure 21
0000
0010
0000
0100
,  // measure 22
0000
0001
0000
1000
,  // measure 23
0000
0001
0001
0001
,  // measure 24
0000
0100
0000
0001
,  // measure 25
0000
0010
0000
1000
,  // measure 26
0000
0100
0000
1000
,  // measure 27
0000
0010
0000
0001
,  // measure 28
1001
0000
0100
0000
,  // measure 29
1001
0000
0010
0000
,  // measure 30
1001
0000
0110
0000
,  // measure 31
1001
0000
0100
0000
,  // measure 32
0110
0000
1000
0000
,  // measure 33
0110
0000
0001
0000
,  // measure 34
0110
0000
1001
0000
,  // measure 35
0110
0000
0010
0000
,  // measure 36
1000
1000
1000
0000
,  // measure 37
0001
0001
0001
0000
,  // measure 38
0100
0100
0100
0000
,  // measure 39
0010
0010
0010
0000
,  // measure 40
0000
1000
0000
1000
,  // measure 41
0000
0001
0000
0001
,  // measure 42
0000
0010
0000
0100
,  // measure 43
0000
0010
0010
0010
,  // measure 44
0000
0001
0000
1000
,  // measure 45
0000
0001
0000
1000
,  // measure 46
0000
0100
0000
0010
,  // measure 47
0000
0100
0100
0100
;

//---------------dance-single - ----------------
#NOTES:
     dance-single:
     :
     Easy:
     6:
     0.236760,0.246022,0.223266,0.034349,0.000000,163.000000,26.000000,4.000000,0.000000,0.000000,0.000000,0.236760,0.246022,0.223266,0.034349,0.000000,163.000000,26.000000,4.000000,0.000000,0.000000,0.000000:
// measure 0
0000
0000
0000
0000
,  // measure 1
0000
0000
0000
0000
,  // measure 2
0000
0000
0000
0000
,  // measure 3
0000
0000
0000
0000
,  // measure 4
1000
0100
1000
0010
,  // measure 5
0001
0100
0001
0010
,  // measure 6
1000
1000
0001
0001
,  // measure 7
0100
0100
0010
0010
,  // measure 8
1000
0010
1000
0100
,  // measure 9
0001
0010
0001
0100
,  // measure 10
1000
1000
0001
0001
,  // measure 11
0100
0100
0010
0010
,  // measure 12
1000
0100
0000
0101
,  // measure 13
0001
0010
0000
1010
,  // measure 14
0001
0100
0010
1000
,  // measure 15
1001
0000
0000
0000
,  // measure 16
1000
1010
0100
1010
,  // measure 17
0001
0011
0100
0011
,  // measure 18
1000
0100
0010
0001
,  // measure 19
0100
0100
0100
0110
,  // measure 20
1000
1100
0010
1100
,  // measure 21
0001
0101
0010
0101
,  // measure 22
0001
0100
0010
1000
,  // measure 23
0100
0100
0100
0110
,  // measure 24
1000
0010
0100
0110
,  // measure 25
0001
0010
0100
0110
,  // measure 26
1000
0010
0100
0001
,  // measure 27
0010
0100
0010
0100
,  // measure 28
1001
0000
0000
1000
0100
0000
0100
0000
,  // measure 29
0010
0000
0000
0001
0100
0000
0100
0000
,  // measure 30
0010
1000
0001
0010
,  // measure 31
0200
0000
0020
0330
,  // measure 32
0100
0000
0000
0010
1000
0000
1000
0000
,  // measure 33
0100
0000
0000
0010
0001
0000
0001
0000
,  // measure 34
0001
1000
0100
1000
,  // measure 35
0020
0000
2000
3030
,  // measure 36
0001
0000
0000
1000
0100
0000
0000
0000
,  // measure 37
1000
0000
0000
0001
0100
0000
0000
0000
,  // measure 38
0001
0000
0000
0100
1000
0000
0000
0000
,  // measure 39
1000
0000
0000
0100
0001
0000
0000
0000
,  // measure 40
1000
1100
0010
1100
,  // measure 41
0001
0101
0010
0101
,  // measure 42
1000
0100
0010
0001
,  // measure 43
0100
0100
0100
0110
,  // measure 44
1000
1010
0100
1010
,  // measure 45
0001
0011
0100
0011
,  // measure 46
0001
0100
0010
1000
,  // measure 47
0100
0100
0100
0110
;

//---------------dance-single - ----------------
#NOTES:
     dance-single:
     :
     Medium:
     9:
     0.358207,0.329747,0.377835,0.137394,0.085872,232.000000,44.000000,16.000000,0.000000,0.000000,0.000000,0.358207,0.329747,0.377835,0.137394,0.085872,232.000000,44.000000,16.000000,0.000000,0.000000,0.000000:
// measure 0
0000
0000
0000
0000
,  // measure 1
0000
0000
0000
0000
,  // measure 2
0000
0000
0000
0000
,  // measure 3
0000
0000
0000
0000
,  // measure 4
1000
0010
0100
0000
0001
0010
0100
0000
,  // measure 5
1000
0010
0100
0000
0001
0010
0100
0000
,  // measure 6
2000
3020
0230
0301
,  // measure 7
0002
0023
0230
1300
,  // measure 8
0010
0100
0001
0000
0010
0100
1000
0000
,  // measure 9
0010
0100
0001
0000
0010
0100
1000
0000
,  // measure 10
0002
0203
0320
1030
,  // measure 11
2000
3200
0320
0031
,  // measure 12
0010
0000
0010
0001
0100
0000
0110
0000
,  // measure 13
0010
0000
1000
0100
0010
0000
0110
0000
,  // measure 14
0011
0101
1010
1100
,  // measure 15
1001
0000
0000
0000
,  // measure 16
1000
0000
0000
0001
0100
0000
0000
0000
0001
0000
0000
1000
0100
0000
0000
0000
,  // measure 17
1000
0000
0000
0001
0100
0000
0000
0000
0001
0000
0000
1000
0100
0000
0000
0000
,  // measure 18
1000
1100
0101
1100
,  // measure 19
0001
0100
1000
0100
0001
0100
0001
0000
,  // measure 20
1000
0000
0000
0001
0010
0000
0000
0000
0001
0000
0000
1000
0010
0000
0000
0000
,  // measure 21
1000
0000
0000
0001
0010
0000
0000
0000
0001
0000
0000
1000
0010
0000
0000
0000
,  // measure 22
0001
0011
1010
0011
,  // measure 23
1000
0100
0001
0100
1000
0100
0001
0000
,  // measure 24
0010
1000
0100
1000
0010
0100
0001
0000
,  // measure 25
0010
0001
0100
0001
0010
0100
1000
0000
,  // measure 26
1000
0010
0001
0010
1000
0100
1000
0000
,  // measure 27
0001
0010
1000
0010
0001
0100
0001
0000
,  // measure 28
1001
1100
1010
1100
,  // measure 29
1001
0101
0011
0101
,  // measure 30
1001
1100
1001
0101
,  // measure 31
2000
3100
0002
0103
,  // measure 32
1001
0011
1010
0011
,  // measure 33
1001
1100
0101
1100
,  // measure 34
1001
0011
1001
1010
,  // measure 35
0002
0103
2000
3100
,  // measure 36
0010
0000
0000
1000
0100
0000
0010
0000
0100
0000
0000
0000
0001
0000
0000
0000
,  // measure 37
0010
0000
0000
0001
0100
0000
0010
0000
0100
0000
0000
0000
1000
0000
0000
0000
,  // measure 38
0100
0000
0000
1000
0100
0000
0010
0000
0001
0000
0000
0000
0001
0000
0000
0000
,  // measure 39
0100
0000
0000
0001
0100
0000
0010
0000
1000
0000
0000
0000
1000
0000
0000
0000
,  // measure 40
1000
0000
0000
0001
0100
0000
0000
0000
0001
0000
0000
1000
0100
0000
0000
0000
,  // measure 41
1000
0000
0000
0001
0100
0000
0000
0000
0001
0000
0000
1000
0100
0000
0000
0000
,  // measure 42
0001
0011
1010
0011
,  // measure 43
1000
0010
0001
0010
1000
0010
1000
0000
,  // measure 44
1000
0000
0000
0001
0010
0000
0000
0000
0001
0000
0000
1000
0010
0000
0000
0000
,  // measure 45
1000
0000
0000
0001
0010
0000
0000
0000
0001
0000
0000
1000
0010
0000
0000
0000
,  // measure 46
1000
1100
0101
1100
,  // measure 47
0001
0010
1000
0010
0001
0010
1000
0000
,  // measure 48
1001
0000
0000
0000
;

//---------------dance-single - ----------------
#NOTES:
     dance-single:
     :
     Hard:
     12:
     0.433038,0.412183,0.068697,0.231853,0.274789,318.000000,8.000000,27.000000,0.000000,0.000000,0.000000,0.433038,0.412183,0.068697,0.231853,0.274789,318.000000,8.000000,27.000000,0.000000,0.000000,0.000000:
// measure 0
0000
0000
0000
0000
,  // measure 1
0000
0000
0000
0000
,  // measure 2
0000
0000
0000
0000
,  // measure 3
0000
0000
0000
0000
,  // measure 4
1000
0000
0000
0001
1000
0000
0100
0000
1000
0000
0000
0001
1000
0000
0010
0000
,  // measure 5
0100
0000
0000
0001
0100
0000
1000
0000
0100
0000
0000
0001
0100
0000
0010
0000
,  // measure 6
1000
0000
0100
0000
0010
0000
0001
0000
0100
0000
0010
2000
0000
0000
3100
0000
,  // measure 7
0001
0000
0100
0000
0010
0000
1000
0000
0100
0000
0010
0002
0000
0000
0103
0000
,  // measure 8
0001
0000
0000
1000
0001
0000
0010
0000
0001
0000
0000
1000
0001
0000
0010
0000
,  // measure 9
0100
0000
0000
1000
0100
0000
0001
0000
0100
0000
0000
1000
0100
0000
0010
0000
,  // measure 10
0001
0000
0100
0000
0010
0000
1000
0000
0010
0000
0100
0002
0000
0000
0013
0000
,  // measure 11
0100
0000
1000
0000
0100
0000
0010
0000
0001
0000
0100
0020
0000
0000
1030
0000
,  // measure 12
1000
0100
1000
0100
1000
0000
0010
0000
0100
0000
0000
0001
0100
0000
0100
0000
,  // measure 13
0001
0010
0001
0010
0001
0000
0100
0000
0010
0000
0000
1000
0010
0000
0010
0000
,  // measure 14
0200
2300
3020
0032
,  // measure 15
1003
0000
0000
0000
,  // measure 16
1000
0000
0000
0001
0100
0000
0010
0000
1000
0000
0000
0001
0100
0000
0010
0000
,  // measure 17
1000
0000
0000
0001
0010
0000
0100
0000
1000
0000
0000
0001
0010
0000
0100
0000
,  // measure 18
1000
0000
0000
0010
1000
0000
0010
0000
0001
0000
0000
0010
0001
0000
0010
0000
,  // measure 19
0100
0000
0001
0000
0010
0000
0100
0000
1000
0000
0100
0010
0000
0010
0100
0000
,  // measure 20
0001
0000
0000
1000
0100
0000
0010
0000
0001
0000
0000
1000
0100
0000
0010
0000
,  // measure 21
0001
0000
0000
1000
0010
0000
0100
0000
0001
0000
0000
1000
0010
0000
0100
0000
,  // measure 22
0001
0000
0000
0010
0001
0000
0010
0000
1000
0000
0000
0010
1000
0000
0010
0000
,  // measure 23
1000
0000
0010
0000
0001
0000
0100
0000
0010
0000
0100
0010
0000
0010
0100
0000
,  // measure 24
1000
0000
0100
0000
0010
0000
0001
0000
0010
0000
0100
1000
0000
1000
0100
0000
,  // measure 25
1000
0000
0010
0000
0100
0000
0001
0000
0100
0000
0010
1000
0000
1000
0010
0000
,  // measure 26
1000
0000
0010
0000
0001
0000
0010
0000
1000
0000
0100
0010
0000
0010
0100
0000
,  // measure 27
2000
0000
3020
0000
0032
0000
0203
0300
,  // measure 28
1001
0020
2030
3100
,  // measure 29
0011
0020
0032
0103
,  // measure 30
1010
2000
3200
0301
,  // measure 31
1001
0000
0000
0001
1000
0000
0001
0000
1000
0000
0000
0001
1000
0000
0001
0000
,  // measure 32
0110
0200
2300
3010
,  // measure 33
0101
0200
0302
0013
,  // measure 34
1100
0002
0023
2030
,  // measure 35
3100
0000
0000
0010
0100
0000
0010
0000
0100
0000
0000
0010
0100
0000
0010
0000
,  // measure 36
1000
0100
0000
1000
0100
0000
1000
0000
0000
0000
0001
0000
1000
0000
0000
0000
,  // measure 37
0001
0100
0000
0001
0100
0000
0001
0000
0000
0000
1000
0000
0001
0000
0000
0000
,  // measure 38
1000
0100
0000
1000
0100
0000
1000
0000
0000
0000
0010
0000
0010
0000
0000
0000
,  // measure 39
0001
0100
0000
0001
0100
0000
0001
0000
0000
0000
0010
0000
0010
0000
0000
0000
,  // measure 40
1000
0000
0000
0100
0010
0000
0001
0000
1000
0000
0000
0100
0010
0000
0001
0000
,  // measure 41
1000
0000
0000
0010
0100
0000
0001
0000
1000
0000
0000
0010
0100
0000
0001
0000
,  // measure 42
1000
0000
0000
0100
1000
0000
0100
0000
0001
0000
0000
0100
0001
0000
0100
0000
,  // measure 43
0010
0001
0100
0010
1000
0100
0001
0100
,  // measure 44
1000
0000
0000
1000
0010
0000
0100
0000
0001
0000
0000
1000
0010
0000
0100
0000
,  // measure 45
0001
0000
0000
1000
0100
0000
0010
0000
0001
0000
0000
1000
0100
0000
0010
0000
,  // measure 46
0001
0000
0000
0100
0001
0000
0100
0000
1000
0000
0000
0100
1000
0000
0100
0000
,  // measure 47
0010
1000
0100
0010
0001
0020
2000
3030
,  // measure 48
1001
0000
0000
0000
;
