#VERSION:0.81;
#TITLE:All of Me;
#SUBTITLE:;
#ARTIST:John Legend;
#TITLETRANSLIT:;
#SUBTITLETRANSLIT:;
#ARTISTTRANSLIT:;
#GENRE:Ballad;
#ORIGIN:;
#CREDIT:Steps by HellRazoR;
#BANNER:All of Me.png;
#BACKGROUND:;
#PREVIEWVID:;
#JACKET:All of Me-jacket.png;
#CDIMAGE:;
#DISCIMAGE:;
#LYRICSPATH:;
#CDTITLE:.CDTITLEShellrazor.png;
#MUSIC:All of Me.mp3;
#OFFSET:-0.213000;
#SAMPLESTART:53.279999;
#SAMPLELENGTH:15.000000;
#SELECTABLE:YES;
#BPMS:0.000=63.000;
#STOPS:;
#DELAYS:;
#WARPS:;
#TIMESIGNATURES:0.000=4=4;
#TICKCOUNTS:0.000=4;
#COMBOS:0.000=1;
#SPEEDS:0.000=1.000=0.000=0;
#SCROLLS:0.000=1.000;
#FAKES:;
#LABELS:0.000=Song Start;
#BGCHANGES:-1.500=All of Me.avi=1.000=0=0=0=StretchNoLoop====,
99999=-nosongbg-=1.000=0=0=0 // don't automatically add -songbackground-
;
#KEYSOUNDS:;
#ATTACKS:
;

//---------------dance-single - ----------------
#NOTEDATA:;
#CHARTNAME:;
#STEPSTYPE:dance-single;
#DESCRIPTION:;
#CHARTSTYLE:;
#DIFFICULTY:Beginner;
#METER:3;
#RADARVALUES:0.116541,0.128009,0.000000,0.069429,0.000000,86.000000,0.000000,8.000000,0.000000,0.000000,0.000000,0.000000,0.000000,0.116541,0.128009,0.000000,0.069429,0.000000,86.000000,0.000000,8.000000,0.000000,0.000000,0.000000,0.000000,0.000000;
#CREDIT:;
#NOTES:
0000
0000
0000
0000
,
0000
0000
0000
0000
,
1000
0000
0001
0000
,
0010
0000
0001
0000
,
1000
0100
1000
0001
,
1000
0010
0100
0010
,
1000
0000
0001
0000
,
0010
0000
0001
0000
,
1000
0100
1000
0001
,
0010
0001
1000
0010
,
0100
0100
0010
1000
,
0001
0001
1000
0001
,
0020
0030
0001
1000
,
0001
1000
0020
0030
,
0010
1000
0001
0001
,
1000
0010
1000
0000
,
0100
0010
0100
0000
0100
0000
1000
0000
,
0010
0100
0010
0000
0010
0000
1000
0000
,
0002
0003
1000
0010
,
2000
3000
0001
0010
,
0001
1000
0001
0000
0100
0000
0001
0000
,
1000
0100
1000
0000
0010
0000
1000
0000
,
0002
0000
0000
0003
,
0001
1000
0100
0000
,
2000
0000
0000
3000
,
0010
1000
0001
1000
,
0200
0000
0000
0300
,
0010
0000
0001
0000
,
2000
0000
0000
3000
,
0010
0000
0100
0000
;

//---------------dance-single - ----------------
#NOTEDATA:;
#CHARTNAME:;
#STEPSTYPE:dance-single;
#DESCRIPTION:;
#CHARTSTYLE:;
#DIFFICULTY:Easy;
#METER:5;
#RADARVALUES:0.182251,0.179213,0.000000,0.034714,0.000000,143.000000,0.000000,4.000000,0.000000,0.000000,0.000000,0.000000,0.000000,0.182251,0.179213,0.000000,0.034714,0.000000,143.000000,0.000000,4.000000,0.000000,0.000000,0.000000,0.000000,0.000000;
#CREDIT:;
#NOTES:
0000
0000
0000
0000
,
0000
0000
0000
0000
,
1000
0000
0001
0000
0010
0001
1000
0100
,
0010
0000
0001
0000
0010
0100
1000
0001
,
0010
0000
0001
0000
0010
0010
0001
0000
,
1000
1000
0010
0000
1000
1000
0100
0000
,
1000
0000
0010
0100
0010
1000
0001
0001
,
1000
0000
0100
0010
0100
0100
1000
0010
,
0100
0000
0010
1000
0002
0000
1003
0000
,
0020
0130
0010
1000
,
0001
1000
0100
0000
1000
1000
0001
0001
,
0010
0000
0001
0000
1000
0000
0100
0100
,
1000
0000
0100
0000
0010
0000
0001
0001
,
0100
0000
0010
0010
0100
0000
0100
0000
,
0010
1000
0001
1000
0100
0000
1000
0000
,
0010
0001
0010
1000
0100
0000
0010
0000
,
0100
1000
0100
1000
0010
0000
0100
0000
,
0001
0100
0010
0100
0001
0000
1000
0000
,
0100
0010
0001
1000
0010
0000
0100
0000
,
0001
1000
0100
0010
0100
0000
1000
0000
,
0001
0100
0001
1000
0100
0000
0010
0000
,
0001
1000
0010
1000
0001
0000
0010
0000
,
0001
1000
0100
1000
,
0010
0100
0010
0000
1000
0001
1000
0000
,
0100
0010
0001
0100
,
0010
1000
0001
0000
1000
0000
0100
0000
,
2000
0000
0000
3000
,
0001
0010
0001
1000
,
0002
0000
0000
0003
,
1000
0000
1000
0000
;

//---------------dance-single - ----------------
#NOTEDATA:;
#CHARTNAME:;
#STEPSTYPE:dance-single;
#DESCRIPTION:;
#CHARTSTYLE:;
#DIFFICULTY:Medium;
#METER:7;
#RADARVALUES:0.241761,0.281620,0.000000,0.121500,0.182251,181.000000,0.000000,14.000000,0.000000,0.000000,0.000000,0.000000,0.000000,0.241761,0.281620,0.000000,0.121500,0.182251,181.000000,0.000000,14.000000,0.000000,0.000000,0.000000,0.000000,0.000000;
#CREDIT:;
#NOTES:
0000
0000
0000
0000
,
0000
0000
0000
0000
,
0000
0000
0000
0000
1000
0001
1000
0000
0100
0010
0100
0000
1000
0000
1000
0000
,
1000
0000
0000
0000
0010
0100
0010
0000
1000
0001
1000
0000
0100
0100
1000
1000
,
0000
0000
0000
0000
0010
0100
0000
0000
0020
0000
0000
0030
1000
1000
0000
0000
,
0002
0000
0000
0003
0100
0100
0000
0001
0001
0000
0000
0000
1000
0100
0000
0000
,
2000
0000
0000
3000
0010
0100
0010
0000
1000
0001
1000
0000
0100
0010
0001
1000
,
0000
0000
0000
0000
0010
0100
0010
0000
1000
0001
1000
0000
0100
1000
0001
0010
,
0000
0000
0000
0000
0001
0001
0000
0000
2000
0000
0000
3000
0010
0010
0000
0000
,
0200
0000
0000
0300
0001
0001
0000
0001
1000
0000
0000
0000
0100
1000
0000
0000
,
0010
0000
0000
0000
0000
0000
0000
0100
0100
0000
0000
0001
0000
1000
0000
0100
,
0000
0000
0000
0100
0000
1000
0000
1000
0000
0000
0000
0010
0000
0100
0000
0002
,
0000
0000
0000
0000
0000
0003
0000
1000
0000
0000
0000
1000
0000
0100
1000
1000
,
0000
0000
0000
0010
0000
0010
0100
0100
0000
0000
0000
0000
0001
0000
0000
1000
,
0100
0000
1000
0000
1000
0000
0010
0000
0100
0000
0000
0000
0020
0000
0000
0030
,
1000
0000
1000
0000
0001
0000
0100
0000
0002
0000
0000
0003
1000
0000
0100
0000
,
1000
1000
0010
0100
0010
0000
1000
0000
,
0001
0001
1000
0100
1000
0000
0010
0000
,
0100
0010
1000
0001
1000
0000
0100
0100
,
1000
0001
0010
0010
0001
0000
1000
0100
,
1000
1000
0001
0100
0100
0000
0001
1000
,
0100
0100
1000
0010
0100
0000
0010
1000
,
0001
0100
0010
1000
0001
0100
0010
1000
,
0001
0000
1000
0000
0100
0000
0100
0010
,
0001
1000
0100
0010
0001
1000
0100
0010
,
0001
0000
0100
0001
1000
0000
0100
0100
,
2000
0000
0000
3000
0020
0000
0000
0030
0200
0000
0000
0300
0000
0000
0001
0000
,
0001
0000
0000
0010
0010
0000
0000
0000
,
0020
0000
0000
0030
0200
0000
0000
0300
0020
0000
0000
0030
0000
0000
0001
0000
,
0001
0000
0000
0100
0100
0000
0000
0000
;

//---------------dance-single - ----------------
#NOTEDATA:;
#CHARTNAME:;
#STEPSTYPE:dance-single;
#DESCRIPTION:;
#CHARTSTYLE:;
#DIFFICULTY:Hard;
#METER:9;
#RADARVALUES:0.345904,0.371227,0.000000,0.008679,0.512037,278.000000,0.000000,1.000000,0.000000,0.000000,0.000000,0.000000,0.000000,0.345904,0.371227,0.000000,0.008679,0.512037,278.000000,0.000000,1.000000,0.000000,0.000000,0.000000,0.000000,0.000000;
#CREDIT:;
#NOTES:
0010
0000
0000
1000
0000
0000
0001
0000
0100
0000
0000
0010
0000
0000
1000
0000
,
0001
0000
0000
0100
0000
0000
0010
0000
1000
0000
0000
0001
0000
0000
1000
0000
,
0100
0000
0000
0010
0000
0000
0001
0000
1000
0000
0000
0100
0000
0000
0010
0000
,
0100
0000
0000
1000
0000
0000
0010
0000
0100
0000
0000
0001
0000
0000
1000
0000
,
0010
0000
0000
1000
0000
0000
0001
0000
0100
0000
0000
0010
0000
0000
1000
0000
,
0001
0000
0000
1000
0000
0010
0100
0000
0010
0000
0000
0100
0000
0000
0010
0000
,
1000
0000
0000
0001
0000
0000
1000
0000
0100
0000
0000
0010
0000
0000
0001
0000
,
1000
0000
0000
0010
0000
0000
0100
0000
0010
0000
0000
0100
0000
0000
0001
0000
,
1000
0000
0000
0010
0000
0000
1000
0000
0100
0000
0000
0100
0000
0100
0010
0000
,
0001
0000
0000
1000
0000
0000
0001
0000
1000
0000
0000
1000
0100
0010
0001
1000
,
0100
0010
0001
1000
0100
0010
0001
1000
0100
0010
0001
1000
0100
0010
0001
0000
,
0100
0000
0000
1000
0000
0100
0010
0000
0100
0000
0000
0010
0000
0000
1000
0000
,
0001
0100
0010
1000
0001
0100
0010
1000
0001
0100
0010
1000
0001
0100
0010
1000
,
0002
0000
0003
0001
0000
0000
0100
1000
0100
0000
0000
0000
0100
0000
0000
0000
,
0001
1000
0100
1000
0010
1000
0001
1000
0100
1000
0010
1000
0001
1000
0100
0000
,
0100
1000
0010
1000
0001
0100
0010
0100
0001
1000
0100
0010
0000
0010
0001
0000
,
0100
0000
0000
0001
0000
1000
0010
1000
0100
0000
0000
0100
0000
0000
1000
0000
,
0010
0000
1000
0001
0100
0001
0010
0001
1000
0000
0000
0010
1000
0000
0000
0000
,
1000
0001
0010
0001
0100
0001
1000
0001
0010
0001
0100
0001
1000
0001
0010
0000
,
0010
0001
0100
0001
1000
0010
0100
0010
1000
0001
0010
0100
0000
0100
1000
0000
,
0100
1000
0001
1000
0100
0010
0100
1000
0001
0000
0000
0100
0000
0000
0001
1000
,
0010
0000
0000
0100
0000
0000
0010
0100
0010
0000
0000
0010
0100
0001
1000
0000
,
0010
0100
1000
0100
0010
0100
0001
0000
0100
0010
0001
0010
0100
0010
1000
0001
,
1000
0000
0001
0001
0000
0010
0010
0000
0001
0000
1000
1000
0000
0100
0100
0000
,
1000
0001
0100
0001
1000
0001
0010
0000
0001
1000
0010
1000
0001
1000
0100
0010
,
0010
0000
0100
0010
0000
0010
0001
0000
0100
0000
0000
0000
0010
1000
0001
0000
,
0001
0000
0100
0100
0000
0000
0000
0000
0010
0000
1000
1000
0000
0000
0000
0000
,
0100
1000
0010
1000
0000
0000
0100
0000
1000
0000
0000
0000
0000
0000
0000
0000
,
1000
0000
0001
0001
0000
0000
1000
0000
0001
0000
0100
0100
0000
0000
0000
0000
,
0100
0000
0001
0001
0000
0000
0000
0000
0001
0000
0000
0000
0000
0000
0000
0000
;

//---------------dance-single - ----------------
#NOTEDATA:;
#CHARTNAME:;
#STEPSTYPE:dance-single;
#DESCRIPTION:;
#CHARTSTYLE:;
#DIFFICULTY:Challenge;
#METER:11;
#RADARVALUES:0.463685,0.413101,0.251679,0.190929,0.663913,323.000000,29.000000,22.000000,0.000000,0.000000,0.000000,0.000000,0.000000,0.463685,0.413101,0.251679,0.190929,0.663913,323.000000,29.000000,22.000000,0.000000,0.000000,0.000000,0.000000,0.000000;
#CREDIT:;
#NOTES:
// measure 0
1001
0000
0000
1010
0000
0000
0101
0000
0110
0000
0000
1010
0000
0000
1001
0000
,  // measure 1
0011
0000
0000
0110
0000
0000
1100
0000
1001
0000
0000
1010
0000
0000
0110
0000
,  // measure 2
0101
0000
0000
0000
1000
0001
1000
0000
0010
0100
0010
0000
1000
0000
1000
0000
,  // measure 3
0001
0000
0000
0000
1000
0100
1000
0000
0010
0100
0010
0000
1000
1000
0001
0001
,  // measure 4
0000
0000
0000
0000
0000
0000
0000
0000
1000
0000
0000
0200
0000
0000
0000
0000
2300
0000
0000
0000
0000
0000
0000
0000
0010
0000
0010
0000
3000
0000
0000
0000
,  // measure 5
0020
0000
0000
0000
0100
0100
0030
0100
0002
0000
0000
0003
0001
0100
0000
0001
,  // measure 6
1000
0000
0100
0000
1000
1000
0010
0000
0100
0010
1000
0000
0001
1000
0100
2000
,  // measure 7
0000
0000
3000
0000
1000
0010
0010
0000
1000
0001
0100
0000
0100
0001
0001
2000
,  // measure 8
0100
0000
3000
0000
0100
2000
0000
0000
0020
0000
0000
0030
0100
3100
0000
0001
,  // measure 9
0002
0000
0010
0000
0100
0100
0003
0100
0020
0000
0000
0030
1000
2000
0000
0000
,  // measure 10
3001
1000
0100
0010
0100
0010
0001
0100
0200
0000
0001
0301
0000
2000
0000
0100
,  // measure 11
3200
0000
0010
0310
0000
0001
0000
0001
0200
0000
0000
0010
0000
0010
0000
0310
,  // measure 12
0010
1000
0001
1000
0010
0100
0010
1000
1001
1000
0100
0010
0100
0010
0001
0001
,  // measure 13
0200
0000
0010
0310
0000
1000
0001
2000
0000
0000
0000
0000
3100
0000
0000
1000
,  // measure 14
0001
1000
0100
1000
0010
1000
0001
1000
0100
1000
0010
1000
0001
1000
0001
0000
,  // measure 15
1000
0001
1000
1100
0000
0110
0000
1100
0000
1000
0010
1010
0000
0110
0000
1010
,  // measure 16
1000
0001
1000
0100
0000
1000
0100
1000
0020
0000
0000
0230
0000
0301
0100
0010
,  // measure 17
1000
1000
0100
0010
0000
0100
1000
1000
0001
0000
0000
0001
0101
0100
0001
0000
,  // measure 18
1000
0001
0010
0001
0100
0001
1000
0001
0010
0001
0100
0001
1000
0001
0010
0000
,  // measure 19
0100
0010
0100
1100
0000
1001
0000
1010
0100
0010
1000
1100
0000
1001
0000
1000
,  // measure 20
0100
0010
0100
0010
0011
0001
1000
0001
0201
0000
0000
0320
0000
0000
1030
0010
,  // measure 21
0100
0000
0100
0010
0000
0100
0010
1000
0001
0000
0000
0000
0001
1000
0100
0000
,  // measure 22
1000
1000
0010
0100
0010
1000
0010
0100
0010
1000
0010
0100
0010
1000
0100
0010
,  // measure 23
0100
1000
0010
0100
0000
0100
0000
0001
1000
0000
0100
0010
0001
0100
0010
0000
,  // measure 24
0100
0001
0010
0100
0010
0001
0100
0010
1000
0010
0100
0010
1000
0100
0010
0001
,  // measure 25
0100
0000
0100
0010
0000
1000
0000
1000
0010
0000
0000
0000
0100
0010
0100
0000
,  // measure 26
0001
0000
1000
0000
0001
0000
1000
0000
0010
0000
0100
0000
0010
0000
0100
0000
0001
0000
0100
0000
0001
0000
0100
0000
0001
0000
0000
0000
1000
0000
0000
0100
,  // measure 27
0010
0000
0010
0010
0000
0000
0100
0000
1000
0000
0000
0001
0001
1000
0001
0000
,  // measure 28
0010
0010
0001
0100
0000
0100
0001
0000
1000
1000
0010
0100
0000
0100
0001
0000
,  // measure 29
0100
0010
0100
0010
0000
0010
1000
0000
1200
0000
0000
0000
0300
0000
0000
0000
;
