#TITLE:All About That Bass;
#SUBTITLE:;
#ARTIST:Meghan Trainor;
#TITLETRANSLIT:;
#SUBTITLETRANSLIT:;
#ARTISTTRANSLIT:;
#GENRE:Doowop;
#CREDIT:;
#BANNER:All About That Bass.png;
#BACKGROUND:All About That Bass-bg.png;
#LYRICSPATH:;
#CDTITLE:;
#MUSIC:All About That Bass.mp3;
#OFFSET:-1.204000;
#SAMPLESTART:29.399979;
#SAMPLELENGTH:15.000000;
#SELECTABLE:YES;
#BPMS:0.000000=134.000000
;
#STOPS:
;
#BGCHANGES:-3.500=All About That Bass.avi=1.000=0=0=0=StretchNoLoop====,
99999=-nosongbg-=1.000=0=0=0 // don't automatically add -songbackground-
;
#KEYSOUNDS:;
#ATTACKS:;

//---------------dance-single - ----------------
#NOTES:
     dance-single:
     :
     Beginner:
     3:
     0.111532,0.107566,0.000000,0.000000,0.000000,90.000000,0.000000,0.000000,0.000000,0.000000,0.000000,0.111532,0.107566,0.000000,0.000000,0.000000,90.000000,0.000000,0.000000,0.000000,0.000000,0.000000:
0000
0000
0000
0000
,
0000
0000
0000
0000
,
0000
0000
0000
0000
,
0000
0000
0000
0000
,
1000
0000
1000
0000
,
0001
0000
0000
0000
,
0100
0000
0010
0000
,
0010
0000
0000
0000
,
1000
0000
1000
0000
,
0001
0000
0001
0000
,
0100
0000
0100
0000
,
0010
0000
0010
0000
,
1000
0000
1000
0000
,
0100
0000
0100
0000
,
0010
0000
0010
0000
,
0001
0000
0001
0000
,
1000
0000
1000
0000
,
0010
0000
0010
0000
,
0100
0000
0000
0000
,
0000
0000
0000
0000
,
0001
0000
0001
0000
,
0010
0000
0010
0000
,
0100
0000
0000
0000
,
0000
0000
0000
0000
,
1000
0000
1000
0000
,
0001
0000
0001
0000
,
0100
0000
0000
0000
,
0000
0000
0000
0000
,
0001
0000
0001
0000
,
1000
0000
1000
0000
,
0100
0000
0000
0000
,
0000
0000
0000
0000
,
1000
0000
0000
0000
,
0001
0000
0000
0000
,
0100
0000
0000
0000
,
0010
0000
0000
0000
,
1000
0000
0000
0000
,
0100
0000
0000
0000
,
0010
0000
0000
0000
,
0001
0000
0000
0000
,
1000
0000
1000
0000
,
0001
0000
0001
0000
,
0100
0000
0100
0000
,
0010
0000
0010
0000
,
1000
0000
1000
0000
,
0100
0000
0100
0000
,
0010
0000
0010
0000
,
0001
0000
0000
0000
,
0001
0000
0001
0000
,
0100
0000
0100
0000
,
0010
0000
0010
0000
,
1000
0000
1000
0000
,
0100
0000
0100
0000
,
0010
0000
0010
0000
,
0001
0000
0001
0000
,
1000
0000
0000
0000
,
0001
0000
0001
0000
,
1000
0000
1000
0000
,
0001
0000
0000
0000
,
0000
0000
0000
0000
,
1000
0000
1000
0000
,
0001
0000
0001
0000
,
1000
0000
0000
0000
;

//---------------dance-single - ----------------
#NOTES:
     dance-single:
     :
     Easy:
     6:
     0.244130,0.218602,0.026024,0.069397,0.000000,186.000000,3.000000,8.000000,0.000000,0.000000,0.000000,0.244130,0.218602,0.026024,0.069397,0.000000,186.000000,3.000000,8.000000,0.000000,0.000000,0.000000:
0000
0000
0000
0000
,
0000
0000
0000
0000
,
0000
0000
0000
0000
,
0000
0000
0000
0000
,
1000
1000
0001
0000
,
0001
0001
1000
0000
,
0010
0010
0100
0000
,
1001
0000
0000
0000
,
1000
0000
1000
0100
,
0000
0100
1000
0001
,
1000
0000
0010
0100
,
0000
0100
0001
0010
,
0001
0000
0100
0010
,
0000
0010
1000
0100
,
1000
0001
1000
0001
,
0100
0010
0100
0000
,
0010
0010
1000
1000
,
0100
0100
0010
0010
,
0001
0000
0001
0000
,
1000
0000
1000
0000
,
0001
0001
0100
0100
,
0010
0010
1000
1000
,
0001
0000
0001
0000
,
1000
0000
1000
0000
,
0100
1000
0010
0100
,
0001
0010
0100
0010
,
0001
0000
1000
0000
,
0010
0000
0100
0000
,
0001
0010
0100
0010
,
0001
0100
0010
0100
,
0001
0000
1000
1000
,
1001
0000
0000
0000
,
2000
0000
3100
1000
,
0010
0000
0100
0001
,
0020
0000
0031
0100
,
0010
0000
0100
0001
,
0020
0000
0130
1000
,
0010
0000
1000
0001
,
0200
0000
0301
1000
,
0100
0000
1000
0001
,
0100
0100
0010
1000
,
0100
0010
0100
0000
,
1000
1000
0100
1000
,
0010
0100
0001
0000
,
0010
0010
0001
0100
,
0010
1000
0100
0000
,
1000
1000
0001
0100
,
0010
0100
0001
0000
,
1000
0100
1000
0010
,
0200
0001
0301
0000
,
0001
0010
0100
1000
,
0020
0100
0130
0000
,
0010
1000
0100
0010
,
0002
1000
1003
0000
,
0010
1000
0100
1000
,
0020
1000
1030
0000
,
0010
0100
0001
0010
,
0100
1000
0100
0010
,
0001
0000
1000
0000
,
0001
0000
0001
0000
,
1000
0010
0100
0001
,
0010
0100
1000
0010
,
0100
0000
0010
0000
,
1001
0000
0000
0000
;

//---------------dance-single - ----------------
#NOTES:
     dance-single:
     :
     Medium:
     8:
     0.335834,0.331807,0.034699,0.008675,0.000000,266.000000,4.000000,1.000000,0.000000,0.000000,0.000000,0.335834,0.331807,0.034699,0.008675,0.000000,266.000000,4.000000,1.000000,0.000000,0.000000,0.000000:
// measure 0
0000
0000
0000
0000
,  // measure 1
0000
0000
0000
0000
,  // measure 2
0000
0000
0000
0000
,  // measure 3
0000
0000
0000
0000
,  // measure 4
0000
1000
0000
1000
,  // measure 5
0000
0000
0001
0001
0000
0000
1000
0000
,  // measure 6
0000
0010
0000
0100
,  // measure 7
0010
0000
0000
1001
,  // measure 8
1100
0000
0001
1000
,  // measure 9
0000
0000
0010
0000
0100
0001
0100
0000
,  // measure 10
0010
0000
1000
0100
,  // measure 11
0000
0000
1000
0000
0010
0100
0001
0000
,  // measure 12
0010
0000
0001
0100
,  // measure 13
0000
0000
0001
0000
1000
0100
1000
0000
,  // measure 14
0001
0000
0100
0010
0000
0010
0100
0000
,  // measure 15
0001
0000
0000
1000
0100
0000
1001
0000
,  // measure 16
0001
0000
0000
0100
0000
0010
1000
0000
,  // measure 17
0100
0000
0000
1000
0000
0010
0100
0000
,  // measure 18
0001
0000
0000
1000
0000
1000
0000
0001
,  // measure 19
1000
0000
0000
0001
0000
0001
0000
1000
,  // measure 20
0001
0000
0000
1000
0000
0010
0100
0000
,  // measure 21
0001
0000
0000
1000
0000
0100
1000
0000
,  // measure 22
0001
0000
0000
0100
0010
0100
0010
0100
,  // measure 23
0000
0010
0000
1000
0001
1000
0001
1000
,  // measure 24
0001
0000
0000
1000
0000
0100
1000
0000
,  // measure 25
0001
0000
0000
0100
0000
0010
0100
0000
,  // measure 26
0001
0000
0000
1000
0000
1000
0000
0001
,  // measure 27
1000
0000
0000
0001
0000
0001
0000
1000
,  // measure 28
0001
0000
0000
0010
0000
0100
1000
0000
,  // measure 29
0001
0000
0000
0100
0000
0010
0100
0000
,  // measure 30
0001
0000
0000
0010
0100
0010
0000
0100
,  // measure 31
1000
0000
0000
0000
,  // measure 32
1001
0000
0000
0001
0100
0010
0000
0100
,  // measure 33
0001
0000
0010
0100
0000
0000
0100
1000
,  // measure 34
0001
0000
0000
0100
0010
1000
0000
0100
,  // measure 35
1000
0000
0001
0100
0000
0000
0001
1000
,  // measure 36
0100
0000
0000
0010
0001
0100
0000
0010
,  // measure 37
0100
0000
0001
1000
0000
0000
0100
1000
,  // measure 38
0010
0000
0000
0100
0001
0010
0000
0100
,  // measure 39
1000
0000
0000
0001
1000
0001
1000
0001
,  // measure 40
1000
0000
0010
0100
0010
0000
0010
0100
,  // measure 41
0001
0000
0010
0000
0100
1000
0000
1000
,  // measure 42
0010
0000
0100
0001
0100
0000
0100
0010
,  // measure 43
0100
0000
0010
0000
1000
0100
0000
0100
,  // measure 44
1000
0000
0010
0100
0010
0000
0010
0100
,  // measure 45
0001
0000
0010
0000
0100
0010
0000
0010
,  // measure 46
0001
0000
0100
0010
0100
0000
0100
0001
,  // measure 47
0100
0000
0010
1000
,  // measure 48
0100
0000
0100
1000
0001
0000
0001
1000
,  // measure 49
0010
0000
0010
0100
0001
0000
0001
0010
,  // measure 50
0100
0100
1000
0001
,  // measure 51
0100
0100
0010
0010
,  // measure 52
1000
0000
1000
0001
0100
0000
0100
0001
,  // measure 53
0010
0000
0010
0001
1000
0000
1000
0010
,  // measure 54
0100
0001
0100
0100
,  // measure 55
0010
1000
0001
0001
,  // measure 56
0010
0000
0010
0100
1000
0000
1000
0010
,  // measure 57
0100
0000
0100
0001
0010
0000
0010
0100
,  // measure 58
0001
0001
0100
0100
,  // measure 59
1000
1000
0001
0001
,  // measure 60
0100
0000
0100
0010
0001
0000
0001
0010
,  // measure 61
1000
0000
1000
0100
0001
0000
0001
0100
,  // measure 62
1000
0000
0000
0001
1000
0100
0000
0010
,  // measure 63
0200
0000
0000
0300
;

//---------------dance-single - ----------------
#NOTES:
     dance-single:
     :
     Hard:
     10:
     0.460997,0.442409,0.130120,0.017349,0.190843,355.000000,15.000000,2.000000,0.000000,0.000000,0.000000,0.460997,0.442409,0.130120,0.017349,0.190843,355.000000,15.000000,2.000000,0.000000,0.000000,0.000000:
0000
0000
0000
0000
,
0000
0000
0000
0000
,
0000
0000
0000
0000
,
0000
0000
0000
0000
,
0000
1000
0000
0001
,
0000
0000
0100
0010
0000
0000
0100
0000
,
0000
0010
0000
1000
,
2001
0000
0000
0001
0000
0000
0001
0000
0001
0000
0000
0000
3001
0000
0000
0000
,
1100
0000
0001
0100
0000
0001
0100
0010
,
0100
0000
0001
0010
0100
0001
0100
1000
,
0001
0000
0100
0010
0000
0010
0001
0010
,
1000
0000
0001
0010
1000
0010
0001
1000
,
0100
0000
0100
1000
0000
1000
0010
0100
,
0001
0000
0010
0100
0010
0001
0100
0010
,
0100
0000
0001
1000
0000
1000
0010
0100
,
0001
0000
0001
0010
0100
1000
0010
0100
,
0001
0000
0000
0010
0000
0000
0100
0000
1000
0000
0000
0010
0000
0000
0100
0000
,
0001
0000
0000
0010
0000
0000
0100
0000
1000
0000
0000
0000
0010
0000
1000
0000
,
0100
0000
0100
0010
0000
0010
0100
1000
,
0001
0000
0001
0100
0010
1000
0100
0010
,
0001
0000
0000
1000
0000
0000
0100
0000
1000
0000
0000
0001
0000
0000
0100
0000
,
0001
0000
0000
1000
0000
0000
0100
0000
1000
0000
0000
0000
0001
0000
0100
0000
,
0010
0000
0010
0100
0001
0010
0100
1000
,
0000
1001
0000
0001
0010
0100
0010
0001
,
0100
0000
0000
1000
0000
0000
0001
0000
0010
0000
0000
1000
0000
0000
0001
0000
,
0100
0000
0000
1000
0000
0000
0001
0000
0010
0000
1000
0000
0001
0000
0010
0000
,
0100
0000
0100
0001
0000
0001
0100
1000
,
0001
0000
0001
0100
1000
0100
0001
0010
,
1000
0000
0000
0001
0000
0000
0100
0000
1000
0000
0000
0001
0000
0000
0010
0000
,
1000
0000
0000
0001
0000
0000
0100
0000
1000
0000
0000
0000
0010
0000
0100
0000
,
0001
0000
0000
0010
0100
0001
0000
0100
,
1000
0000
0000
0000
,
1100
0000
0001
1000
0000
1000
0010
0100
,
0001
0000
0001
0010
0100
0000
1000
0001
,
0101
0000
0100
0010
0000
0010
0100
0001
,
0010
0000
0010
0100
0001
0000
0100
1000
,
1010
0000
0010
0100
0000
0100
0001
1000
,
0100
0000
0100
1000
0010
0000
0100
0001
,
0011
0000
0001
0010
0000
0010
0100
1000
,
0001
0000
0000
1000
0001
0001
1000
0001
,
1000
0010
0100
0001
0011
0000
0010
0100
,
1100
0000
0100
1000
0010
0100
1000
0100
,
0001
0010
0100
0010
0011
0000
0001
0100
,
0110
0000
0010
1000
0100
0001
0100
1000
,
0001
0100
1000
0100
0101
0000
0001
0010
,
0110
0000
0010
0001
0100
0010
1000
0100
,
0010
0001
0100
0010
1010
0000
0010
1000
,
1100
0000
0100
0010
0001
0100
1000
0100
,
0001
0000
0010
0000
0100
0000
1000
0000
0010
0000
0100
0000
,
0001
0000
1000
0000
0100
0000
1000
0000
0001
0000
0010
0000
,
0001
0000
0100
0010
0000
0010
0100
0001
,
0010
0000
0010
0100
0001
0100
1000
0100
,
1000
0000
0010
0000
0100
0000
0001
0000
0010
0000
0100
0000
,
1000
0000
0001
0000
0100
0000
0001
0000
1000
0000
0010
0000
,
1000
0000
0001
0010
0000
0010
0100
1000
,
0010
0000
0010
0100
0001
0010
0100
1000
,
0100
0000
0001
0000
1000
0000
0010
0000
0001
0000
1000
0000
,
0100
0000
0001
0000
1000
0000
0010
0000
0001
0000
1000
0000
,
0100
0000
0100
1000
0000
1000
0010
0100
,
0001
0000
0001
0010
0100
1000
0001
1000
,
0010
0000
0001
0000
1000
0000
0100
0000
0001
0000
1000
0000
,
0010
0000
0000
0000
0001
0000
0000
0000
1000
0000
0000
0000
0100
0000
0000
0000
0001
0000
0000
0000
0000
0010
0000
0000
,
0100
0000
0000
0100
0001
0100
0000
1000
,
0002
0000
0000
0003
;
