#VERSION:0.81;
#TITLE:Ain't it Fun;
#SUBTITLE:;
#ARTIST:Paramore;
#TITLETRANSLIT:;
#SUBTITLETRANSLIT:;
#ARTISTTRANSLIT:;
#GENRE:Pop-Rock;
#ORIGIN:;
#CREDIT:;
#BANNER:;
#BACKGROUND:;
#PREVIEWVID:;
#JACKET:Ain't it Fun-jacket.png;
#CDIMAGE:;
#DISCIMAGE:;
#LYRICSPATH:;
#CDTITLE:;
#MUSIC:Ain't it Fun.mp3;
#OFFSET:-0.080000;
#SAMPLESTART:36.401531;
#SAMPLELENGTH:15.000000;
#SELECTABLE:YES;
#BPMS:0.000=104.000;
#STOPS:;
#DELAYS:;
#WARPS:;
#TIMESIGNATURES:0.000=4=4;
#TICKCOUNTS:0.000=4;
#COMBOS:0.000=1;
#SPEEDS:0.000=1.000=0.000=0;
#SCROLLS:0.000=1.000;
#FAKES:;
#LABELS:0.000=Song Start;
#BGCHANGES:-1.250=Ain't it Fun.avi=1.000=0=0=0=StretchNoLoop====,
99999=-nosongbg-=1.000=0=0=0 // don't automatically add -songbackground-
;
#KEYSOUNDS:;
#ATTACKS:
;

//---------------dance-single - ----------------
#NOTEDATA:;
#CHARTNAME:;
#STEPSTYPE:dance-single;
#DESCRIPTION:;
#CHARTSTYLE:;
#DIFFICULTY:Beginner;
#METER:2;
#RADARVALUES:0.076027,0.079829,0.012095,0.024191,0.000000,41.000000,1.000000,2.000000,0.000000,0.000000,0.000000,0.000000,0.000000,0.076027,0.079829,0.012095,0.024191,0.000000,41.000000,1.000000,2.000000,0.000000,0.000000,0.000000,0.000000,0.000000;
#CREDIT:;
#NOTES:
0000
0000
0000
0000
,
0000
0000
0000
0000
,
0000
0000
0000
0000
,
0000
0000
0000
0000
,
1000
0000
0000
0000
,
0001
0000
0000
0000
,
0100
0000
0000
0000
,
0010
0000
0000
0000
,
0100
0000
0000
0000
,
0001
0000
0000
0000
,
1000
0000
0000
0000
,
0100
0000
0000
0000
,
0010
0000
0010
0000
,
0010
0000
0000
0000
,
0001
0000
0001
0000
,
0001
0000
0000
0000
,
1000
0000
1000
0000
,
0001
0000
0001
0000
,
1001
0000
0000
0000
,
0200
0000
0300
0000
,
0010
0000
0000
0000
,
1000
0000
0001
0000
,
0010
0000
0100
0000
,
0020
0000
0030
0000
,
0001
0000
1000
0000
,
0001
0000
0000
0000
,
0100
0000
0010
0000
,
0100
0000
0000
0000
,
0001
0000
1000
0000
,
0001
0000
0000
0000
,
0010
0000
0100
0000
,
0010
0000
0000
0000
,
0001
0000
1000
0000
,
0001
0000
0000
0000
;

//---------------dance-single - ----------------
#NOTEDATA:;
#CHARTNAME:;
#STEPSTYPE:dance-single;
#DESCRIPTION:;
#CHARTSTYLE:;
#DIFFICULTY:Easy;
#METER:5;
#RADARVALUES:0.219443,0.224518,0.157238,0.084667,0.000000,107.000000,13.000000,7.000000,0.000000,0.000000,0.000000,0.000000,0.000000,0.219443,0.224518,0.157238,0.084667,0.000000,107.000000,13.000000,7.000000,0.000000,0.000000,0.000000,0.000000,0.000000;
#CREDIT:;
#NOTES:
0000
0000
0000
0000
,
0000
0000
0000
0000
,
0000
0000
0000
0000
,
0000
0000
0000
0000
,
0010
0000
1000
0000
,
0100
1000
0001
0100
,
0010
0000
0100
0000
,
0001
0010
0100
1000
,
0010
0000
1000
0000
,
0001
0010
0100
1000
,
0001
0000
0100
0000
,
0010
0100
0001
1000
,
0100
1000
0100
1000
,
0001
0100
0001
0100
,
0010
1000
0010
0000
,
0001
0010
0001
0010
,
0000
0010
0000
0100
,
0200
0000
0000
0310
,
0110
0100
0001
1000
,
0200
0001
1000
0001
,
1300
0010
0100
0001
,
0020
0001
0230
1000
,
0310
0001
0100
0010
,
2000
0010
0001
0010
,
3100
0010
0001
0010
,
0200
0001
0320
1000
,
0031
1000
0001
1001
,
0010
0100
0110
0110
,
0010
1000
0010
1010
,
0100
0001
0101
0101
,
0001
1000
0001
1001
,
0100
0010
0110
0110
,
0100
1000
0100
1100
,
0001
0010
0011
0011
;

//---------------dance-single - ----------------
#NOTEDATA:;
#CHARTNAME:;
#STEPSTYPE:dance-single;
#DESCRIPTION:;
#CHARTSTYLE:;
#DIFFICULTY:Medium;
#METER:7;
#RADARVALUES:0.269552,0.265340,0.084667,0.060476,0.072572,144.000000,7.000000,5.000000,0.000000,0.000000,0.000000,0.000000,0.000000,0.269552,0.265340,0.084667,0.060476,0.072572,144.000000,7.000000,5.000000,0.000000,0.000000,0.000000,0.000000,0.000000;
#CREDIT:;
#NOTES:
0000
0000
0000
0000
,
0000
0000
0000
0000
,
0000
0000
0000
0000
,
0000
0000
0000
0000
,
0010
1000
0100
0010
,
0001
0010
0001
0000
1000
0100
1000
0000
,
0010
0100
1000
0100
,
0010
0001
0010
0000
0100
0001
0100
0000
,
0010
1000
0100
0010
,
0001
0010
0001
0000
0100
0010
0100
0000
,
0001
0010
0100
1000
,
0100
0001
0100
0000
0010
1000
0010
0000
,
0100
0000
1000
0100
1000
0000
0010
0000
,
0100
0000
0001
0010
0001
0000
0100
0000
,
0010
0000
1000
0001
1000
0000
0100
0000
,
0010
0000
0100
0010
0100
0000
1100
0000
,
1000
1001
0001
0101
,
0200
0000
0000
0000
0010
0000
0000
0000
0010
0000
0000
0000
0310
0000
0000
0110
,
0000
0000
0000
0000
0100
0000
0000
0000
0001
0000
0000
0000
1000
0000
0000
0100
,
0000
0200
0000
0000
0000
0000
0000
0010
0000
0320
0000
0000
0000
0000
0000
0130
,
0000
1000
0010
0100
,
0001
0000
0010
0001
0010
0000
0100
1000
,
0100
0000
0000
0000
1000
0000
0000
0000
0010
0000
0000
0000
0100
0000
0000
0001
,
0000
0002
0000
0000
0000
0000
0000
2003
0000
0000
0000
0000
0010
0000
0000
0000
,
3010
0000
0000
0000
0100
0000
0000
0000
0001
0000
0000
0000
0010
0000
0000
0001
,
0000
0001
0010
0000
0100
1000
0100
0000
,
0010
0000
0001
0100
1000
0000
0100
0000
,
0010
0000
1000
0001
0010
0000
0100
0000
,
1000
0000
0000
0000
0010
0000
1000
0000
0001
0000
0000
0000
0010
0000
0000
0100
,
0000
0100
0010
0000
0001
0000
1001
0000
,
0010
0000
0100
0001
1000
0000
0100
0000
,
0010
0000
0001
0010
1000
0000
0010
0000
,
0001
0000
0000
0000
1000
0000
0010
0000
0100
0000
0000
0000
0001
0000
0000
1000
,
0000
1000
0100
0000
0110
0000
1001
0000
;

//---------------dance-single - ----------------
#NOTEDATA:;
#CHARTNAME:;
#STEPSTYPE:dance-single;
#DESCRIPTION:;
#CHARTSTYLE:;
#DIFFICULTY:Hard;
#METER:11;
#RADARVALUES:0.366314,0.346983,0.241905,0.000000,0.308429,192.000000,20.000000,0.000000,0.000000,0.000000,0.000000,0.000000,0.000000,0.366314,0.346983,0.241905,0.000000,0.308429,192.000000,20.000000,0.000000,0.000000,0.000000,0.000000,0.000000,0.000000;
#CREDIT:;
#NOTES:
// measure 0
0000
0000
0000
0000
,  // measure 1
0000
0000
0000
0000
,  // measure 2
0000
0000
0000
0000
,  // measure 3
0000
0000
0000
0000
,  // measure 4
0010
0000
1000
0000
0010
1000
0000
0000
0001
0000
0010
0000
0001
0010
0000
0100
,  // measure 5
0000
0000
1000
0000
0100
1000
0000
0000
0001
0000
0100
0000
0001
0100
0000
0010
,  // measure 6
0000
0000
0100
0000
0001
1000
0000
0000
0001
0000
0010
0000
0100
1000
0000
0010
,  // measure 7
0000
0000
1000
0000
0100
0010
0000
0000
0100
0000
1000
0000
0010
0100
0000
0001
,  // measure 8
0000
0000
1000
0000
0001
1000
0000
0000
0001
0000
0010
0000
0001
0010
0000
0100
,  // measure 9
0000
0000
1000
0000
0100
1000
0000
0000
0010
0000
0100
0000
0010
0100
0000
0001
,  // measure 10
0000
0000
1000
0000
0001
1000
0000
0000
0100
0000
0010
0000
0100
0010
0000
0001
,  // measure 11
0000
0000
0010
0000
0001
0010
0000
0000
0100
0000
1000
0000
0100
1000
0000
0001
,  // measure 12
0000
0000
1000
0000
0100
0000
1000
0000
0010
0000
0000
0000
0010
0000
0100
0010
,  // measure 13
0000
0000
0100
0000
0001
0000
0100
0000
0010
0000
0000
0000
1000
0000
0100
1000
,  // measure 14
0000
0000
0001
0000
0100
0000
0000
0000
0001
0000
1000
0000
0100
1000
0000
0100
,  // measure 15
0000
0000
0010
0000
0001
0010
0000
0001
0000
0000
0000
0000
0011
0000
0000
0000
,  // measure 16
0000
1100
0000
1001
,  // measure 17
0001
0000
0010
0000
1000
0000
0100
0000
0001
0000
0010
0000
0100
0000
0000
1001
,  // measure 18
0000
0000
0001
0000
0010
0000
0100
0000
1000
0000
0010
0000
0100
0000
0000
1000
,  // measure 19
0000
0010
0000
0000
0000
0000
0000
0001
0000
0100
0000
0000
0000
0000
0000
0010
,  // measure 20
0000
0000
1000
0000
0100
0000
1000
0000
0001
0000
0100
0000
0010
0000
0000
0010
,  // measure 21
0000
0000
0100
0000
0001
0000
0000
0001
0000
0000
1000
0000
0100
0000
0000
1000
,  // measure 22
0000
0000
0100
0000
0010
0001
0000
0010
0000
0100
0000
1000
0000
0000
0000
0010
,  // measure 23
0000
0100
0000
0000
0000
0000
0000
0001
0000
0000
1000
0000
0100
0000
0010
0001
,  // measure 24
0000
0000
0010
0000
0100
0000
1000
0000
0010
0000
0100
0000
0001
0000
0000
0010
,  // measure 25
0000
0000
0010
0000
0001
0000
0000
1000
0000
0000
1000
0000
0010
0000
0000
0000
,  // measure 26
0100
0000
0101
1000
0100
0000
0011
0000
,  // measure 27
0100
0000
0110
0001
1000
0000
1010
0000
,  // measure 28
0010
0000
0000
0000
0101
0000
0001
0000
0010
0000
0000
0000
0100
0000
0000
1001
,  // measure 29
0000
0010
0100
0001
1001
0000
0110
0000
,  // measure 30
0010
0000
0011
0100
1000
0000
1010
0000
,  // measure 31
0010
0000
0101
1000
0100
0000
0011
0000
,  // measure 32
0100
0000
0000
0000
1001
0000
0010
0000
0100
0000
0000
0000
0101
0000
0000
1000
,  // measure 33
0000
0010
0100
0001
1001
0000
0110
0000
;

//---------------dance-single - ----------------
#NOTEDATA:;
#CHARTNAME:;
#STEPSTYPE:dance-single;
#DESCRIPTION:;
#CHARTSTYLE:;
#DIFFICULTY:Challenge;
#METER:13;
#RADARVALUES:0.573661,0.615724,0.520096,0.096762,0.689430,281.000000,43.000000,8.000000,0.000000,0.000000,0.000000,0.000000,0.000000,0.573661,0.615724,0.520096,0.096762,0.689430,281.000000,43.000000,8.000000,0.000000,0.000000,0.000000,0.000000,0.000000;
#CREDIT:;
#NOTES:
0000
0000
0000
0000
,
0000
0000
0000
0000
,
0000
0000
0000
0000
,
0000
0000
0000
0000
0000
0000
0000
0000
0000
0000
0000
0000
0010
0100
0000
0100
,
0001
0000
0010
0000
0100
0010
0000
0000
0001
0000
1000
0000
0010
1000
0000
0010
,
0100
0010
0100
0001
0000
0010
0000
0001
0000
1000
0010
0000
0100
0010
0000
1000
,
0000
0000
0001
0000
0010
0100
0000
0000
1000
0000
1000
0000
0001
1000
0001
0100
,
0000
0010
0000
1000
0000
0000
0001
0000
0010
0000
0100
0000
0010
0000
0001
1000
,
0000
1000
0010
0000
0100
0010
0000
0000
0010
0000
1000
0001
0010
0001
0000
0011
,
0000
0110
0000
1100
0000
1010
0000
0010
0100
0000
0000
0000
0100
0001
0000
0001
,
1000
0000
0100
0000
0010
0100
0000
0000
1000
0000
0100
0000
0001
0100
0000
1100
,
0000
1010
0000
0110
0000
0101
0000
0001
1000
0000
0001
0000
0011
0000
0010
0100
,
0000
0010
0100
0000
0110
0000
0100
0000
1100
0000
1000
0001
1000
0000
0001
0200
,
0000
1300
0100
0000
0010
0000
1000
0000
0001
0000
0010
0000
0011
0000
0010
0100
,
0000
0100
1000
0000
1000
0001
0000
0020
0000
0000
0130
0000
0100
0010
0000
0010
,
0001
0000
0001
0000
0100
0001
1000
1010
0000
0000
0000
0000
0010
0100
0000
0101
,
0000
0000
0000
0000
0001
0010
0000
0110
0000
0000
0000
0000
0010
0100
0000
0100
,
1000
0000
0100
0000
1000
0000
0100
0000
1000
0000
0100
0000
0010
0000
0001
0000
0010
0000
0001
0000
0010
0000
0001
0000
1000
0000
0001
0000
1000
0000
0001
0000
1000
0000
0001
0000
0100
0000
0000
0010
0000
0000
0000
0000
0000
0120
0000
0000
,
0000
0000
1030
0000
0010
1000
0000
1000
0001
0000
0010
0000
0100
0000
0010
0100
,
0010
0001
0000
0000
1001
0000
1000
0010
0100
0010
0000
0000
1010
0000
0010
1000
,
0000
1000
0001
0000
0010
0000
0100
0000
0110
0000
0100
0000
1000
1000
0000
0001
,
0000
0000
0100
0000
0001
0001
0000
0010
0000
0000
0100
0000
0010
0001
0000
0101
,
0000
0000
0001
1000
0001
0010
0000
0110
0000
1100
0000
1001
0000
0000
0001
0100
,
0000
0100
0010
0000
1000
0000
0001
2000
0000
0000
3010
0000
1000
0000
0100
0010
,
0000
0010
0100
0000
1000
0000
0001
0000
0100
0000
0010
0000
1000
1000
0000
0001
,
0000
0001
0100
0000
0001
0001
0000
0010
0000
0000
0100
0100
0010
0000
0010
0010
,
0001
0000
1000
0000
1001
0000
1000
0000
1010
0000
0010
0000
0110
0000
0100
0002
,
0000
0000
1003
0000
1001
0000
1000
0000
1000
0100
0000
0010
0000
0100
0000
1000
,
0000
0001
1000
0000
1010
0000
0010
0000
0110
0000
0100
0000
0101
0000
0001
1000
,
0000
0100
0110
0010
0011
0001
1001
1000
,
1020
0000
0100
0000
0001
0000
0130
0000
0110
0000
0100
0000
0101
0000
0001
2000
,
0000
0000
3100
0000
1100
0000
0100
0000
0120
0000
0000
0000
0031
0000
0010
0001
,
0000
0001
0100
0000
0110
0000
0010
0000
1010
0000
1000
0000
1001
0000
0001
0010
,
0000
0000
0100
0000
0110
0000
0100
0000
0100
1000
0100
0000
1000
0001
1000
1001
;
