#VERSION:0.81;
#TITLE:23 (feat. Miley Cyrus, Wiz Khalifa, & Juicy J.);
#SUBTITLE:;
#ARTIST:Mike Will Made-It;
#TITLETRANSLIT:;
#SUBTITLETRANSLIT:;
#ARTISTTRANSLIT:;
#GENRE:Rap;
#ORIGIN:;
#CREDIT:;
#BANNER:23.png;
#BACKGROUND:23-bg.png;
#PREVIEWVID:;
#JACKET:23-jacket.png;
#CDIMAGE:;
#DISCIMAGE:;
#LYRICSPATH:;
#CDTITLE:;
#MUSIC:23.mp3;
#OFFSET:-0.394178;
#SAMPLESTART:14.080004;
#SAMPLELENGTH:15.000000;
#SELECTABLE:YES;
#BPMS:0.000=70.000;
#STOPS:;
#DELAYS:;
#WARPS:;
#TIMESIGNATURES:0.000=4=4;
#TICKCOUNTS:0.000=4;
#COMBOS:0.000=1;
#SPEEDS:0.000=1.000=0.000=0;
#SCROLLS:0.000=1.000;
#FAKES:;
#LABELS:0.000=Song Start;
#BGCHANGES:-0.250=23.avi=1.000=0=0=1=====,
99999=-nosongbg-=1.000=0=0=0 // don't automatically add -songbackground-
;
#KEYSOUNDS:;
#ATTACKS:
;

//---------------dance-single - ----------------
#NOTEDATA:;
#CHARTNAME:;
#STEPSTYPE:dance-single;
#DESCRIPTION:;
#CHARTSTYLE:;
#DIFFICULTY:Easy;
#METER:4;
#RADARVALUES:0.202266,0.230172,0.371001,0.015143,0.000000,136.000000,49.000000,2.000000,0.000000,0.000000,0.000000,0.000000,0.000000,0.202266,0.230172,0.371001,0.015143,0.000000,136.000000,49.000000,2.000000,0.000000,0.000000,0.000000,0.000000,0.000000;
#CREDIT:;
#NOTES:
0000
0000
0000
0000
,
0000
0000
0000
0000
,
0000
0000
0000
0000
,
0000
0000
0000
0000
,
0110
0100
1000
0001
,
1001
0001
0100
0010
,
0110
0010
1000
0001
,
1001
0001
0010
0100
,
0110
0010
0100
1000
,
0010
0100
0001
1000
,
1001
0001
0010
0100
,
1000
0010
0100
0001
,
0011
0010
0100
1000
,
0001
0100
1000
0100
,
0110
0010
1000
0001
,
0010
0100
1000
0001
,
0101
0101
1010
1010
,
1100
1100
0011
0011
,
1001
1001
0110
0110
,
1010
0101
0011
1100
,
1001
0001
0100
1000
,
1001
0001
0010
0100
,
0110
0100
0001
1000
,
1001
1000
0100
0010
,
0110
0100
1000
0001
,
0100
0010
1000
0001
,
1001
0001
0010
0100
,
0010
0001
1000
0010
,
0100
0100
0001
1000
,
0100
0100
1000
0001
,
0020
0130
0010
0110
,
0010
0001
0100
0010
,
1010
1010
0101
0101
,
0011
0011
1100
1100
,
1001
1001
0110
0110
,
1010
0101
0011
1100
,
1001
0001
0100
0010
,
0110
0100
0001
2000
,
3000
0000
0000
0000
;

//---------------dance-single - ----------------
#NOTEDATA:;
#CHARTNAME:;
#STEPSTYPE:dance-single;
#DESCRIPTION:;
#CHARTSTYLE:;
#DIFFICULTY:Beginner;
#METER:1;
#RADARVALUES:0.075715,0.071456,0.000000,0.015143,0.000000,68.000000,0.000000,2.000000,0.000000,0.000000,0.000000,0.000000,0.000000,0.075715,0.071456,0.000000,0.015143,0.000000,68.000000,0.000000,2.000000,0.000000,0.000000,0.000000,0.000000,0.000000;
#CREDIT:;
#NOTES:
0000
0000
0000
0000
,
0000
0000
0000
0000
,
0000
0000
0000
0000
,
0000
0000
0000
0000
,
0000
1000
0000
1000
,
0000
0001
0000
0001
,
0000
0010
0000
0010
,
0000
0100
0000
0100
,
0000
1000
0000
0001
,
0000
1000
0000
0001
,
0000
0100
0000
0010
,
0000
0100
0000
0010
,
0000
1000
0000
1000
,
0000
0001
0000
0001
,
0000
0010
0000
0010
,
0000
0100
0000
0100
,
0000
1000
0000
0010
,
0000
1000
0000
0010
,
0000
0100
0000
0001
,
0000
0100
0000
0001
,
0000
0010
0000
0010
,
0000
0100
0000
0100
,
0000
1000
0000
1000
,
0000
0001
0000
0001
,
0000
0100
0000
0010
,
0000
0100
0000
0010
,
0000
1000
0000
0001
,
0000
1000
0000
0001
,
0020
0000
0000
0130
,
0000
0001
0000
0001
,
2000
3000
0000
1000
,
0000
0100
0000
0100
,
0000
0010
0000
0100
,
0000
0010
0000
0100
,
0000
1000
0000
0001
,
0000
1000
0000
0001
,
0000
0100
0000
0100
,
0000
0010
0000
0010
;

//---------------dance-single - ----------------
#NOTEDATA:;
#CHARTNAME:;
#STEPSTYPE:dance-single;
#DESCRIPTION:;
#CHARTSTYLE:;
#DIFFICULTY:Medium;
#METER:6;
#RADARVALUES:0.254185,0.215786,0.000000,0.022714,0.000000,232.000000,0.000000,3.000000,0.000000,0.000000,0.000000,0.000000,0.000000,0.254185,0.215786,0.000000,0.022714,0.000000,232.000000,0.000000,3.000000,0.000000,0.000000,0.000000,0.000000,0.000000;
#CREDIT:;
#NOTES:
0000
0000
0000
0000
,
0000
0000
0000
0000
,
0000
0000
0000
0000
,
0000
0000
0000
0000
0001
0100
0001
0010
,
0000
0100
1000
0100
1000
0001
0001
0100
,
0000
0010
1000
0010
1000
0001
0001
0010
,
0000
0100
1000
0100
0001
0100
0100
1000
,
0000
0010
1000
0010
0001
0010
0010
1000
,
0000
0001
0100
1000
0000
0001
0100
1000
,
0000
0001
0100
1000
0000
0001
0010
0100
,
0000
1000
0100
0001
0000
1000
0100
0001
,
0000
1000
0100
0001
0000
1000
0010
0100
,
0000
0010
1000
0010
0000
1000
0001
1000
,
0000
0001
0010
0010
0000
0100
0010
0100
,
0000
1000
0100
0001
0000
0100
0010
0001
,
0000
1000
1000
0010
0100
0001
2000
3001
,
1000
1000
1000
0100
0001
0001
0001
0000
,
1000
1000
1000
0010
0001
0001
0001
0000
,
0010
0010
0010
0100
0001
0001
0001
0000
,
0010
0010
0010
0100
1000
0001
1000
0010
,
0000
0100
0001
0100
0001
1000
1000
0100
,
0000
0010
0001
0010
0001
1000
1000
0010
,
0000
0100
0001
0100
1000
0100
0100
0001
,
0000
0010
0001
0010
1000
0010
0010
0001
,
0000
1000
0010
0001
0000
1000
0010
0001
,
0000
1000
0010
0001
0000
1000
0100
0010
,
0000
0001
0100
1000
0000
0001
0100
1000
,
0000
0001
0100
1000
0000
0001
0010
0100
,
0001
1000
0001
0000
1000
0100
1000
0000
,
0100
0010
0100
0000
0010
0001
0010
0000
,
0002
0000
1003
0001
1000
0001
0001
0100
,
0000
0010
0010
1000
0001
0010
0100
0010
,
0100
0100
0100
1000
0010
0010
0010
0000
,
0100
0100
0100
0001
0010
0010
0010
0000
,
0001
0001
0001
1000
0100
0100
0100
0000
,
1000
1000
1000
0001
0100
0010
1000
0001
,
0000
0010
0001
0010
0001
1000
1000
0010
,
0000
0100
0001
0100
0001
1000
1000
0200
,
0310
0000
0000
0000
;

//---------------dance-single - ----------------
#NOTEDATA:;
#CHARTNAME:;
#STEPSTYPE:dance-single;
#DESCRIPTION:;
#CHARTSTYLE:;
#DIFFICULTY:Hard;
#METER:14;
#RADARVALUES:0.660880,0.719288,0.704145,0.159001,0.836646,497.000000,93.000000,21.000000,0.000000,0.000000,0.000000,0.000000,0.000000,0.660880,0.719288,0.704145,0.159001,0.836646,497.000000,93.000000,21.000000,0.000000,0.000000,0.000000,0.000000,0.000000;
#CREDIT:;
#NOTES:
0000
0000
0000
0000
,
0000
0000
0000
0000
,
0000
0000
0000
0000
,
0000
0000
0000
0000
1000
0001
0010
0210
,
1300
0000
0000
0000
0100
0000
0010
0000
0100
0000
0000
0000
1000
0000
0100
0000
0001
0000
0000
0000
0100
0000
0010
0000
0001
0000
0000
0000
1001
0000
0001
1000
,
0010
0000
0000
0000
0010
0100
0000
0000
0110
0000
0000
0000
0100
0001
0000
0000
1001
0000
0000
0000
1000
0000
0100
0000
0010
0000
0000
0000
0110
0000
0100
1000
,
0001
0000
0000
0000
0100
0010
0000
0000
0110
0000
0000
0000
0010
1000
0000
0000
1001
0000
0000
0000
0001
0000
0010
0000
1000
0000
0000
0000
0110
0000
0100
1000
,
0010
0000
0000
0000
0100
0010
0000
0000
0110
0000
0000
0000
0010
1000
0000
0000
1001
0000
0000
0000
0001
0000
0010
0000
0100
0000
0100
0000
1000
0001
1000
0000
,
0010
0000
0100
0000
0102
0010
0103
0001
1000
0000
0100
0000
2100
0010
3100
1000
,
0001
0000
0010
0000
0012
0100
0013
0001
1000
0000
0010
1000
0100
0001
1000
0010
,
0010
0000
0001
0000
0012
0100
0013
0001
1000
0000
0100
0000
2100
0010
3100
1000
,
0001
0000
0100
0000
0100
0000
0000
0000
0120
0000
1000
0000
0130
0000
0010
0000
0100
0000
0100
0000
0001
0000
1000
0000
0100
0000
0010
0000
0100
0010
0100
0000
,
1000
0000
0001
0100
1000
0100
0001
0010
0010
0000
0100
1000
0001
1000
0010
0100
,
0100
0000
0001
0100
0010
0000
1000
0000
1100
0000
0100
0010
0100
1000
0001
0100
,
0100
0010
1000
0001
0010
0100
1000
0000
0001
0000
0100
0001
0100
0000
0010
0000
,
1010
0000
0000
0000
1100
0000
0000
0000
0101
0000
0000
0000
1001
0000
0000
0000
1000
0010
0000
0000
0010
0001
0000
0000
0002
0000
0103
0000
0001
1000
0001
0000
,
1001
0000
1000
0000
1100
0000
0100
0000
0110
0000
0100
0000
1000
0001
1000
0000
1001
0000
0001
0000
0101
0000
0100
0000
0120
0000
1030
0010
0100
0000
0001
0000
,
0101
0000
0001
0000
1001
0000
1000
0000
1100
0000
0100
0000
0110
0000
0010
0000
0011
0000
0001
0000
1001
0000
1000
0000
1020
0000
0130
0010
1000
0000
0010
0000
,
0110
0000
0100
0000
0101
0000
0001
0000
1001
0000
0001
0000
0100
1000
0100
0000
1100
0000
0100
0000
0110
0000
0010
0000
1010
0000
0000
0000
1000
0000
0001
0000
,
0011
0000
0000
0000
0010
0000
0000
0000
0110
0000
0000
0000
0100
0000
0000
0000
0101
0000
0000
0000
0001
0000
0000
0000
1001
0000
0000
0000
1000
0000
0000
0000
1010
0000
0000
0000
0010
0000
0100
0000
0010
0000
0000
0000
0100
0000
0000
0000
1000
0000
0001
1000
0001
0000
1000
0000
0020
0000
0000
0000
0000
0000
0000
0000
,
0130
0000
0000
0000
0010
0000
1000
0000
0101
0000
0000
0000
0010
0000
0001
0000
1100
0000
0000
0000
1000
0000
0001
0000
0110
0000
0000
0000
1001
0000
0001
0100
,
0010
0000
0000
0000
0010
1000
0000
0000
0101
0000
0000
0000
0001
0100
0000
0000
1010
0000
0000
0000
1000
0000
0001
0000
0010
0000
0000
0000
0100
0000
0010
0100
,
0010
0000
0000
0000
0001
0010
0000
0000
1100
0000
0000
0000
0001
0010
0000
0000
1100
0000
0000
0000
1000
0000
0001
0000
0100
0000
0010
0000
0100
0000
0010
1000
,
0001
0000
0000
0000
0010
0001
0000
0000
1100
0000
0000
0000
1000
0010
0000
0000
0101
0000
0000
0000
0001
0000
1000
0000
0100
0000
0100
0000
0010
0100
0010
0000
,
0001
0000
0100
0000
0012
0100
0013
0001
1000
0000
0010
0000
2010
0100
3010
1000
,
0001
0000
0100
0000
0102
0010
0103
0001
1000
0000
0001
0100
1000
0100
0001
0010
,
0010
0000
0000
0000
0100
0000
0000
0000
2100
0000
0010
0000
3100
1000
0001
0100
0010
1000
0001
0010
0100
0000
1000
0000
2010
0000
0100
0000
3010
0000
1000
0000
,
0001
0001
0010
0000
0210
1000
0310
0100
1000
1000
0001
0100
0010
0010
1000
0010
,
0110
0100
0001
0100
0001
0000
1000
0000
0100
0010
0100
0010
0011
0000
0001
0000
,
1000
0010
0001
0010
1000
0000
0001
0000
1000
0100
0001
0100
0101
0000
1100
0000
,
1020
0000
0000
0030
0101
0000
0001
0000
1000
0100
0001
0100
0110
0010
0001
0000
,
1000
0000
0000
0000
0010
0000
1000
0000
0001
0000
0100
0000
0010
0000
1000
0000
0001
0000
0010
0000
0100
0000
0100
0000
1000
0000
1000
0000
0001
1000
0001
0000
,
1001
0000
0001
0000
0101
0000
0100
0000
0110
0000
0010
0000
1000
0010
1000
0010
0100
0001
0100
0001
1000
0001
1000
0000
0200
0000
0310
0100
1000
0000
0001
0000
,
1001
0000
0001
0000
0101
0000
0100
0000
0110
0000
0010
0000
1010
0000
1000
0000
1100
0000
0100
0000
0101
0000
0100
0000
2000
0000
3010
1000
0001
0000
0010
0000
,
0110
0100
1100
1000
1001
0001
0100
0010
1010
1000
1001
0001
0011
0000
0010
0100
,
1100
0000
0000
0000
1000
0000
0000
0000
1010
0000
0000
0000
0010
0000
0000
0000
0011
0000
0000
0000
0001
0000
0000
0000
1001
0000
0000
0000
1000
0000
0000
0000
1100
0000
0000
0000
0100
0000
0010
0000
0100
0000
0000
0000
0001
0000
0000
0000
1000
0000
0001
1000
0001
0000
1000
0000
0010
0000
0100
0000
0010
0000
0100
0000
,
0101
0000
0000
0000
0001
0000
1000
0000
0100
0000
0000
0000
1000
0000
0001
0000
0100
0000
0000
0000
0010
0000
1000
0000
0101
0000
0000
0000
0011
0000
0010
0100
,
0010
0000
0000
0000
0100
0010
0000
0000
0110
0000
0000
0000
0100
1000
0000
0000
1001
0000
0000
0000
0001
0000
0100
0000
0010
0000
0010
0000
1000
0001
2000
0000
,
3100
0000
0000
0000
;
