#VERSION:0.83;
#TITLE:unravel;
#SUBTITLE:;
#ARTIST:TK from 凛として時雨;
#TITLETRANSLIT:;
#SUBTITLETRANSLIT:;
#ARTISTTRANSLIT:TK from Ling Tosite Sigure;
#GENRE:;
#ORIGIN:;
#CREDIT:caramelangel714;
#BANNER:unravel.png;
#BACKGROUND:unravel-bg.png;
#PREVIEWVID:;
#JACKET:unravel-jacket.png;
#CDIMAGE:;
#DISCIMAGE:;
#LYRICSPATH:;
#CDTITLE:;
#MUSIC:unravel.mp3;
#OFFSET:1.020001;
#SAMPLESTART:54.899975;
#SAMPLELENGTH:12.000000;
#SELECTABLE:YES;
#BPMS:0.000=134.240,
16.000=134.880;
#STOPS:16.000=2.000;
#DELAYS:;
#WARPS:;
#TIMESIGNATURES:0.000=4=4;
#TICKCOUNTS:0.000=4;
#COMBOS:0.000=1;
#SPEEDS:0.000=1.000=0.000=0;
#SCROLLS:0.000=1.000;
#FAKES:;
#LABELS:0.000=Song Start;
#BGCHANGES:2.583=unravel.avi=1.000=0=0=0=StretchNoLoop====,
99999=-nosongbg-=1.000=0=0=0 // don't automatically add -songbackground-
;
#KEYSOUNDS:;
#ATTACKS:
;

//---------------dance-single - ----------------
#NOTEDATA:;
#CHARTNAME:;
#STEPSTYPE:dance-single;
#DESCRIPTION:;
#CHARTSTYLE:;
#DIFFICULTY:Beginner;
#METER:1;
#RADARVALUES:0.101124,0.174203,0.099544,0.165907,0.005530,64.000000,55.000000,9.000000,15.000000,0.000000,0.000000,0.000000,0.000000,0.000000,0.101124,0.174203,0.099544,0.165907,0.005530,64.000000,55.000000,9.000000,15.000000,0.000000,0.000000,0.000000,0.000000,0.000000;
#CREDIT:;
#NOTES:
// measure 0
0000
0000
0000
0000
,  // measure 1
0000
0000
0000
0000
,  // measure 2
0000
0000
0000
0000
,  // measure 3
0000
0000
0000
0000
,  // measure 4
0000
1000
0000
0000
0000
0000
0000
0000
0000
0000
0000
0000
0000
0000
0000
0000
0000
0000
0000
0000
0000
0000
0000
0000
0000
0000
0000
0000
0000
0000
0000
0000
,  // measure 5
0001
0000
0000
0000
,  // measure 6
0100
0000
0000
0100
,  // measure 7
0000
0000
0000
0000
,  // measure 8
0001
0000
0010
0000
,  // measure 9
1000
0000
0010
0000
,  // measure 10
0001
0000
1000
0000
,  // measure 11
1001
0000
0000
0000
,  // measure 12
0100
0000
0100
0001
,  // measure 13
0100
0000
0010
0000
,  // measure 14
1000
0000
0100
0000
,  // measure 15
0110
0000
0000
0000
,  // measure 16
0110
0000
0000
0000
,  // measure 17
0000
0000
0000
0000
,  // measure 18
0000
0000
0000
0000
,  // measure 19
0000
0000
0000
0000
,  // measure 20
0000
0000
0000
0000
,  // measure 21
0000
0000
0000
0000
,  // measure 22
1000
0000
0000
0000
,  // measure 23
0110
0000
0000
0000
,  // measure 24
0000
0000
0000
0000
,  // measure 25
0100
0000
0000
0000
,  // measure 26
0000
0000
0010
0000
,  // measure 27
0100
0000
0100
0000
,  // measure 28
0001
0000
0001
0000
,  // measure 29
1000
0000
1000
0000
,  // measure 30
0100
0000
0100
0000
,  // measure 31
0220
0000
0330
0000
,  // measure 32
2000
0000
3002
0000
,  // measure 33
0203
0000
0000
0000
,  // measure 34
0320
0000
2030
0000
,  // measure 35
3001
0000
0000
0000
,  // measure 36
1000
0000
0100
0010
,  // measure 37
0001
0000
0000
0000
,  // measure 38
1001
0000
0110
0000
,  // measure 39
2002
0000
3003
0000
,  // measure 40
0200
0000
0320
0000
,  // measure 41
2030
0000
0000
0000
,  // measure 42
3002
0000
0203
0000
,  // measure 43
0320
0000
0000
0000
,  // measure 44
1030
0000
0100
0000
,  // measure 45
1010
0000
0000
0000
;

//---------------dance-single - ----------------
#NOTEDATA:;
#CHARTNAME:;
#STEPSTYPE:dance-single;
#DESCRIPTION:;
#CHARTSTYLE:;
#DIFFICULTY:Easy;
#METER:3;
#RADARVALUES:0.181708,0.285913,0.143786,0.066363,0.005530,115.000000,102.000000,13.000000,6.000000,0.000000,0.000000,0.000000,0.000000,0.000000,0.181708,0.285913,0.143786,0.066363,0.005530,115.000000,102.000000,13.000000,6.000000,0.000000,0.000000,0.000000,0.000000,0.000000;
#CREDIT:;
#NOTES:
0000
0000
0000
0000
,
0000
0000
0000
0000
,
0000
0000
0000
0000
,
0000
0000
0000
0000
,
0000
1001
0000
0000
0000
0000
0000
0000
0000
0000
0000
0000
0000
0000
0000
0000
0000
0000
0000
0000
0000
0000
0000
0000
0000
0000
0000
0000
0000
0000
0000
0000
,
0100
0000
0010
0000
,
0001
0000
0000
0010
,
0000
0000
0100
0000
,
1000
0000
0000
0000
,
0001
0000
0000
0000
,
1001
0000
0000
0000
0100
0000
0000
0010
,
0000
0000
0000
0000
,
1001
0000
0000
0000
,
0110
0000
0000
0000
,
0100
0000
0000
0000
,
0110
0000
1010
0000
,
0110
0000
0000
0000
,
1000
0010
0001
0010
,
1000
1000
0001
0001
,
0100
0010
0001
0010
,
0100
0100
0010
0010
,
1000
0100
0010
0100
,
1000
0000
0000
0000
,
1001
0000
0000
0010
0000
0000
0000
0000
,
0100
0000
0000
0010
0000
0000
0000
0000
,
1000
0000
0000
0100
0000
0000
0000
0000
,
0001
0000
0000
0100
0000
0000
0000
0000
,
0100
0010
0100
0001
,
0100
0010
0100
0001
,
0010
0100
1000
0001
,
1001
0000
0000
0000
,
0200
0000
0320
0000
,
0032
0000
2003
0000
,
3100
0000
0010
0000
,
0100
0000
0001
0000
,
0010
0100
1000
0100
,
0010
0000
0000
0001
0000
0100
0000
0010
,
0000
0000
1001
0000
,
1000
0000
0100
0000
,
0110
0001
0100
0010
,
0100
0010
1000
0010
,
1010
0100
0010
0100
,
0001
0100
0010
0100
,
0001
0100
0010
0100
,
0010
0000
0000
0010
0000
0100
0000
2020
,
0000
0000
0000
0000
,
0000
0000
0000
0000
,
3030
0000
0000
0000
;

//---------------dance-single - ----------------
#NOTEDATA:;
#CHARTNAME:;
#STEPSTYPE:dance-single;
#DESCRIPTION:;
#CHARTSTYLE:;
#DIFFICULTY:Medium;
#METER:7;
#RADARVALUES:0.309693,0.415874,0.243331,0.132726,0.022121,196.000000,174.000000,22.000000,12.000000,0.000000,0.000000,0.000000,0.000000,0.000000,0.309693,0.415874,0.243331,0.132726,0.022121,196.000000,174.000000,22.000000,12.000000,0.000000,0.000000,0.000000,0.000000,0.000000;
#CREDIT:;
#NOTES:
0000
0000
0000
0000
,
0000
0000
0000
0000
,
0000
0000
0000
0000
,
0000
0000
0000
0000
,
0000
0110
0000
0000
0000
0000
0000
0000
0001
0000
0000
0000
0010
0000
0000
0000
0000
0000
0000
0000
1000
0000
0000
0000
0100
0000
0000
0000
0000
0000
0000
0000
,
0110
0000
0000
1001
0000
0000
0000
0100
,
0010
0000
0010
0100
0000
0001
0100
0000
,
1010
0000
0101
0000
,
1000
0000
0010
0000
0100
0010
0000
0000
,
0010
0000
0100
0000
0001
0000
0100
1000
,
0010
0000
0000
0100
0001
0000
0000
0110
,
0010
0000
0000
0000
0010
0000
0000
1000
,
0001
0000
0000
0010
0000
0000
0100
0000
,
1001
0000
0000
1001
0000
0000
0000
0000
,
1000
0000
0000
0010
0000
0000
0001
0000
,
1001
0000
0000
1000
0000
0000
0000
0000
1001
0000
0000
0001
0000
0000
0000
0000
,
0220
0000
0330
0000
,
1000
0001
0100
0001
,
0001
0100
0001
0000
0010
0000
0010
0000
,
1000
0010
1000
0000
0100
0000
0100
0000
,
0010
0100
0010
0000
1000
0000
1000
0000
,
0001
0100
0001
0000
0001
0000
0001
0000
,
2002
0000
3003
0000
,
1001
0000
0000
1010
0000
0000
0000
0000
,
1001
0000
0000
0101
0000
0000
0000
0000
,
0100
0000
0000
0010
0000
0100
0000
0010
,
0000
0000
0000
1001
0000
0000
0000
0000
,
1000
0010
1000
0000
0001
0100
0001
0000
,
0010
1000
0010
0000
0100
0001
0100
0000
,
0010
0000
0100
0000
0010
0000
0000
0000
0010
0000
0000
0010
0000
0000
0010
0000
,
0000
0000
0000
0000
,
1000
0010
0100
0010
0001
0000
0001
0000
,
0010
0100
0010
0001
0010
0000
0010
0000
,
1000
0100
1000
0010
0100
0000
0100
0000
,
0100
0010
0100
0001
0010
0000
1000
0000
,
0010
0001
0010
0001
1000
0000
0010
0000
,
0100
0010
0100
0010
1000
0000
0001
0000
,
0200
0301
0002
1003
,
1000
0010
1000
0000
0100
0000
0100
0000
,
2010
0000
3010
0000
0001
0100
0001
0100
,
0102
0000
0103
0000
0010
0100
0010
0100
,
0120
0000
0130
0000
1000
0010
1000
0010
,
2010
0000
3010
0000
0100
0001
0100
0001
,
0100
0000
0100
0010
0100
0000
0000
1000
,
0010
0000
0000
0100
0000
0010
0000
2002
,
0000
0000
0000
0000
,
0000
0000
0000
0000
,
3003
0000
0000
0000
;

//---------------dance-single - ----------------
#NOTEDATA:;
#CHARTNAME:;
#STEPSTYPE:dance-single;
#DESCRIPTION:;
#CHARTSTYLE:;
#DIFFICULTY:Hard;
#METER:9;
#RADARVALUES:0.415558,0.493850,0.287572,0.188028,0.165907,263.000000,237.000000,26.000000,17.000000,0.000000,0.000000,0.000000,0.000000,0.000000,0.415558,0.493850,0.287572,0.188028,0.165907,263.000000,237.000000,26.000000,17.000000,0.000000,0.000000,0.000000,0.000000,0.000000;
#CREDIT:;
#NOTES:
0000
0000
0000
0000
,
0000
0000
0000
0000
,
0000
0000
0000
0000
,
0000
0000
0000
0000
,
0000
1001
0000
0000
0000
0000
0000
0000
1000
0000
0000
0000
0001
0000
0000
0000
0000
0000
0000
0000
0010
0000
0000
0000
0100
0000
0000
0000
0000
0000
0000
0000
,
0110
0000
1000
0000
0010
0000
1000
0001
,
0010
0000
0100
0010
0000
0010
0100
0000
,
1001
0000
0010
0000
0001
0000
0010
1000
,
0020
0000
0230
0000
1300
0100
0000
0001
,
0000
0010
0000
0001
0000
0010
0000
1000
,
1001
0000
1000
0010
0100
0000
0010
0100
,
0001
0000
1000
0000
0010
0000
1000
0100
,
0010
0000
0100
0010
0000
0010
1000
0000
,
1001
0000
1000
0000
1010
0000
0001
0001
,
1000
0000
0010
0100
0000
0100
0010
0000
,
1100
0000
0000
1000
0000
0001
1000
0000
1000
0000
0000
0001
0000
1000
0001
0000
,
0001
0000
0000
0010
0000
0000
0001
0000
1000
0000
0000
0010
0000
0000
0100
0000
,
0010
0100
0000
0001
0000
1000
0010
0000
0100
0010
0000
0000
1001
0000
0000
0000
,
0100
0010
0000
0001
2000
0000
0000
0000
3001
0000
1000
0000
0001
0000
1000
0000
,
0001
1000
0000
0010
0200
0000
0000
0000
0310
0000
0100
0000
0010
0000
0100
0000
,
0010
0100
0000
1000
0002
0000
0000
0000
1003
0000
0001
0000
1000
0000
0001
0000
,
1000
0001
0000
0010
0200
0000
0000
0000
0310
0000
0100
0000
0010
0000
0100
0000
,
0010
0000
0000
1000
0000
0000
0010
0000
0001
0000
0000
0010
0000
0000
0001
0000
,
1000
0000
0000
1000
0000
0000
1001
0000
0000
0000
0000
0000
0100
0000
0010
0000
,
0100
0000
0000
0100
0000
0000
0110
0000
0000
0000
0000
0000
0000
0000
1000
0000
,
1000
0001
0000
0001
0000
1000
0000
1010
,
0000
0000
0000
0202
0000
0303
0000
1000
,
0010
0000
0100
0010
0000
0000
1000
0000
0010
0000
0100
0010
0000
0000
0001
0000
,
1000
0000
0001
1000
0000
0000
0010
0000
1000
0000
1000
0001
0000
0000
0100
0000
,
0001
0000
0100
0001
0000
0000
0010
0000
0100
0000
0000
0001
0000
0000
0010
0000
,
0000
0000
0000
0000
0000
0000
1000
0010
,
2000
0000
3001
0010
0002
0000
0103
0010
,
0100
0000
0010
0100
1000
0000
0010
0100
,
0020
0000
1030
0100
2000
0000
3001
0010
,
0002
0000
0103
0010
0100
0000
0001
0010
,
0002
0000
1003
0010
2000
0000
3010
0100
,
0010
0000
0001
0001
0000
1000
0000
1100
,
0000
0000
1000
0010
1000
0010
0100
0001
,
0101
0000
0000
0011
0000
0000
1010
0000
0000
0000
1100
0000
0000
0000
1000
0000
,
0010
0100
0001
0010
0001
1000
0010
0100
,
0110
1010
1100
1001
,
0010
0001
0010
1000
0010
0100
0010
0100
,
1001
0000
0110
0000
1010
0000
0101
0001
,
0100
0000
0001
1000
0001
0000
0000
1000
,
1000
0000
0001
0010
0000
0100
0000
2002
,
0000
0000
0000
0000
,
0000
0000
0000
0000
,
3003
0000
0000
0000
;

//---------------pnm-five - ----------------
#NOTEDATA:;
#CHARTNAME:;
#STEPSTYPE:pnm-five;
#DESCRIPTION:;
#CHARTSTYLE:;
#DIFFICULTY:Hard;
#METER:11;
#RADARVALUES:0.630447,0.805756,0.984383,0.099544,0.447949,399.000000,306.000000,89.000000,9.000000,0.000000,4.000000,0.000000,0.000000,0.000000,0.630447,0.805756,0.984383,0.099544,0.447949,399.000000,306.000000,89.000000,9.000000,0.000000,4.000000,0.000000,0.000000,0.000000;
#CREDIT:;
#NOTES:
00000
00000
00000
00000
,
00000
00000
00000
00000
,
00000
00000
00000
00000
,
00000
00000
00000
00000
,
00000
00110
00000
00000
00000
00000
00000
00000
10000
00000
00000
00000
00010
00000
00000
00000
00000
00000
00000
00000
00010
00000
00000
00000
10010
00000
00000
00000
00000
00000
00000
00000
,
10000
01000
00100
00010
00000
00000
00000
01000
,
01010
00000
00001
10100
00000
10000
01010
00000
,
00100
01000
10000
01000
00100
00010
00000
10100
,
10100
00000
01010
00000
00101
00101
00000
01010
,
00000
00100
00000
01010
00000
00100
00000
10000
,
00010
00000
00000
00010
01000
00000
01000
00010
,
10000
01000
00100
01000
10000
01000
00000
01010
,
01010
00000
00101
00101
00000
10100
10100
00000
,
01000
00010
00100
01000
10000
00100
00000
00010
,
01010
00000
01100
01100
00000
10010
10010
00000
,
10000
00000
00000
01001
00000
00000
10000
01000
00001
00100
00000
00001
00000
00000
10000
00001
,
01000
00100
01000
00100
00000
00001
01000
00000
10000
00010
10000
00010
00000
00010
01000
00000
,
00001
01000
00001
01000
00000
00000
01000
00001
10000
00010
01000
00100
02020
00000
03030
00000
,
10000
00100
00000
00010
01000
00000
00000
00000
10000
00100
10000
00010
10000
00100
10000
00001
,
00010
01000
00000
01000
00010
00000
00000
00000
00001
10000
01000
10000
00001
01000
00100
01000
,
10000
00010
00000
00010
10000
00000
00000
00000
10000
00001
10000
00010
10000
00100
10000
01000
,
10000
00001
00000
00001
10000
00000
00000
00000
01000
00100
01000
00001
01000
00100
10000
00010
,
01000
00100
00000
00010
00000
00000
01000
00000
01000
00010
00000
10110
00000
00000
01100
00000
,
01001
00000
00000
01001
00000
00000
01001
00000
00000
00000
00000
00000
01000
00000
00100
00000
,
00101
00000
00000
00101
00000
00000
00101
00000
00000
00000
01000
00000
00010
00000
10000
00000
,
01000
00000
00000
00010
00000
00000
01001
00000
00000
00000
01010
00000
00000
00000
20202
00000
,
00000
00000
30303
01010
00000
00000
00000
10000
,
00010
00000
01000
00010
01000
10000
00010
01000
00100
00000
00010
10000
01000
00100
10000
00100
,
00001
00000
10000
00010
01000
00100
10000
00010
01000
00000
00001
10000
01000
00100
10000
00001
,
00100
00000
00001
10000
01000
00100
10000
00010
01001
00000
00010
01001
00000
00100
01010
00000
,
00000
00000
00000
00000
00000
00000
00000
00000
10000
00010
10000
00010
10000
00010
10000
00000
,
11010
00000
00000
00101
00000
00000
10001
00000
10001
00000
00000
10100
00000
00000
01010
00000
,
00000
00000
10010
00000
00000
00000
10101
00000
00000
00010
00001
00000
00000
00000
00000
00000
,
01100
00000
00001
10010
00000
00000
01010
00000
00000
00000
01010
00000
00000
00000
10000
00000
,
01010
00000
01000
10100
00000
00000
00110
00000
00000
00000
00110
00000
00000
00000
10000
00000
,
00010
00000
00010
01000
00000
00000
10010
00000
00000
00000
10100
00000
00001
00000
10000
00000
,
01010
00100
00010
00001
00000
10100
00000
11000
,
00000
00000
10000
01000
10000
01000
10000
01000
,
00101
00000
00000
00101
00000
00000
10100
00000
00000
00000
10100
00000
00000
00000
10000
00000
,
01010
00000
10000
01000
10000
00000
01010
00000
01100
00000
00010
01000
00010
00000
10100
00000
,
11000
00000
00100
01000
00100
00000
10010
00000
10010
00000
10100
00000
10100
00000
01010
00000
,
00101
00000
10000
00100
10000
00000
01010
00000
01010
00000
00100
01000
00100
00000
01010
00000
,
01010
00000
00001
10000
00001
00000
10100
00000
00000
00000
10100
00000
00000
00000
00010
00000
,
10000
01000
00100
00010
20002
00000
30003
01010
,
01010
00000
10100
10100
00000
01010
00000
00202
,
00000
00000
00000
00000
,
00000
00000
00000
00000
,
00303
00000
00000
00000
;

//---------------pnm-five - ----------------
#NOTEDATA:;
#CHARTNAME:;
#STEPSTYPE:pnm-five;
#DESCRIPTION:;
#CHARTSTYLE:;
#DIFFICULTY:Beginner;
#METER:1;
#RADARVALUES:0.154847,0.285913,0.188028,0.033181,0.005530,98.000000,77.000000,17.000000,3.000000,0.000000,4.000000,0.000000,0.000000,0.000000,0.154847,0.285913,0.188028,0.033181,0.005530,98.000000,77.000000,17.000000,3.000000,0.000000,4.000000,0.000000,0.000000,0.000000;
#CREDIT:;
#NOTES:
00000
00000
00000
00000
,
00000
00000
00000
00000
,
00000
00000
00000
00000
,
00000
00000
00000
00000
,
00000
10001
00000
00000
00000
00000
00000
00000
00000
00000
00000
00000
00000
00000
00000
00000
00000
00000
00000
00000
00000
00000
00000
00000
00000
00000
00000
00000
00000
00000
00000
00000
,
01010
00000
00000
00000
,
10010
00000
00000
00000
,
01001
00000
00000
00000
,
10000
00000
01000
00000
,
10000
00000
01000
00000
,
01010
00000
00000
00000
,
01001
00000
00000
00000
,
00100
00000
10000
00000
,
00100
00000
00000
00000
,
01000
00000
00010
00000
,
10101
00000
10101
00000
,
00001
00000
00001
00000
,
10000
00000
10000
00000
,
01000
00010
01000
00000
,
00010
01000
00010
00000
,
01000
00100
01000
00000
,
00010
00100
00010
00000
,
10010
00000
00000
00000
,
10000
00000
00000
00000
,
00100
00000
00000
00000
,
01000
00000
00000
00000
,
00010
00000
00000
00000
,
00100
00000
00100
00000
,
01000
00000
01000
00000
,
10000
00000
10000
00000
,
10001
00000
00000
00000
,
00100
00000
10000
00000
,
00100
00000
10000
00000
,
01000
00000
00010
00000
,
01000
00000
00010
00000
,
00100
00000
10000
00000
,
00100
00000
00001
00000
,
10101
00000
00000
00000
,
10000
00000
10001
00000
,
10000
01000
00100
00000
,
00001
00010
00100
00000
,
01000
00100
01000
00000
,
00010
01000
00010
00000
,
10001
00000
10001
00000
,
10100
00000
01010
00000
,
20202
00000
00000
00000
,
00000
00000
00000
00000
,
30303
00000
00000
00000
;

//---------------pnm-five - ----------------
#NOTEDATA:;
#CHARTNAME:;
#STEPSTYPE:pnm-five;
#DESCRIPTION:;
#CHARTSTYLE:;
#DIFFICULTY:Easy;
#METER:3;
#RADARVALUES:0.233850,0.389882,0.265451,0.110605,0.005530,148.000000,122.000000,24.000000,10.000000,0.000000,2.000000,0.000000,0.000000,0.000000,0.233850,0.389882,0.265451,0.110605,0.005530,148.000000,122.000000,24.000000,10.000000,0.000000,2.000000,0.000000,0.000000,0.000000;
#CREDIT:;
#NOTES:
00000
00000
00000
00000
,
00000
00000
00000
00000
,
00000
00000
00000
00000
,
00000
00000
00000
00000
,
00000
10001
00000
00000
00000
00000
00000
00000
00000
00000
00000
00000
00010
00000
00000
00000
00000
00000
00000
00000
00000
00000
00000
00000
01000
00000
00000
00000
00000
00000
00000
00000
,
00000
00000
00000
00000
,
01010
00000
00000
10000
00000
00000
00100
00000
,
00000
00000
00000
00000
,
10000
01000
00100
00000
,
00001
00010
00100
00000
,
10001
00000
01010
00000
,
00100
00000
00000
00000
,
00100
00000
00000
10000
00000
00000
00100
00000
,
00000
00000
00000
00000
,
01000
00000
00000
10000
00000
00000
00001
00000
,
10100
00000
00101
00000
,
00001
10000
00001
10000
,
00100
00100
00100
00000
,
02000
03010
01000
01000
,
00020
01030
00010
00010
,
20000
30100
00100
00100
,
00002
00103
00100
00100
,
10000
00010
10000
00010
,
10000
00000
00000
00010
00000
00000
00000
00000
,
00100
00000
00000
01000
00000
00000
00000
00000
,
00001
00000
00000
10000
00000
00000
00000
00000
,
10010
00000
00000
10001
00000
00000
00000
00000
,
00100
10000
00100
10000
,
01000
00010
01000
00010
,
00001
00100
00001
00100
,
10101
00000
00002
10003
,
00100
00100
10000
10000
,
00100
00100
10000
01000
,
00001
00010
00100
00010
,
00010
01000
00010
01000
,
10100
10100
10100
00000
,
00100
00000
00001
00100
,
11000
00000
00000
00000
,
10000
01000
00001
01000
,
00010
01010
00010
01010
,
00001
10001
00001
10001
,
00100
10100
00100
10100
,
01000
01010
01000
01010
,
10001
01010
00100
00000
,
20000
30000
02000
03000
,
20202
00000
00000
00000
,
00000
00000
00000
00000
,
30303
00000
00000
00000
;

//---------------pnm-five - ----------------
#NOTEDATA:;
#CHARTNAME:;
#STEPSTYPE:pnm-five;
#DESCRIPTION:;
#CHARTSTYLE:;
#DIFFICULTY:Medium;
#METER:8;
#RADARVALUES:0.443999,0.623811,0.486661,0.110605,0.165907,281.000000,234.000000,44.000000,10.000000,0.000000,3.000000,0.000000,0.000000,0.000000,0.443999,0.623811,0.486661,0.110605,0.165907,281.000000,234.000000,44.000000,10.000000,0.000000,3.000000,0.000000,0.000000,0.000000;
#CREDIT:;
#NOTES:
00000
00000
00000
00000
,
00000
00000
00000
00000
,
00000
00000
00000
00000
,
00000
00000
00000
00000
,
00000
10100
00000
00000
00000
00000
00000
00000
10000
00000
00000
00000
00010
00000
00000
00000
00000
00000
00000
00000
00010
00000
00000
00000
10000
00000
00000
00000
00000
00000
00000
00000
,
00000
00000
00000
00000
00000
00000
00000
00001
,
00010
00000
10000
01000
00000
10000
00100
00000
,
00000
00000
00000
00000
00000
00000
00000
00010
,
00100
00000
01000
00000
10000
10000
00000
01000
,
00000
00100
00000
00010
00000
00001
00000
10100
,
10100
00000
00000
00010
01000
00000
01000
00010
,
00000
00000
00000
00000
00000
00000
00000
10000
,
00100
00000
00001
00100
00000
10000
00100
00000
,
00000
00000
00000
00000
00000
00000
00000
00100
,
01000
00000
10000
00100
00000
00010
10000
00000
,
10000
01000
00001
00100
00001
00100
00001
10000
,
01001
01001
01001
00100
10010
10010
10010
01000
,
00001
01000
00001
01000
00001
00000
02020
03030
,
10000
00100
00000
00001
00010
00000
00000
00000
10000
00000
00100
00000
00001
00000
00100
00000
,
10000
00010
00000
00001
00010
00000
00000
00000
00001
00000
01000
00000
00001
00000
01000
00000
,
10000
00010
00000
00010
10000
00000
00000
00000
00100
00000
10000
00000
00010
00000
00100
00000
,
10000
00001
00000
00001
10000
00000
00000
00000
00001
00000
00100
00000
00001
00000
00100
00000
,
00001
00000
00000
00010
00000
00000
01000
00000
01000
00000
00000
00010
00000
00000
01100
00000
,
01010
00000
00000
01010
00000
00000
01010
00000
00000
00000
00000
00000
10000
00000
01000
00000
,
00101
00000
00000
00101
00000
00000
00101
00000
00000
00000
00000
00000
00000
00000
10000
00000
,
01000
00000
00000
00010
00000
00000
01001
00000
00000
00000
01010
00000
00000
00000
20202
00000
,
00000
00000
30303
01010
00000
00000
00000
10000
,
00010
00000
01000
00010
01000
00000
01000
00000
00100
00000
00010
10000
00010
00000
00010
00000
,
00001
00000
10000
00010
01000
00000
01000
00000
01000
00000
00001
10000
01000
00000
10000
00000
,
00100
00000
00001
00100
10000
00000
10000
00000
00001
00000
10000
00100
00001
00000
00010
00000
,
10101
00000
00000
00000
00000
00000
00000
00000
10000
00100
10000
00100
10000
00100
10000
00100
,
10000
00000
00000
00101
00000
00000
10001
00000
10001
00000
00000
10100
00000
00000
01010
00000
,
00000
00000
10010
00000
00000
00000
10101
00000
00000
00010
00001
00000
00000
00000
00000
00000
,
01100
00000
00000
01010
00000
00000
01010
00000
00000
00000
01010
00000
00000
00000
10000
00000
,
00010
00000
00000
00001
00000
00000
00010
00000
00000
00000
00010
00000
00000
00000
10000
00000
,
00010
00010
01000
10010
00000
10000
00001
10000
,
01020
00000
01030
00001
00000
00100
00000
10100
,
00000
10000
10000
10000
,
00101
00000
00000
00101
00000
00000
10100
00000
00000
00000
10100
00000
00000
00000
10000
00000
,
00010
00010
10000
00010
00010
00010
00010
00100
,
01000
00100
00100
10000
00010
10000
00100
01010
,
00101
10000
10000
00010
01000
00100
10000
00010
,
01000
00001
00001
10000
00000
00100
00000
00010
,
10000
01000
00100
00010
20002
00000
30003
01000
,
00010
00000
00001
00010
00000
00100
00000
00202
,
00000
00000
00000
00000
,
00000
00000
00000
00000
,
00303
00000
00000
00000
;

//---------------pnm-nine - ----------------
#NOTEDATA:;
#CHARTNAME:;
#STEPSTYPE:pnm-nine;
#DESCRIPTION:;
#CHARTSTYLE:;
#DIFFICULTY:Beginner;
#METER:1;
#RADARVALUES:0.164327,0.285913,0.254391,0.033181,0.005530,104.000000,77.000000,23.000000,3.000000,0.000000,4.000000,0.000000,0.000000,0.000000,0.164327,0.285913,0.254391,0.033181,0.005530,104.000000,77.000000,23.000000,3.000000,0.000000,4.000000,0.000000,0.000000,0.000000;
#CREDIT:;
#NOTES:
000000000
000000000
000000000
000000000
,
000000000
000000000
000000000
000000000
,
000000000
000000000
000000000
000000000
,
000000000
000000000
000000000
000000000
,
000000000
100010000
000000000
000000000
000000000
000000000
000000000
000000000
000000000
000000000
000000000
000000000
000000000
000000000
000000000
000000000
000000000
000000000
000000000
000000000
000000000
000000000
000000000
000000000
000000000
000000000
000000000
000000000
000000000
000000000
000000000
000000000
,
010100000
000000000
000000000
000000000
,
100100000
000000000
000000000
000000000
,
001010000
000000000
000000000
000000000
,
000000001
000000000
000000010
000000000
,
000000001
000000000
000000100
000000000
,
010100000
000000000
000000000
000000000
,
000010010
000000000
000000000
000000000
,
000000100
000000000
000010000
000000000
,
001000000
000000000
000000000
000000000
,
010000000
000000000
000100000
000000000
,
101010000
000000000
101010000
000000000
,
000000100
000000000
000000100
000000000
,
000000010
000000000
000001000
000000000
,
000000100
000001000
000000100
000000000
,
000001000
000000100
000001000
000000000
,
000001000
000000100
000000100
000000000
,
000000100
000000010
000000100
000000000
,
000001010
000000000
000000000
000000000
,
000000010
000000000
000000000
000000000
,
000001000
000000000
000000000
000000000
,
000100000
000000000
000000000
000000000
,
000001000
000000000
000000000
000000000
,
000000100
000000000
000000100
000000000
,
010000010
000000000
010000010
000000000
,
000000010
000000000
000000010
000000000
,
000011000
000000000
000000000
000000000
,
001000100
000000000
100000001
000000000
,
001000100
000000000
100100000
000000000
,
010100000
000000000
000100000
000000000
,
000000100
000000000
000100000
000000000
,
001000000
000000000
100000000
000000000
,
001000000
000000000
000010000
000000000
,
000010101
000000000
000000000
000000000
,
000010000
000000000
000000100
000000000
,
000000100
000010000
000001000
000000000
,
000001000
000000100
000000010
000000000
,
000001000
000000100
000010000
000000000
,
000001000
000000100
000000010
000000000
,
101000000
000000000
101000000
000000000
,
000001010
000000000
010100000
000000000
,
202020000
000000000
000000000
000000000
,
000000000
000000000
000000000
000000000
,
303030000
000000000
000000000
000000000
;

//---------------pnm-nine - ----------------
#NOTEDATA:;
#CHARTNAME:;
#STEPSTYPE:pnm-nine;
#DESCRIPTION:;
#CHARTSTYLE:;
#DIFFICULTY:Easy;
#METER:3;
#RADARVALUES:0.255971,0.389882,0.387117,0.143786,0.005530,162.000000,122.000000,35.000000,13.000000,0.000000,6.000000,0.000000,0.000000,0.000000,0.255971,0.389882,0.387117,0.143786,0.005530,162.000000,122.000000,35.000000,13.000000,0.000000,6.000000,0.000000,0.000000,0.000000;
#CREDIT:;
#NOTES:
000000000
000000000
000000000
000000000
,
000000000
000000000
000000000
000000000
,
000000000
000000000
000000000
000000000
,
000000000
000000000
000000000
000000000
,
000000000
100010100
000000000
000000000
000000000
000000000
000000000
000000000
000000000
000000000
000000000
000000000
000100100
000000000
000000000
000000000
000000000
000000000
000000000
000000000
000000000
000000000
000000000
000000000
010000010
000000000
000000000
000000000
000000000
000000000
000000000
000000000
,
000000000
000000000
000000000
000000000
,
000001010
000000000
000000000
000001010
000000000
000000000
001001000
000000000
,
000000000
000000000
000000000
000000000
,
000100000
000000100
000000001
000000000
,
000000010
000010000
000100000
000000000
,
001010000
000000000
000010100
000000000
,
000001010
000000000
000000000
000000000
,
000000100
000000000
000000000
000001000
000000000
000000000
000000100
000000000
,
000000000
000000000
000000000
000000000
,
000000100
000000000
000000000
000000010
000000000
000000000
000000001
000000000
,
101010000
000000000
001010001
000000000
,
000010000
100000000
010000000
000100000
,
001000000
001000000
001000000
000000000
,
000000020
000100030
010000000
010000000
,
000200000
010300000
000000010
000000010
,
200000000
301000000
000000100
000000100
,
000020000
000030100
000000100
000000100
,
100000000
001000000
000000001
000000100
,
100000000
000000000
000000000
010000000
000000000
000000000
000000000
000000000
,
000000100
000000000
000000000
000000010
000000000
000000000
000000000
000000000
,
010000000
000000000
000000000
100000000
000000000
000000000
000000000
000000000
,
000000101
000000000
000000000
100010000
000000000
000000000
000000000
000000000
,
000001000
000000100
000001000
000000100
,
000001000
000010000
000001000
000010000
,
000100000
001000000
000100000
001000000
,
101010000
000000000
000000202
000010303
,
001000000
000001000
100000000
000001000
,
001000000
000010000
100000000
000001000
,
000010000
000100000
001000000
000100000
,
000010000
000000010
000000100
000001000
,
101000000
101000000
101000000
000000000
,
001000001
000000000
000010000
001000000
,
110000000
000000000
000000000
000000000
,
010000000
010000000
011000000
011000000
,
000100000
000100000
001100000
001100000
,
000010000
000010000
000110000
000110000
,
000000100
000000100
000000110
000000110
,
000000001
000000001
000000011
000000011
,
100010000
010100000
001000000
000000000
,
200000002
300000003
020000020
030000030
,
002020200
000000000
000000000
000000000
,
000000000
000000000
000000000
000000000
,
003030300
000000000
000000000
000000000
;

//---------------pnm-nine - ----------------
#NOTEDATA:;
#CHARTNAME:;
#STEPSTYPE:pnm-nine;
#DESCRIPTION:;
#CHARTSTYLE:;
#DIFFICULTY:Medium;
#METER:8;
#RADARVALUES:0.469280,0.649803,0.652568,0.110605,0.165907,297.000000,234.000000,59.000000,10.000000,0.000000,4.000000,0.000000,0.000000,0.000000,0.469280,0.649803,0.652568,0.110605,0.165907,297.000000,234.000000,59.000000,10.000000,0.000000,4.000000,0.000000,0.000000,0.000000;
#CREDIT:;
#NOTES:
000000000
000000000
000000000
000000000
,
000000000
000000000
000000000
000000000
,
000000000
000000000
000000000
000000000
,
000000000
000000000
000000000
000000000
,
000000000
101000100
000000000
000000000
000000000
000000000
000000000
000000000
000000010
000000000
000000000
000000000
000000001
000000000
000000000
000000000
000000000
000000000
000000000
000000000
000000001
000000000
000000000
000000000
000000010
000000000
000000000
000000000
000000000
000000000
000000000
000000000
,
000000000
000000000
000000000
000000000
000000000
000000000
000000000
000001000
,
000010000
000000000
100000000
010000000
000000000
000100000
001000000
000000000
,
000000000
000000000
000000000
000000000
000000000
000000000
000000000
000100010
,
001000001
000000000
010000010
000000000
100000100
100000100
000000000
010000000
,
000000000
001000000
000000000
000100000
000000000
000010000
000000000
000000110
,
000000110
000000000
000000000
000100000
010000000
000000000
010000000
000100000
,
000000000
000000000
000000000
000000000
000000000
000000000
000000000
000000100
,
000000010
000000000
000000010
000001000
000000000
000010000
001000000
000000000
,
000000000
000000000
000000000
000000000
000000000
000000000
000000000
000000100
,
000000010
000000000
000000010
000000100
000000000
000100000
100000000
000000000
,
100000000
000001000
000010000
001000000
000010000
001000000
000010000
100000000
,
000010010
000010010
000010010
000001000
100010000
100010000
100010000
001000000
,
000010000
011000000
000010000
011000000
000010000
000000000
000200200
000300300
,
100000000
001000000
000000000
000010000
000001000
000000000
000000000
000000000
100000000
000000000
001000000
000000000
000010000
000000000
001000000
000000000
,
100000000
000100000
000000000
000010000
000001000
000000000
000000000
000000000
000010000
000000000
000100000
000000000
000010000
000000000
001000000
000000000
,
100000000
000100000
000000000
000100000
100000000
000000000
000000000
000000000
001000000
000000000
100000000
000000000
000100000
000000000
001000000
000000000
,
100000000
000010000
000000000
000010000
100000000
000000000
000000000
000000000
000010000
000000000
000000100
000000000
000000010
000000000
000000001
000000000
,
000010000
000000000
000000000
000100000
000000000
000000000
010000000
000000000
010000000
000000000
000000000
000100000
000000000
000000000
011000000
000000000
,
010100000
000000000
000000000
010100000
000000000
000000000
000100100
000000000
000000000
000000000
000000000
000000000
100000000
000000000
010000000
000000000
,
000010000
000000000
000000000
001010000
000000000
000000000
100010000
000000000
000000000
000000000
000000000
000000000
000000000
000000000
000000100
000000000
,
000001000
000000000
000000000
000100000
000000000
000000000
100010000
000000000
000000000
000000000
010100000
000000000
000000000
000000000
202020000
000000000
,
000000000
000000000
303030000
010100000
000000000
000000000
000000000
000000001
,
000000010
000000000
000000100
000100000
010000010
000000000
010000100
000000000
001000100
000000000
000001000
100000000
000100000
000000000
000100000
000000000
,
000010000
000000000
100000000
000100000
010000000
000000000
001000000
000000000
010000000
000000000
000010000
100000000
010000000
000000000
000000100
000000000
,
001000000
000000000
000010000
001000000
100000000
000000000
000000100
000000000
000010001
000000000
100000000
001000000
000010000
000000000
000100000
000000000
,
001010100
000000000
000000000
000000000
000000000
000000000
000000000
000000000
000000001
000000100
000000001
000000100
000000001
000000100
000000001
000000100
,
000000001
000000000
000000000
001010000
000000000
000000000
100010000
000000000
100010000
000000000
000000000
101000000
000000000
000000000
010100000
000000000
,
000000000
000000000
100100000
000000000
000000000
000000000
001010100
000000000
000000000
000100000
000010000
000000000
000000000
000000000
000000000
000000000
,
000001100
000000000
000000000
010100000
000000000
000000000
010100000
000000000
000000000
000000000
010100000
000000000
000000000
000000000
000000010
000000000
,
000000100
000000000
000000000
000010000
000000000
000000000
000100000
000000000
000000000
000000000
000000100
000000000
000000000
000000000
100000000
000000000
,
000100000
000100000
010000000
000100100
000000000
100000000
000010000
100000000
,
010200000
000000000
010300000
000010100
000000000
001001000
000000000
101000000
,
000000000
100000010
100000010
100000010
,
000011000
000000000
000000000
000011000
000000000
000000000
101000000
000000000
000000000
000000000
101000000
000000000
000000000
000000000
100000000
000000000
,
000100000
000100000
100000000
000100000
000001000
000100000
000001000
001000100
,
010000000
000100000
001000000
100010000
000100000
000010000
000001000
000100000
,
001000000
100000000
001000000
000000100
000000010
001000000
100000000
000100000
,
000000100
000010000
000010000
100000000
000000000
000000010
000000000
000001000
,
100000000
010000000
001000000
000100000
200020000
000000000
300030000
010000000
,
000100000
000000000
000000010
000000100
000000000
001000000
000000000
002020000
,
000000000
000000000
000000000
000000000
,
000000000
000000000
000000000
000000000
,
003030000
000000000
000000000
000000000
;

//---------------pnm-nine - ----------------
#NOTEDATA:;
#CHARTNAME:;
#STEPSTYPE:pnm-nine;
#DESCRIPTION:;
#CHARTSTYLE:;
#DIFFICULTY:Hard;
#METER:11;
#RADARVALUES:0.698390,0.831748,1.316197,0.088484,0.453480,442.000000,307.000000,119.000000,8.000000,0.000000,16.000000,0.000000,0.000000,0.000000,0.698390,0.831748,1.316197,0.088484,0.453480,442.000000,307.000000,119.000000,8.000000,0.000000,16.000000,0.000000,0.000000,0.000000;
#CREDIT:;
#NOTES:
000000000
000000000
000000000
000000000
,
000000000
000000000
000000000
000000000
,
000000000
000000000
000000000
000000000
,
000000000
000000000
000000000
000000000
,
000000000
001100000
000000000
000000000
000000000
000000000
000000000
000000000
100000000
000000000
000000000
000000000
000100000
000000000
000000000
000000000
000000000
000000000
000000000
000000000
000100000
000000000
000000000
000000000
100100000
000000000
000000000
000000000
000000000
000000000
000000000
000000000
,
100000001
010000010
001000100
000101000
000000000
000000000
000000000
000000001
,
000000101
000000000
000000010
000010100
000000000
000000100
000010100
000000000
,
001000100
010000010
100000001
010000010
001000100
000101000
000000000
000000101
,
000000101
000000000
010101000
000000000
001010100
001010100
000000000
010100100
,
000000000
001001000
000000000
010101000
000000000
001010000
000000000
000000010
,
000000100
000000000
000000000
000001000
000000100
000000000
000000100
000001000
,
100000001
010000010
001000100
010000010
100000001
010000010
000000000
010100010
,
010100010
000000000
001010100
001010100
000000000
101100000
101100000
000000000
,
000000001
000000010
000000001
000000010
000000100
001000000
000000000
000010000
,
000110000
000000000
001000000
011000000
000000000
000100000
100100000
000000000
,
100000000
000000000
000000000
000110000
000000000
000000000
100000000
010000000
000010000
001000000
000000000
000010000
000000000
000000000
000000100
000010000
,
010000000
001000000
010000000
001000000
000000000
000010000
010000000
000000000
100000000
000100000
100000000
000100000
000000000
000100000
010000000
000000000
,
000010000
010000000
000010000
010000000
000000000
000000000
010000000
000010000
100000000
000100000
010000000
001000000
020200000
000000000
030300000
000000000
,
000000010
000000100
000000000
000001000
000000100
000000000
000000000
000000000
000000001
000000100
000000001
000001000
000000001
000000100
000000001
000010000
,
000100000
010000000
000000000
010000000
000100000
000000000
000000000
000000000
000010000
100000000
010000000
100000000
000010000
010000000
001000000
010000000
,
000000001
000001000
000000000
000001000
000000001
000000000
000000000
000000000
100000000
000010000
100000000
000100000
100000000
001000000
100000000
010000000
,
100000000
000010000
000000000
000010000
100000000
000000000
000000000
000000000
000000010
000000100
000000010
000000100
000001000
000000010
000000100
000000010
,
100000000
001000000
000000000
000100000
000000000
000000000
000000010
000000000
000000010
000101000
000000000
001101000
000000000
000000000
011000000
000000000
,
010100000
000000000
000000000
010100000
000000000
000000000
010100000
000000000
000000000
000000000
000000000
000000000
010000010
000000000
001000100
000000000
,
001000100
000000000
000000000
001010000
000000000
000000000
001010000
000000000
000000000
000000000
010000000
000000000
000100000
000000000
100000000
000000000
,
010000000
000000000
000000000
000100000
000000000
000000000
000010000
000000000
000000000
000000000
000000011
000000000
000000000
000000000
202020000
000000000
,
000000000
000000000
303030000
010100000
000000000
000000000
000000000
100000000
,
000100000
000000000
010000000
000100000
010000000
100000000
000100000
010000000
001000000
000000000
000100000
000000001
000000010
000000100
000000001
000000100
,
000010000
000000000
100000000
000100000
010000000
001000000
100000000
000100000
010000000
000000000
000010000
000000100
000001000
000000010
000000001
000000100
,
000001000
000000000
000010000
100000000
010000000
001000000
100000000
000100000
010010000
000000000
000100000
010010000
000000000
001000000
010100000
000000000
,
000000000
000000000
000000000
000000000
000000000
000000000
000000000
000000000
000000011
000001100
000000011
000001100
000000011
000001100
000000011
000001100
,
000010000
000000000
000000000
001010000
000000000
000000000
100010000
000000000
100010000
000000000
000000000
101000000
000000000
000000000
000100100
000000000
,
000000000
000000000
000000101
000000000
000000000
000000000
000011000
000000000
000000000
000000100
000000010
000000000
000000000
000000000
000000000
000000000
,
000010100
000000000
000010000
100100000
000000000
000000000
010101000
000000000
000000000
000000000
010101000
000000000
000000000
000000000
100000010
000000000
,
000010100
000000000
010000000
101000000
000000000
000000000
000001100
000000000
000000000
000000000
001100000
000000000
000000000
000000000
000000010
000000000
,
000000100
000000000
000000100
010000000
000000000
000000000
100100000
000000000
000000000
000000000
101000000
000000000
000010000
000000000
000000001
000000000
,
000001010
001000000
000100000
000010000
000000000
000001010
000000000
000001100
,
000000000
000000000
100000000
010000000
100000000
010000000
100000000
010000000
,
001010000
000000000
000000000
001010000
000000000
000000000
101000000
000000000
000000000
000000000
101000000
000000000
000000000
000000000
000000001
000000000
,
000000101
000000000
000000001
000000010
000000001
000000000
000001010
000000000
000001100
000000000
000000001
000000010
000000001
000000000
101000000
000000000
,
110000000
000000000
000000100
000000010
000000100
000000000
000101000
000000000
000101000
000000000
101000000
000000000
101000000
000000000
000001010
000000000
,
001010100
000000000
000000001
000000010
000000001
000000000
000001010
000000000
000001010
000000000
000001000
000010000
000001000
000000000
010100000
000000000
,
010100000
000000000
000010000
001000000
000010000
000000000
101000000
000000000
000000000
000000000
101000000
000000000
000000000
000000000
000100001
000000000
,
100000001
010000010
001000100
000101000
000020000
000000000
000030000
000001010
,
000000011
000000000
000101000
001010000
000000000
010100000
000000000
002020000
,
000000000
000000000
000000000
000000000
,
000000000
000000000
000000000
000000000
,
003030000
000000000
000000000
000000000
;
