#VERSION:0.83;
#TITLE:träumerei;
#SUBTITLE:;
#ARTIST:LiSA;
#TITLETRANSLIT:;
#SUBTITLETRANSLIT:;
#ARTISTTRANSLIT:;
#GENRE:;
#ORIGIN:;
#CREDIT:caramelangel714;
#BANNER:traumerei.png;
#BACKGROUND:traumerei-bg.png;
#PREVIEWVID:;
#JACKET:Traumerei-jacket.png;
#CDIMAGE:;
#DISCIMAGE:;
#LYRICSPATH:;
#CDTITLE:;
#MUSIC:Traumerei.mp3;
#OFFSET:-5.439999;
#SAMPLESTART:43.299988;
#SAMPLELENGTH:12.000000;
#SELECTABLE:YES;
#BPMS:0.000=190.000;
#STOPS:;
#DELAYS:;
#WARPS:;
#TIMESIGNATURES:0.000=4=4;
#TICKCOUNTS:0.000=4;
#COMBOS:0.000=1;
#SPEEDS:0.000=1.000=0.000=0;
#SCROLLS:0.000=1.000;
#FAKES:;
#LABELS:0.000=Song Start;
#BGCHANGES:;
#KEYSOUNDS:;
#ATTACKS:
;

//---------------dance-single - ----------------
#NOTEDATA:;
#CHARTNAME:;
#STEPSTYPE:dance-single;
#DESCRIPTION:;
#CHARTSTYLE:;
#DIFFICULTY:Beginner;
#METER:2;
#RADARVALUES:0.186506,0.285924,0.151054,0.237371,0.000000,121.000000,107.000000,14.000000,22.000000,0.000000,0.000000,0.000000,0.000000,0.000000,0.186506,0.285924,0.151054,0.237371,0.000000,121.000000,107.000000,14.000000,22.000000,0.000000,0.000000,0.000000,0.000000,0.000000;
#CREDIT:;
#NOTES:
// measure 0
0000
0000
0000
0000
,  // measure 1
0000
0000
0000
0000
,  // measure 2
0000
0000
0000
0000
,  // measure 3
0000
0000
0000
0000
,  // measure 4
0000
1000
0000
0001
,  // measure 5
0000
1000
0000
0001
,  // measure 6
0000
0100
0000
0010
,  // measure 7
0000
0010
0000
0010
,  // measure 8
0000
1000
0000
0001
,  // measure 9
0000
0001
0000
1000
,  // measure 10
0000
0100
0000
0010
,  // measure 11
0000
0010
0010
0010
,  // measure 12
0000
0100
0000
1000
,  // measure 13
0000
0001
0000
0010
,  // measure 14
0000
0100
0000
0010
,  // measure 15
0000
1000
0000
0001
,  // measure 16
0000
0100
0000
0010
,  // measure 17
0000
0100
0000
0010
,  // measure 18
0000
1000
0000
0001
,  // measure 19
0000
0100
0100
0100
,  // measure 20
2002
0000
3003
0000
,  // measure 21
0220
0000
0330
0000
,  // measure 22
1000
0000
0100
0000
,  // measure 23
0010
0000
0001
0000
,  // measure 24
0220
0000
0330
0000
,  // measure 25
2002
0000
3003
0000
,  // measure 26
0010
0000
0100
0000
,  // measure 27
0002
0000
0000
0000
,  // measure 28
2003
0000
0000
3000
,  // measure 29
0000
0000
0000
0000
,  // measure 30
0000
0110
0000
0110
,  // measure 31
0000
0100
0010
0001
,  // measure 32
0000
0100
0000
0100
,  // measure 33
0000
0001
0000
0100
,  // measure 34
2000
0000
0000
3000
,  // measure 35
0002
0000
0000
0003
,  // measure 36
0200
0000
0000
0300
,  // measure 37
0020
0000
0000
0030
,  // measure 38
0000
1001
0000
1001
,  // measure 39
0000
0010
1000
0010
,  // measure 40
0000
0100
0000
0001
,  // measure 41
0000
0100
0000
0001
,  // measure 42
0002
0000
0000
0003
,  // measure 43
2000
0000
0000
3000
,  // measure 44
0200
0000
0000
0300
,  // measure 45
0020
0000
0000
0030
,  // measure 46
0100
0000
0100
0000
,  // measure 47
0010
0000
0001
0000
,  // measure 48
1000
0000
0010
0000
,  // measure 49
0100
0000
0010
0000
,  // measure 50
0001
0000
1000
0000
,  // measure 51
0010
0000
0110
0000
,  // measure 52
1001
0000
0100
0000
,  // measure 53
0010
0000
0001
0000
,  // measure 54
0000
1001
0000
0110
,  // measure 55
0000
1000
0010
0100
,  // measure 56
0000
0001
0000
0100
,  // measure 57
0000
0010
0000
0100
,  // measure 58
0001
0000
1000
0000
,  // measure 59
0010
0000
0100
0000
,  // measure 60
0010
0000
0100
0000
,  // measure 61
0001
0000
1000
0000
,  // measure 62
2002
0000
0000
0000
,  // measure 63
0000
3003
0000
0220
,  // measure 64
0000
0000
0000
0000
,  // measure 65
0000
0000
0000
0000
,  // measure 66
0000
0330
0000
0000
;

//---------------dance-single - ----------------
#NOTEDATA:;
#CHARTNAME:;
#STEPSTYPE:dance-single;
#DESCRIPTION:;
#CHARTSTYLE:;
#DIFFICULTY:Easy;
#METER:5;
#RADARVALUES:0.275905,0.394629,0.097106,0.118685,0.000000,179.000000,170.000000,9.000000,11.000000,0.000000,0.000000,0.000000,0.000000,0.000000,0.275905,0.394629,0.097106,0.118685,0.000000,179.000000,170.000000,9.000000,11.000000,0.000000,0.000000,0.000000,0.000000,0.000000;
#CREDIT:;
#NOTES:
0000
0000
0000
0000
,
0000
0000
0000
0000
,
0000
0000
0000
0000
,
0000
0000
0000
0000
,
1000
0001
1000
0001
,
0100
0010
0100
0010
,
1001
0100
0010
0001
,
1000
0001
0000
0000
,
0100
0010
0010
1000
,
0010
0001
0100
0010
,
0001
1000
0010
0100
,
0010
0010
0010
0000
,
1001
0100
0010
0100
,
1010
0100
0100
0100
,
0010
0100
0001
0100
,
0001
0010
0000
0000
,
1010
0010
0010
0010
,
0001
0010
1000
0100
,
0010
0100
0010
0100
,
0002
0000
0003
1000
,
1001
0000
0100
0000
,
0010
0000
0001
0000
,
0010
0000
1000
0000
,
0010
0000
0100
0000
,
0010
0100
0010
0001
,
0010
0100
0010
0100
,
1000
0000
0001
0000
,
0002
0000
0000
0000
,
2003
0000
0000
0000
,
3000
0000
0000
0000
,
1000
0100
0010
0001
,
0010
0100
0000
0020
,
0000
0000
0030
0100
,
1000
0001
1000
0001
,
0001
1001
0100
0010
,
0001
1000
0010
0100
,
0010
0000
1000
0000
,
0001
0000
0100
0000
,
0010
0100
1000
0001
,
0010
0100
0000
0020
,
0000
0000
0030
1000
,
0010
0000
0100
0001
,
0101
0000
0000
0010
,
0010
1000
0100
0010
,
0001
0000
0100
0000
,
0010
0000
0100
0100
,
0010
1000
0010
0001
,
0010
0000
0100
0100
,
0010
0100
0001
1000
,
0010
0000
0000
0000
,
1000
0010
0100
0010
,
0001
0000
0000
0000
,
1001
0100
0010
0100
,
0001
0000
0000
0000
,
0010
0100
0001
1000
,
0001
0100
0000
0200
,
0000
0000
0300
0010
,
0001
1000
0001
0100
,
0010
0000
0010
0010
,
0100
0001
0100
1000
,
1001
0000
2000
0000
,
3200
0000
0320
0000
,
0032
0000
0000
0000
,
0000
0000
0000
0000
,
2003
0000
0000
0000
,
0000
0000
0000
0000
,
0000
0000
3000
0000
;

//---------------dance-single - ----------------
#NOTEDATA:;
#CHARTNAME:;
#STEPSTYPE:dance-single;
#DESCRIPTION:;
#CHARTSTYLE:;
#DIFFICULTY:Medium;
#METER:6;
#RADARVALUES:0.360680,0.430504,0.226581,0.172633,0.000000,234.000000,213.000000,21.000000,16.000000,0.000000,0.000000,0.000000,0.000000,0.000000,0.360680,0.430504,0.226581,0.172633,0.000000,234.000000,213.000000,21.000000,16.000000,0.000000,0.000000,0.000000,0.000000,0.000000;
#CREDIT:;
#NOTES:
0000
0000
0000
0000
,
0000
0000
0000
0000
,
0000
0000
0000
0000
,
0000
0000
0000
1000
,
0001
0100
0001
0000
0010
0000
0010
0000
,
0100
0001
0010
0100
,
0010
0001
1000
0000
0100
0000
0010
0000
,
0100
1000
1000
1000
,
1001
0000
0100
0010
0001
0000
0001
0000
,
0100
0010
0100
0010
,
0001
0010
0100
0010
,
0110
0010
0010
1000
,
0100
0001
0100
0000
0010
0000
0010
0000
,
0100
0010
1000
0100
,
0010
0000
0010
0100
0010
0000
0001
0000
,
1010
0100
0010
0010
,
0100
1000
0100
0000
1000
0000
1000
0000
,
0100
0010
0100
0110
,
1000
0010
0100
0010
,
0002
0000
0003
0000
,
1001
0000
0000
0010
0010
0000
0000
0000
,
2001
3000
0120
0030
,
0100
0010
0100
0010
,
0000
0000
0000
1000
,
0010
0000
0010
0001
0000
0000
0000
0000
,
2010
3000
0120
0030
,
0010
0000
0100
0000
0010
0010
0001
0000
,
2000
0001
0000
3001
,
0002
1000
0000
1003
,
1001
0000
0000
0000
,
1000
0010
0100
0001
,
0100
0001
0000
0202
,
0000
0303
0000
1000
,
0010
0100
0000
0010
0000
0100
0000
0110
,
0000
0001
0001
1000
,
0100
0010
0000
0010
0000
1000
0000
0100
,
0010
0000
1001
0000
,
0200
0000
0310
0000
,
1000
0001
0100
0010
,
1000
0001
0000
1001
,
0000
0000
0000
0010
,
1000
0001
0000
0100
0000
0010
0000
0110
,
0000
0001
1000
0010
,
0100
0010
0000
0001
0000
1000
0000
0100
,
0110
0000
1001
0000
,
0110
0000
0000
0000
0100
0000
0010
0001
,
1000
0100
0010
0010
,
0010
0100
0010
0000
1000
0000
0010
0000
,
0100
0000
0010
0000
0100
0000
0010
0001
,
0010
0100
0010
0100
,
0010
1000
0010
0000
0100
0000
0010
0000
,
0100
0001
0100
0010
,
0002
0000
2003
0000
,
3200
0000
0320
0000
,
0031
0100
0010
0001
,
1000
0100
0000
0110
,
0000
0000
0000
0100
,
0001
0010
0000
0100
0000
0010
0000
0110
,
0000
0001
0001
0001
,
0010
0100
0000
0010
0000
0100
0000
0100
,
0010
0010
0001
0001
,
1000
1000
0010
0010
,
0100
0000
0000
0100
0000
0000
0100
0000
,
0000
0100
0000
0000
0100
0000
0000
0000
,
2002
0000
0000
0000
,
0000
0000
0000
0000
,
0000
0000
3003
0000
;

//---------------dance-single - ----------------
#NOTEDATA:;
#CHARTNAME:;
#STEPSTYPE:dance-single;
#DESCRIPTION:;
#CHARTSTYLE:;
#DIFFICULTY:Hard;
#METER:9;
#RADARVALUES:0.514817,0.609881,0.140265,0.097106,0.026974,334.000000,321.000000,13.000000,9.000000,0.000000,0.000000,0.000000,0.000000,0.000000,0.514817,0.609881,0.140265,0.097106,0.026974,334.000000,321.000000,13.000000,9.000000,0.000000,0.000000,0.000000,0.000000,0.000000;
#CREDIT:;
#NOTES:
0000
0000
0000
0000
,
0000
0000
0000
0000
,
0000
0000
0000
0000
,
0000
0000
0000
1000
,
0010
0000
0001
0100
0010
1000
0010
0100
,
0010
0000
0010
0000
0010
1000
0010
0000
,
0100
0001
0010
0100
0001
0010
0100
0001
,
0000
1001
0000
0000
1000
0010
0100
0010
,
0100
0000
0001
1000
0001
0000
1000
0000
,
1000
0100
0010
0100
0001
0100
0001
0000
,
0100
0010
0100
0000
0001
1000
0100
1000
,
0000
0001
0100
0010
0010
0010
0010
0000
,
0010
0000
0100
0010
1000
0010
0100
0000
,
0001
1000
0100
0001
1000
0010
0100
0000
,
0010
0010
1000
0000
0001
0100
0010
0100
,
0000
0001
0000
0000
1000
0010
1000
0000
,
0010
0100
0010
1000
0100
0010
0000
0001
,
0000
1000
0010
0100
0001
0100
0001
0100
,
0000
0010
0100
0000
0001
1000
0010
0100
,
0000
0200
0001
0000
0001
0000
0301
0000
,
1100
0000
0000
0001
0001
0000
0000
0000
,
0001
0100
0010
1000
,
0100
0010
1000
1010
,
2010
0001
3001
0010
,
1000
0000
0010
0100
0010
0000
0001
0000
,
0010
0100
1000
0010
,
1000
0000
0000
0001
0000
0000
0100
0000
0000
0010
0000
0000
0100
0000
0010
0000
,
0020
1000
1000
1000
,
2030
0100
0100
0100
,
3100
0000
0000
0000
,
1010
0100
0010
0100
,
0001
0100
0000
0210
,
0001
0001
0301
0001
,
1000
0000
0000
0001
0000
0000
0100
0000
0000
0000
0010
0000
0000
0000
0010
0000
,
0100
0100
0001
0000
0010
0010
1000
0000
,
0100
0010
0100
0000
0001
1000
0001
0000
,
0100
0010
0100
0010
0001
1000
0001
1000
,
0010
0100
1000
0010
0100
0001
0100
0000
,
1001
0100
0010
1000
,
0001
0010
0000
0200
,
0001
0001
0301
0001
,
1000
0000
0000
0100
0000
0000
0010
0000
0000
0000
0010
0000
0000
0000
1000
0000
,
0010
0001
0100
0000
0010
1000
0100
0000
,
0010
0100
0010
0000
0001
1000
0001
0000
,
1010
0010
0011
0010
,
0110
0000
0110
0001
,
1000
0010
0100
0001
0010
0000
0100
0010
,
1000
0010
0100
0000
0001
1000
0010
0100
,
0010
0000
0001
1000
0010
0100
0001
0000
,
0010
0100
0001
0100
0010
0000
0010
0000
,
1000
0010
0100
0001
0001
0000
0010
0100
,
0001
0010
0100
0000
1000
0010
0100
0001
,
0010
0000
0100
0001
0010
0100
1000
0000
,
0010
0100
0001
1000
0010
0000
0100
0010
,
0010
1000
1010
0100
,
0001
0010
0000
2000
,
0001
0001
0001
3010
,
0010
0000
0000
0001
0000
0000
0100
0000
0000
0000
0100
0000
0000
0000
0010
0000
,
1000
0000
0100
0010
0100
0001
0010
0100
,
0010
0000
1000
0010
0100
0001
0010
0100
,
0010
0100
0010
0000
1000
0010
1000
0000
,
0001
0010
0001
0000
0010
0001
0100
0000
,
1000
0000
0001
1000
0000
0001
1000
0000
,
0001
1000
0000
0001
1000
0000
2002
0000
,
0000
0000
0000
0000
,
0000
0000
0000
0000
,
0000
0000
3003
0000
;

//---------------pnm-five - ----------------
#NOTEDATA:;
#CHARTNAME:;
#STEPSTYPE:pnm-five;
#DESCRIPTION:;
#CHARTSTYLE:;
#DIFFICULTY:Hard;
#METER:10;
#RADARVALUES:0.781474,0.893512,1.273171,0.388425,0.043158,507.000000,379.000000,118.000000,36.000000,0.000000,16.000000,0.000000,0.000000,0.000000,0.781474,0.893512,1.273171,0.388425,0.043158,507.000000,379.000000,118.000000,36.000000,0.000000,16.000000,0.000000,0.000000,0.000000;
#CREDIT:;
#NOTES:
10000
01000
00100
00010
10001
00000
00001
00010
,
00100
01000
10010
00000
01000
00100
00010
01000
,
01010
00000
10000
01000
00100
00010
00001
00000
,
00010
00100
01000
10000
01010
00000
10100
00000
,
01010
00000
10000
00010
00000
00010
01000
10000
,
00100
01010
01010
01010
10100
00000
10100
00000
,
10000
00001
00100
10000
01000
10000
01000
00110
,
00000
20200
00000
30301
00000
10000
00010
00000
,
01010
00000
10000
01010
00000
00010
01000
10000
,
00010
01000
00100
00010
01000
00010
01000
00010
,
10100
10100
20200
00000
30301
00001
01001
01001
,
00000
00010
01000
00010
01100
01100
10001
00000
,
01100
00000
10000
01000
10000
00010
01000
00010
,
00000
00010
01010
01100
10100
11000
01010
01010
,
00000
10010
01001
00100
01000
00010
10000
01100
,
00000
20200
00000
30301
00000
10000
01000
00000
,
01001
00000
01100
01100
10000
01000
00010
10010
,
00000
01010
01000
00100
01000
00010
01000
00100
,
00000
10000
01000
00010
00001
00100
10000
00020
,
00000
10030
10000
10000
10010
10010
10010
10010
,
00002
00000
00000
10000
10003
00000
01000
00000
,
10110
10010
10000
01000
,
00010
00001
01001
02002
,
03003
00010
01000
00010
01000
10000
01000
00100
,
00010
00000
10000
01000
10000
00000
01010
00000
,
00100
01000
00010
01000
00100
01000
00010
01000
,
10100
00000
00000
01010
00000
00000
01001
00000
10100
00000
10100
00000
00000
01010
00000
00000
,
00102
01000
10000
01000
,
10203
01000
00010
00301
,
00011
00010
00100
10000
00000
10100
00000
00000
,
10110
10110
10110
10110
,
01001
02002
03003
01001
,
10000
01000
00100
10000
00000
00010
01000
00000
,
10010
00000
00000
10010
00000
00000
01010
00000
00000
00000
01010
00000
00000
00000
20100
00000
,
00010
01000
00010
01000
30010
00000
10010
00000
,
10100
00000
00000
10100
00000
00000
01010
00000
00000
00000
01010
00000
00000
00000
00101
00000
,
01010
10000
00010
10000
00020
00000
01000
00000
,
20030
00001
30200
00301
,
10110
10110
10110
10110
,
01001
02002
03003
10000
,
00010
01000
00100
10000
00010
00000
10010
00000
,
01001
00000
00000
01001
00000
00000
10100
00000
00000
00000
10100
00000
00000
00000
02010
00000
,
00001
00010
00001
00010
03001
00000
10100
00000
,
01001
00000
00000
01001
00000
00000
01100
00000
00000
00000
01100
00000
00000
00000
10010
00000
,
00102
01000
20003
01000
,
30200
00000
00001
00000
00302
00000
10003
10000
,
01010
00100
10000
00100
20000
00000
30001
00010
,
00100
01000
20000
00000
30100
00010
00100
01000
,
00200
00000
10300
01000
00100
00010
00200
00000
,
00301
00010
00100
01000
02000
00000
13000
01000
,
00100
10000
01000
10000
00100
01000
00010
01000
,
00010
00100
10000
00100
00001
01000
00100
00010
,
10000
00010
01000
00010
01000
00010
01000
10000
,
00001
00100
00001
00100
10000
01000
10000
01000
,
10010
10010
10010
10010
,
00101
00101
00000
00202
,
10000
00000
10303
00000
10000
00100
10000
00100
,
00101
00000
00000
10100
00000
00000
00000
02010
00000
00000
00000
00000
03001
00000
00010
00000
,
10000
00010
10000
00010
00001
00100
00001
00100
,
10000
01000
10000
01000
00010
00100
00010
00100
,
10100
01010
10100
00000
01010
00101
01010
00000
,
01100
00010
01100
00000
00100
11000
00100
00000
,
10000
00100
00010
01000
00100
00001
10000
00100
,
00010
01000
00100
00001
10000
01000
00101
00000
,
20202
00000
00000
00000
,
00000
00000
00000
00000
,
00000
30303
00000
00000
;

//---------------pnm-five - ----------------
#NOTEDATA:;
#CHARTNAME:;
#STEPSTYPE:pnm-five;
#DESCRIPTION:;
#CHARTSTYLE:;
#DIFFICULTY:Beginner;
#METER:2;
#RADARVALUES:0.243536,0.345267,0.258950,0.043158,0.000000,158.000000,134.000000,24.000000,4.000000,0.000000,0.000000,0.000000,0.000000,0.000000,0.243536,0.345267,0.258950,0.043158,0.000000,158.000000,134.000000,24.000000,4.000000,0.000000,0.000000,0.000000,0.000000,0.000000;
#CREDIT:;
#NOTES:
00000
01000
00000
01000
,
00000
01000
00000
01000
,
00000
00010
00000
00010
,
00000
00010
00000
00010
,
10001
00100
00000
00100
,
00000
10000
01000
00100
,
00000
10000
00100
00001
,
00100
00000
00000
00100
,
10001
01000
00000
01000
,
00000
00010
00000
00010
,
10000
01000
00010
00000
,
00000
10000
10010
10010
,
10000
01000
00000
01000
,
00000
00100
00000
00100
,
00000
00001
00100
01000
,
10000
00000
00000
10001
,
00100
00100
00000
00100
,
00000
00001
00000
00001
,
00000
10000
01000
00100
,
01010
00000
01010
00000
,
10000
00000
00100
00000
,
00001
00000
00100
00000
,
01000
00000
00010
00000
,
01000
00000
00010
00000
,
00100
00000
10000
00000
,
00100
00000
00001
00000
,
10001
00000
10001
00000
,
20002
00000
00000
00000
,
30003
00000
00000
00000
,
01010
00000
00000
00000
,
10000
01000
00100
00000
,
10001
00000
00000
00000
,
10000
01000
00100
00000
,
10001
00000
00000
00000
,
00100
01000
00100
00000
,
00010
01000
00010
00000
,
10000
00000
00100
00000
,
00001
00000
01000
00000
,
10000
00100
00001
00000
,
10001
00000
00000
00000
,
10100
00000
00000
00000
,
10000
00001
10000
00000
,
00100
00010
00100
00000
,
00100
00001
00100
00000
,
10010
00000
01001
00000
,
00101
00000
10001
00000
,
00000
00100
00000
01000
,
00000
00100
00000
01000
,
00000
00010
00000
10000
,
00000
00010
00000
10000
,
00000
00010
00000
01000
,
00000
00100
00000
01000
,
00000
00001
00000
10000
,
00000
00010
00000
01000
,
10010
10010
10010
00000
,
00001
00000
01000
00000
,
10001
00000
00000
00000
,
10000
00000
00100
00000
,
10000
00000
00000
00000
,
00001
00000
00100
00000
,
10000
00000
01000
00000
,
00100
00000
00010
00000
,
20002
00000
00000
00000
,
00000
00000
00000
00000
,
30003
00000
00000
00000
;

//---------------pnm-five - ----------------
#NOTEDATA:;
#CHARTNAME:;
#STEPSTYPE:pnm-five;
#DESCRIPTION:;
#CHARTSTYLE:;
#DIFFICULTY:Easy;
#METER:5;
#RADARVALUES:0.369929,0.483373,0.366846,0.140265,0.000000,240.000000,203.000000,34.000000,13.000000,0.000000,3.000000,0.000000,0.000000,0.000000,0.369929,0.483373,0.366846,0.140265,0.000000,240.000000,203.000000,34.000000,13.000000,0.000000,3.000000,0.000000,0.000000,0.000000;
#CREDIT:;
#NOTES:
10000
00000
00000
00010
00000
00000
01000
00000
,
00000
00001
00000
00000
00100
00000
01000
00000
,
10000
00000
00000
00001
00000
00000
00100
00000
,
00000
10000
00000
00000
10000
00000
00010
00000
,
10001
00100
00100
00100
,
00100
01000
00010
01000
,
00010
10000
00100
10000
,
00100
00010
00001
00100
,
10001
10001
10001
01000
,
01000
00010
00010
10000
,
00100
10000
00100
00002
,
00003
10100
10100
10100
,
10110
01000
01000
01000
,
00100
00100
00010
00001
,
10010
00001
00100
01000
,
10000
10010
10010
10010
,
10100
00100
00100
00100
,
10000
01000
00100
01000
,
00001
00010
00001
00010
,
10100
01010
10100
01010
,
10000
00000
01000
00001
,
01000
00001
00100
10000
,
01000
01000
00010
00020
,
10030
00000
01010
00000
,
00100
01000
10000
10000
,
00010
00001
00010
00001
,
01000
00010
00010
01000
,
20000
00000
00000
00000
,
32000
00000
00000
00000
,
03010
00000
00000
00000
,
10000
01000
00100
00010
,
10001
10001
00000
01001
,
00000
00000
00000
00001
,
10000
01000
00100
00010
,
00101
00101
00101
00000
,
10000
01000
00010
01000
,
20000
31000
02000
03100
,
00200
00310
00020
00031
,
10000
00100
00001
00100
,
10001
10010
00000
10100
,
00000
00000
00000
10000
,
01000
10000
00001
00100
,
01000
00010
01000
00010
,
00100
00001
00100
01000
,
00200
01300
02000
13000
,
10101
00000
10000
00100
,
10000
00000
00000
00010
00000
00000
01000
00000
,
00000
00001
00000
00000
10000
00000
01000
00000
,
00001
00000
00000
00100
00000
00000
10000
00000
,
00000
01000
00000
00000
00010
00000
10000
00000
,
01000
00000
00000
00001
00000
00000
01000
00000
,
00000
10000
00000
00000
00010
00000
01000
00000
,
00010
00000
00000
00001
00000
00000
00100
00000
,
00000
10000
00000
00000
00001
00000
01000
00000
,
10000
10000
10000
00100
,
00001
00100
00000
01010
,
00000
00000
00000
00001
,
10000
01000
00100
01000
,
10001
00000
00000
00000
,
00001
00010
00100
00010
,
10001
00000
01010
00000
,
00100
00000
01010
00000
,
20202
00000
00000
00000
,
00000
00000
00000
00000
,
30303
00000
00000
00000
;

//---------------pnm-five - ----------------
#NOTEDATA:;
#CHARTNAME:;
#STEPSTYPE:pnm-five;
#DESCRIPTION:;
#CHARTSTYLE:;
#DIFFICULTY:Medium;
#METER:8;
#RADARVALUES:0.581096,0.714810,0.787639,0.334477,0.043158,377.000000,301.000000,73.000000,31.000000,0.000000,6.000000,0.000000,0.000000,0.000000,0.581096,0.714810,0.787639,0.334477,0.043158,377.000000,301.000000,73.000000,31.000000,0.000000,6.000000,0.000000,0.000000,0.000000;
#CREDIT:;
#NOTES:
10000
01000
00100
00010
00001
00000
00001
00010
,
00100
01000
10000
00000
01000
00100
00010
01000
,
00010
00000
10000
01000
00100
00010
00001
00000
,
00010
00100
01000
10000
01000
00000
10100
00000
,
01010
00000
10000
00020
00000
00000
01030
00000
,
00100
01000
00010
00000
10000
00000
00100
00000
,
10000
00001
00100
00000
01000
10000
01000
00110
,
00000
20000
00000
00000
00000
00000
30010
00000
,
01010
00000
10000
00020
00000
00000
01030
00000
,
00010
00100
10000
00000
01000
00010
01000
00000
,
10000
00100
00001
00000
00001
00010
00100
01000
,
00000
00010
01000
00010
01000
00010
10001
00000
,
10101
00000
10000
02000
00000
00000
03010
00000
,
01000
00010
01000
00010
00100
01000
00100
00010
,
00000
10000
10000
00100
00100
00010
00010
10100
,
00000
20000
00000
00000
00000
00000
30100
00000
,
01001
02000
00000
03010
,
00000
00010
01000
00010
01000
00010
01000
00100
,
00000
10000
01000
00010
00001
00100
10000
00020
,
00000
00030
01000
00000
00010
00000
01010
00000
,
10100
00000
00000
10010
10010
00000
00000
00000
,
10000
01000
00100
00010
,
00001
00010
00100
02002
,
03003
00000
00000
01000
,
00010
00000
10000
02000
00000
00000
03010
00000
,
10100
01010
00101
01010
,
10000
00000
00000
01000
00000
00000
00001
00000
00100
00000
01000
00000
00000
10000
00000
00000
,
00102
00000
00000
00000
,
20203
00000
00000
30300
,
10101
00000
00100
10000
00000
10000
00100
00000
,
10100
01010
10100
01010
,
01001
01001
00000
02002
,
00000
00000
03003
01000
,
10000
00000
00000
00010
00000
00000
01010
00000
00000
00000
01010
00000
00000
00000
20000
00000
,
00010
00010
30010
10010
,
10100
00000
00000
00100
00000
00000
01000
00000
00000
00000
00010
00000
00000
00000
00001
00000
,
10200
10300
21000
31000
,
02001
03001
00102
00103
,
10100
01010
10100
01010
,
01001
01001
00000
10000
,
00010
00100
00010
10010
,
01000
00000
00000
00001
00000
00000
10000
00000
00000
00000
01000
00000
00000
00000
02000
00000
,
00010
00010
03010
10100
,
01000
00000
00000
00010
00000
00000
00001
00000
00000
00000
00100
00000
00000
00000
10000
00000
,
00102
00103
10200
10300
,
20010
00000
30010
00000
00020
00000
10030
10000
,
00000
00000
10000
00100
01000
00000
10000
00010
,
00100
00000
10000
01000
00100
00000
00100
01000
,
00100
00000
10000
01000
00100
00000
00100
10000
,
00001
00000
00100
01000
00100
00000
10000
01000
,
00100
00000
00010
01000
00010
00000
00010
01000
,
00010
00000
00100
01000
10000
00000
00100
00010
,
00100
00000
01000
00010
01000
00000
01000
10000
,
00001
00000
00001
00100
10000
00000
10000
01000
,
01010
10100
01010
10100
,
00101
01010
00101
00202
,
10000
00000
10303
00000
10000
00000
10000
00100
,
00001
00000
00000
00100
00000
00000
00000
02000
00010
00000
00000
00000
03010
00000
00010
00000
,
10100
10010
10001
10001
,
10010
00000
10001
00000
10010
00000
10001
10100
,
10100
10100
01010
01010
,
00101
00101
01100
01100
,
10000
00100
00010
00000
00100
00001
10000
00000
,
00010
01000
00100
00000
10000
01000
00101
00000
,
20202
00000
00000
00000
,
00000
00000
00000
00000
,
00000
30303
00000
00000
;

//---------------pnm-nine - ----------------
#NOTEDATA:;
#CHARTNAME:;
#STEPSTYPE:pnm-nine;
#DESCRIPTION:;
#CHARTSTYLE:;
#DIFFICULTY:Beginner;
#METER:2;
#RADARVALUES:0.258950,0.345267,0.356056,0.043158,0.000000,168.000000,134.000000,33.000000,4.000000,0.000000,1.000000,0.000000,0.000000,0.000000,0.258950,0.345267,0.356056,0.043158,0.000000,168.000000,134.000000,33.000000,4.000000,0.000000,1.000000,0.000000,0.000000,0.000000;
#CREDIT:;
#NOTES:
000000000
010000000
000000000
010000000
,
000000000
010000000
000000000
010000000
,
000000000
000100000
000000000
000100000
,
000000000
000100000
000000000
000100000
,
000010100
000000100
000000000
000000100
,
000000000
000000100
000001000
000010000
,
000000000
000000010
000001000
000000010
,
001000000
000000000
000000000
001000001
,
000010100
010000000
000000000
010000000
,
000000000
000100000
000000000
000100000
,
000001000
000000100
000000010
000000000
,
000000000
100100000
100100000
100100000
,
000000010
000000100
000000000
000000100
,
000000000
001000000
000000000
000010000
,
000000000
000010000
001000000
010000000
,
100000000
000000000
000000000
000001010
,
000000100
000000100
000000000
000000010
,
000000000
000001000
000000000
000001000
,
000000000
100000000
010000000
001000000
,
000100010
000000000
010100000
000000000
,
100000001
000000000
001000100
000000000
,
000010000
000000000
001000100
000000000
,
010000000
000000000
000100000
000000000
,
000001000
000000000
000000010
000000000
,
001000000
000000000
100000000
000000000
,
001000000
000000000
000010000
000000000
,
000010001
000000000
000010001
000000000
,
000020002
000000000
000000000
000000000
,
000030003
000000000
000000000
000000000
,
010101000
000000000
000000000
000000000
,
100000000
010000000
001000000
000000000
,
100010000
000000000
000000000
000000000
,
000000001
000000010
000000100
000000000
,
001010000
000000000
000000000
000000000
,
000000100
000000010
000000100
000000000
,
000100000
010000000
000100000
000000000
,
000000101
000000000
001000100
000000000
,
000010000
000000000
010000000
000000000
,
100000000
001000000
000010000
000000000
,
101000000
000000000
000000000
000000000
,
000001010
000000000
000000000
000000000
,
000000001
000010000
000000001
000000000
,
001000000
000100000
000000100
000000000
,
001000000
000010000
001000000
000000000
,
100100000
000000000
001010000
000000000
,
000010100
000000000
100010000
000000000
,
000000000
000000001
000000000
000000001
,
000000000
000000100
000000000
000000100
,
000000000
000100000
000000000
000100000
,
000000000
010000000
000000000
010000000
,
000000000
000100000
000000000
010000000
,
000000000
001000000
000000000
000001000
,
000000000
000010000
000000000
000000100
,
000000000
000001000
000000000
010000000
,
100100000
100100000
100100000
000000000
,
000010000
000000000
000000010
000000000
,
001010000
000000000
000000000
000000000
,
100000000
000000000
001000000
000000000
,
000010000
000000000
000000000
000000000
,
000010000
000000000
001000100
000000000
,
100000001
000000000
010000000
000000000
,
001000000
000000000
000100000
000000000
,
200020000
000000000
000000000
000000000
,
000000000
000000000
000000000
000000000
,
300030000
000000000
000000000
000000000
;

//---------------pnm-nine - ----------------
#NOTEDATA:;
#CHARTNAME:;
#STEPSTYPE:pnm-nine;
#DESCRIPTION:;
#CHARTSTYLE:;
#DIFFICULTY:Easy;
#METER:5;
#RADARVALUES:0.394590,0.621480,0.485531,0.140265,0.000000,256.000000,203.000000,45.000000,13.000000,0.000000,8.000000,0.000000,0.000000,0.000000,0.394590,0.621480,0.485531,0.140265,0.000000,256.000000,203.000000,45.000000,13.000000,0.000000,8.000000,0.000000,0.000000,0.000000;
#CREDIT:;
#NOTES:
100000000
000000000
000000000
000100000
000000000
000000000
010000000
000000000
,
000000000
000010000
000000000
000000000
000000100
000000000
000000010
000000000
,
000000001
000000000
000000000
001010000
000000000
000000000
101000000
000000000
,
000000000
101000000
000000000
000000000
100010000
000000000
000100000
000000000
,
000010100
001000000
001000000
001000000
,
001000000
010000000
000100000
010000000
,
000100000
000000010
000000100
000000010
,
001000000
000100000
000010000
000000100
,
000010001
000010001
000010001
010001000
,
010001000
000101000
000101000
000000010
,
000000100
000000010
000000100
000020000
,
000030000
000000101
101000000
000000101
,
101100000
010000000
000100000
000001000
,
001000000
000000100
000100000
000010000
,
000100100
000010000
001000000
000000100
,
100000000
101000000
100100000
101000000
,
101000000
000001000
001000000
000100000
,
000000100
000001000
000010000
000001000
,
000010000
000100000
000010000
000100000
,
101000100
010101000
101010000
010101000
,
100000001
000000000
010000010
000010000
,
001000000
010000000
001000000
000001000
,
010000000
000001000
000100000
000200000
,
000300100
000000000
000001010
000000000
,
000001000
000001000
000000100
100000000
,
000100000
000010000
000000100
000010000
,
001000000
000100000
000000001
000000010
,
200000000
000000000
000000000
000000000
,
320000000
000000000
000000000
000000000
,
030100000
000000000
000000000
000000000
,
100000000
010000000
001000000
000100000
,
100010000
100010000
000000000
000010001
,
000000000
000000000
000000000
000000010
,
000000001
000000010
000000100
000001000
,
001010000
000010100
001010000
000000000
,
100000000
010000000
000100000
010000000
,
200000000
310000000
020000000
031000000
,
002000000
003100000
000200000
000310000
,
000000001
000000100
000010000
000000100
,
100010000
100100000
000000000
101000000
,
000000000
000000000
000000000
000000001
,
000000010
000000001
000010000
001000000
,
010000000
000100000
000000010
000000100
,
001000000
000010000
000000010
000000001
,
000000200
000001300
020000000
130000000
,
101010000
000000000
100000000
001000000
,
000010000
000000000
000000000
000100000
000000000
000000000
010000000
000000000
,
000000000
000010000
000000000
000000000
100000000
000000000
010000000
000000000
,
000010000
000000000
000000000
000000010
000000000
000000000
000001000
000000000
,
000000000
010000000
000000000
000000000
000100000
000000000
000000010
000000000
,
000000001
000000000
000000000
000000100
000000000
000000000
000010000
000000000
,
000000000
100000000
000000000
000000000
000100000
000000000
000000100
000000000
,
000100000
000000000
000000000
000010000
000000000
000000000
000000100
000000000
,
000000000
000000001
000000000
000000000
000010000
000000000
000100000
000000000
,
100000000
100000000
100000000
001000000
,
000010000
001000000
000000000
010100000
,
000000000
000000000
000000000
000010000
,
000000100
000000010
000000001
000000010
,
100010100
000000000
000000000
000000000
,
000010000
000100000
001000000
000100000
,
100010000
000000000
010100000
000000000
,
001010000
000000000
000000101
000000000
,
202020000
000000000
000000000
000000000
,
000000000
000000000
000000000
000000000
,
303030000
000000000
000000000
000000000
;

//---------------pnm-nine - ----------------
#NOTEDATA:;
#CHARTNAME:;
#STEPSTYPE:pnm-nine;
#DESCRIPTION:;
#CHARTSTYLE:;
#DIFFICULTY:Medium;
#METER:8;
#RADARVALUES:0.619630,0.822031,1.014221,0.377635,0.043158,402.000000,301.000000,94.000000,35.000000,0.000000,11.000000,0.000000,0.000000,0.000000,0.619630,0.822031,1.014221,0.377635,0.043158,402.000000,301.000000,94.000000,35.000000,0.000000,11.000000,0.000000,0.000000,0.000000;
#CREDIT:;
#NOTES:
100000000
010000000
001000000
000100000
000010000
000000000
000010000
000001000
,
000000100
000000010
000000001
000000000
100000001
010000010
001000100
000101000
,
000010000
000000000
000010000
000101000
001000100
010000010
100000001
000000000
,
000100000
001000000
010000000
100000000
010000000
000000000
101000101
000000000
,
010101000
000000000
100000000
000200000
000000000
000000000
010300000
000000000
,
000000100
000000010
000000100
000000000
100000000
000000000
001000000
000000000
,
100000000
000000100
000001000
000000000
000000100
000010000
000001000
000000110
,
000000000
000000200
000000000
000000000
000000000
000000000
000100300
000000000
,
010100000
000000000
100000000
000200020
000000000
000000000
010300030
000000000
,
000100000
001000000
100000000
000000000
010000000
000100000
000001000
000000000
,
100000000
001000000
000010000
000000000
000010000
000001000
000000100
010000010
,
000000000
000100000
010001000
000100000
010001000
000100000
000000110
000000000
,
001010010
000000000
100001000
000020000
000000000
000000000
000130000
000000000
,
010000000
000100000
000000010
000001000
001000000
010000000
001000000
000100000
,
000000000
000000010
000000010
000000100
000000100
000001000
000001000
000000101
,
000000000
200000000
000000000
000000000
000000000
000000000
301000000
000000000
,
000010000
000002000
000000000
000103000
,
000000000
000001000
000000100
000001000
000000100
000001000
010000000
001000000
,
000000000
100000000
010000000
000100000
000010000
001000000
100000000
000200020
,
000000000
000300030
010001000
000000000
000100000
000000000
000001100
000000000
,
000010100
000000000
000000000
000001100
000001100
000000000
000000000
000000000
,
100000000
010000000
001000000
000100000
,
000010000
000100000
001000000
220000000
,
330000000
000000000
000000000
010000000
,
000100000
000000000
100000000
020000000
000000000
000000000
030100000
000000000
,
101000000
010100000
001010000
000101000
,
100000010
000000000
000000000
010000010
000000000
000000000
000010000
000000000
001000000
000000000
010000000
000000000
000000000
100000000
000000000
000000000
,
001020000
000000000
000000000
000000000
,
000030202
000000000
000000000
000000303
,
101010000
000000000
001000000
100000000
000000000
100000000
001000000
000000000
,
000000110
000001010
000000110
000001010
,
001010000
001010000
000000000
220020000
,
000000000
000000000
330030000
010000000
,
100000000
000000000
000000000
000100000
000000000
000000000
000101000
000000000
000000000
000000000
000101000
000000000
000000000
000000000
200000000
000000000
,
001000000
001000000
301000000
000001010
,
000010100
000000000
000000000
001000000
000000000
000000000
010000000
000000000
000000000
000000000
000100000
000000000
000000000
000000000
000010000
000000000
,
002000010
003000010
210000000
310000000
,
021000000
031000000
000020100
000030100
,
000001100
000011000
101000000
010100000
,
010010000
010010000
000000000
000000001
,
000000100
001000000
000100000
100100000
,
010000000
000000000
000000000
000000100
000000000
000000000
100000000
000000000
000000000
000000000
010000000
000000000
000000000
000000000
020000000
000000000
,
000100000
000100000
030100000
101000000
,
010000000
000000000
000000000
000100000
000000000
000000000
000010000
000000000
000000000
000000000
000000010
000000000
000000000
000000000
000000001
000000000
,
000020100
000030100
102000000
103000000
,
201000000
000000000
301000000
000000000
000202000
000000000
100303000
100000000
,
000000000
000000000
100000000
001000000
010000000
000000000
100000000
000100000
,
001000000
000000000
000000100
000010000
000000100
000000000
001000000
010000000
,
001000000
000000000
000010000
000001000
000010000
000000000
000001000
000000100
,
000000010
000000000
000001000
000000100
000001000
000000000
000001000
000010000
,
000100000
000000000
000100000
010000000
000100000
000000000
000100000
000000010
,
000100000
000000000
000000100
000001000
000000011
000000000
001000000
000100000
,
101000000
000000000
010000000
000100000
000010100
000000000
010000000
100000000
,
000110000
000000000
000010000
001000000
100000000
000000000
100000000
010000000
,
010100000
101000000
010100000
101000000
,
001010000
010100000
001010000
002020000
,
100000000
000000000
103030000
000000000
100000000
000000000
100000000
001000000
,
000010000
000000000
000000000
000000001
000000000
000000000
000000000
020000000
000100000
000000000
000000000
000000000
030100000
000000000
000100000
000000000
,
101000000
100100000
100010000
100010000
,
100100000
000000000
100010000
000000000
100100000
000000000
100010000
101000000
,
101000000
000001010
010100000
000001010
,
001010000
000001010
011000000
110000000
,
100000000
001000000
000100000
000000000
001000000
000010000
100000000
000000000
,
000000001
000000010
000000100
000000000
100000000
010000000
001010000
000000000
,
002020002
000000000
000000000
000000000
,
000000000
000000000
000000000
000000000
,
000000000
003030003
000000000
000000000
;

//---------------pnm-nine - ----------------
#NOTEDATA:;
#CHARTNAME:;
#STEPSTYPE:pnm-nine;
#DESCRIPTION:;
#CHARTSTYLE:;
#DIFFICULTY:Hard;
#METER:10;
#RADARVALUES:0.824632,1.036474,1.510541,0.388425,0.043158,535.000000,377.000000,140.000000,36.000000,0.000000,24.000000,0.000000,0.000000,0.000000,0.824632,1.036474,1.510541,0.388425,0.043158,535.000000,377.000000,140.000000,36.000000,0.000000,24.000000,0.000000,0.000000,0.000000;
#CREDIT:;
#NOTES:
100000000
010000000
001000000
000100000
000010001
000000000
000010000
000100000
,
001000000
010000000
100010000
000000000
010000000
001000000
000100000
000001000
,
000000110
000000000
101000000
010100000
001010000
000101000
000010100
000000000
,
000100010
001000100
010001000
100010000
010100100
000000000
101001000
000000000
,
010100010
000000000
000000001
000000010
000000000
000010000
000001000
000000100
,
000000100
000010100
000010100
000010100
000001010
000000000
101010000
000000000
,
000000001
000000010
001000000
100000000
010000000
000010000
000000100
000000110
,
000000000
202000000
000000000
303010000
000000000
000000001
000000110
000000000
,
000101000
000000000
000010000
000001100
000000000
000000100
000000010
000001010
,
000100000
010000000
001000000
000100000
000010000
000100000
000010000
000100000
,
101000000
101000000
202000000
000000000
303010000
000010000
000110000
000110000
,
000000000
000000100
000001000
000000010
011000000
010100000
100010000
000000000
,
000000110
000000000
000010000
000000100
000010000
000100000
010000000
000100000
,
000000000
000000001
000000110
000000110
000000101
110000000
010100000
010001000
,
000000000
000000101
000000100
001000000
010000000
000100000
000000100
000011000
,
000000000
202000000
000000000
303000010
000000000
100000000
010000000
000000000
,
010100000
000000000
011000000
010100000
100000000
010000000
000001000
100100000
,
000000000
000001010
010011000
001000000
010000000
000100000
010000000
001000000
,
000000000
000000010
000000100
000101000
000010000
001000000
100000000
000200000
,
000000000
010300000
110000000
010000000
110100000
100100000
100100000
100100000
,
000020000
000000000
000000000
000001000
000031000
000000000
010000100
000000000
,
101100000
101100000
100100000
010000010
,
000100100
000010000
001010000
002020000
,
003030000
000100000
000000010
000000000
000000010
000000100
000000001
000000010
,
000000100
000000000
000000100
000001000
000010000
000000000
010100000
000000000
,
001000000
010000000
000100000
000000100
001000000
000001000
000100000
010000000
,
000010100
000000000
000000000
010100000
000000000
000000000
010010000
000000000
101000000
000000000
101000000
000000000
000000000
010100000
000000000
000000000
,
000020100
000000010
000000001
000000001
,
102030000
010000000
000100000
003010000
,
000011000
000000010
000000001
000000010
000000000
101100000
000000000
000000000
,
101100000
101100000
101100000
101100000
,
000010010
000020020
000030030
001010000
,
000000100
000010000
000001000
100000000
000000000
000110000
010001000
000000000
,
100100000
000000000
000000000
100100000
000000000
000000000
010100000
000000000
000000000
000000000
010100000
000000000
000000000
000000000
201000000
000000000
,
000100000
010000000
000100000
010000000
300100000
000000000
000100100
000000000
,
000001010
000000000
000000000
101000000
000000000
000000000
000101000
000000000
000000000
000000000
010100000
000000000
000000000
000000000
000010100
000000000
,
000001010
100000000
000100000
100000000
000200000
000000000
010000000
000000000
,
200300000
000010000
302000000
003010000
,
101100000
101100000
101100000
101100000
,
000110000
000220000
000330000
010000100
,
000101000
010000000
001000000
100000000
000100000
000000000
100100000
000000000
,
000010010
000000000
000000000
000010010
000000000
000000000
100010000
000000000
000000000
000000000
101000000
000000000
000000000
000000000
020100000
000000000
,
000000010
000100000
000000010
000100000
030000010
000000000
000001010
000000000
,
000011000
000000000
000000000
010010000
000000000
000000000
011000000
000000000
000000000
000000000
110000000
000000000
000000000
000000000
000000101
000000000
,
001020000
010000000
200030000
010000000
,
302000000
000000000
000010000
000000000
003020000
000000000
000030010
000000001
,
000001010
000000100
000000001
000010000
200000000
000000000
300010000
000100000
,
001000000
010000000
200000000
000000000
301000000
000100000
001000000
010000000
,
002000000
000000000
103000000
010000000
001000000
000100000
000020000
000000000
,
000030100
000000010
000000001
000000010
000000200
000000000
000001300
000010000
,
001000000
100000000
010000000
000010000
000000100
000000001
000000010
000000000
,
000010000
001000000
100000000
001000000
000010000
000000100
000000001
000000010
,
000001000
000100000
010000000
000100000
010000000
000100000
010000000
100000000
,
000010000
000001000
000010000
000000010
000000001
000000100
000000001
000000100
,
100100000
100100000
100100000
100100000
,
001010000
001010000
000000000
000002020
,
100000000
000000000
100003030
000000000
100000000
001000000
100000000
001000000
,
001010000
000000000
000000000
000000101
000000000
000000000
000000000
020100000
000000000
000000000
000000000
000000000
030000100
000000000
000100000
000000000
,
100000000
000100000
100000000
000100000
000010000
001000000
000010000
001000000
,
100000000
010000000
100000000
010000000
000100000
001000000
000100000
001000000
,
101000000
010100000
000100100
000000000
000001010
001010000
010100000
000000000
,
000001100
000110000
000001100
000000000
001000000
000010000
001000000
000000000
,
000000010
000001010
000000010
010000000
001000000
000100000
000000001
000000100
,
000001000
000010000
001000000
000010000
000000100
000001000
001010000
000000000
,
202020000
000000000
000000000
000000000
,
000000000
000000000
000000000
000000000
,
000000000
303030000
000000000
000000000
;
