#TITLE:WE MOVE TOGETHER AS ONE;
#SUBTITLE:;
#ARTIST:LÚCIO;
#TITLETRANSLIT:;
#SUBTITLETRANSLIT:;
#ARTISTTRANSLIT:;
#GENRE:;
#CREDIT:caramelangel714;
#BANNER:We Move Together as One.png;
#BACKGROUND:We Move Together as One-bg.png;
#LYRICSPATH:;
#CDTITLE:;
#MUSIC:We Move Together As One.mp3;
#OFFSET:-2.019999;
#SAMPLESTART:2.180000;
#SAMPLELENGTH:12.000000;
#SELECTABLE:YES;
#BPMS:0.000000=127.959991
;
#STOPS:
;
#BGCHANGES:;
#KEYSOUNDS:;
#ATTACKS:;

//---------------dance-single - ----------------
#NOTES:
     dance-single:
     :
     Easy:
     2:
     0.245656,0.331021,0.221090,0.188336,0.000000,210.000000,183.000000,27.000000,23.000000,0.000000,0.000000,0.245656,0.331021,0.221090,0.188336,0.000000,210.000000,183.000000,27.000000,23.000000,0.000000,0.000000:
0100
0001
0010
1000
,
0100
0010
0100
1000
,
0002
1003
0100
0010
,
2000
3010
0100
0001
,
0020
0130
0002
0103
,
2000
3010
0200
0310
,
1001
0100
0100
0100
,
0110
0001
0001
0001
,
0000
0010
0100
0001
,
0010
0100
1000
0010
,
2000
0000
3010
0010
,
0020
0000
0130
0100
,
0200
0000
0301
0001
,
0002
0000
1003
1000
,
1001
0100
0010
0001
,
1001
0100
1000
0100
,
1001
0010
0010
0010
,
0000
0100
0100
0100
,
1001
0100
0100
0010
,
0002
0103
0100
0010
,
0110
1000
1000
1000
,
0000
1000
1000
1000
,
0110
1000
1000
1000
,
0000
1000
1000
0001
,
1001
0100
0100
0100
,
0000
0100
0100
0100
,
0110
1000
1000
1000
,
0000
1000
1000
1000
,
1001
0100
0100
0100
,
0000
0100
0100
0100
,
0110
1000
1000
1000
,
0000
1000
1000
0001
,
0000
0000
0000
0000
,
0000
0000
0000
0000
,
2002
0000
0000
3003
,
0000
0000
0000
0000
,
2002
0000
0000
3003
,
0000
0000
0000
0000
,
1000
0010
1000
0100
,
0001
0100
0010
0010
,
0100
0010
0100
1010
,
0100
0010
0001
0101
,
0010
0010
0010
0010
,
0100
0100
0100
0100
,
0000
0110
0001
1000
,
0010
0100
1000
0001
,
1001
1001
0110
0110
,
1000
0100
0010
0001
,
0110
0010
0100
0001
,
1000
0010
0100
0100
,
0000
1000
0010
0100
,
0001
0100
0010
0100
,
0000
1001
0100
0010
,
0100
0010
0001
1000
,
2002
0000
0000
3003
,
0220
0000
0000
0330
,
2002
0000
0000
3003
,
0220
0000
0000
0330
;

//---------------dance-single - ----------------
#NOTES:
     dance-single:
     :
     Beginner:
     1:
     0.150903,0.212800,0.131017,0.065508,0.000000,129.000000,113.000000,16.000000,8.000000,0.000000,0.000000,0.150903,0.212800,0.131017,0.065508,0.000000,129.000000,113.000000,16.000000,8.000000,0.000000,0.000000:
// measure 0
0010
0000
0010
0000
,  // measure 1
1000
0000
1000
0000
,  // measure 2
0001
0000
0000
0000
,  // measure 3
0110
0000
0000
0000
,  // measure 4
0110
0000
0000
0000
,  // measure 5
1000
0000
0000
0000
,  // measure 6
0110
0000
0000
0000
,  // measure 7
1000
0000
0000
0000
,  // measure 8
0000
0100
0100
0100
,  // measure 9
0000
0001
0001
0001
,  // measure 10
1000
0000
0000
0000
,  // measure 11
0100
0000
0000
0000
,  // measure 12
0100
0000
0000
0000
,  // measure 13
1001
0000
0000
0000
,  // measure 14
1001
0000
0000
0000
,  // measure 15
0100
0000
0000
0000
,  // measure 16
1000
0001
0000
0000
,  // measure 17
1001
0000
1001
0000
,  // measure 18
0100
0010
0010
0000
,  // measure 19
1001
0000
0110
0000
,  // measure 20
1000
0001
0001
0000
,  // measure 21
1000
0000
0010
0000
,  // measure 22
0010
0010
0100
0000
,  // measure 23
0001
0000
0010
0000
,  // measure 24
0010
0100
1000
0000
,  // measure 25
0010
0000
0001
0000
,  // measure 26
0010
0100
0010
0000
,  // measure 27
1000
0000
0001
0000
,  // measure 28
0010
0100
1000
0000
,  // measure 29
1001
0000
1001
0000
,  // measure 30
0100
0010
0001
0000
,  // measure 31
1001
0000
0110
0000
,  // measure 32
0000
0000
0000
0000
,  // measure 33
0000
0000
0000
0000
,  // measure 34
2002
0000
0000
3003
,  // measure 35
0000
0000
0000
0000
,  // measure 36
0220
0000
0000
0330
,  // measure 37
0000
0000
0000
0000
,  // measure 38
1000
0010
1000
0000
,  // measure 39
0100
0001
0100
0000
,  // measure 40
0010
0100
0010
0000
,  // measure 41
1000
0001
1000
0000
,  // measure 42
1000
0100
0010
0001
,  // measure 43
1000
0100
0010
0001
,  // measure 44
0000
1000
1000
1000
,  // measure 45
0000
0010
0010
0010
,  // measure 46
0010
0000
0100
0000
,  // measure 47
0001
0000
0100
0000
,  // measure 48
0010
0000
0100
0000
,  // measure 49
1000
0000
0001
0000
,  // measure 50
1001
0000
0100
0010
,  // measure 51
0010
0000
0100
0100
,  // measure 52
0000
0010
0010
0010
,  // measure 53
0000
0100
0100
0100
,  // measure 54
0200
0000
0000
0300
,  // measure 55
0002
0000
0000
0003
,  // measure 56
2000
0000
0000
3000
,  // measure 57
0200
0000
0000
0300
;

//---------------dance-single - ----------------
#NOTES:
     dance-single:
     :
     Medium:
     7:
     0.343918,0.368484,0.057320,0.106451,0.000000,294.000000,287.000000,7.000000,13.000000,0.000000,0.000000,0.343918,0.368484,0.057320,0.106451,0.000000,294.000000,287.000000,7.000000,13.000000,0.000000,0.000000:
1000
0100
0010
0000
0001
0000
0100
0010
,
0100
0010
0001
0000
0010
0000
0010
0010
,
0010
1000
0000
1000
0000
0100
0000
0010
,
0000
1001
0000
0100
0000
0010
0000
0010
,
1000
0010
0000
0100
0000
0010
0000
0001
,
0000
0010
0000
0100
0000
0010
0000
0001
,
1000
0100
0010
0000
0001
0010
0100
0000
,
1000
0100
0010
0000
0001
0010
0100
0000
,
0000
0001
1000
0100
0010
0000
0100
0000
,
0001
0010
1000
0000
1000
0100
1000
0000
,
0001
1000
0001
0000
0100
0010
0100
0000
,
1000
0100
0010
0001
0000
0100
0000
0010
,
0010
0100
0010
0000
0100
0100
0001
1000
,
0010
0001
0010
0000
0010
1000
0100
0010
,
0001
0000
1000
0000
0010
0001
0010
1000
,
0100
0000
0010
0000
0100
0001
0010
1000
,
1001
0000
0100
0010
0100
0000
0100
0000
,
0000
0000
0010
1000
0010
0000
0010
0000
,
1000
0000
0001
0100
0001
0000
0001
0000
,
2000
0000
3100
0010
0100
0000
0000
0000
,
1001
0000
0100
0001
0100
0000
0001
0000
,
0000
0000
0100
1000
0010
0000
0100
0000
,
1000
0000
0100
0010
1000
0000
1000
0000
,
0000
0000
0100
0001
0100
0000
0010
0000
,
1000
0000
0010
0001
0010
0000
0001
0000
,
0000
0000
1000
0010
0100
0000
0010
0000
,
1000
0000
0100
1000
0100
0000
0001
0000
,
0000
0000
0010
0100
0010
0000
0000
0000
,
1010
0000
0010
1000
0001
0000
0001
0000
,
0000
0000
0100
1000
0010
0000
0100
0000
,
1000
0000
0100
0001
0100
0000
0100
0000
,
0000
0000
0010
0100
1000
0000
1000
0000
,
1001
0000
0000
0000
,
0000
0000
0000
0000
,
2000
0000
0200
3000
,
0020
0300
0002
0030
,
0003
2000
0000
3100
,
0000
0010
0002
0003
,
0100
0010
0100
0000
0001
0100
0010
0100
,
1000
0100
1000
0000
0010
0100
0010
0001
,
0100
0010
0100
0000
0001
1000
0100
0010
,
1000
0010
0100
0000
0001
0100
0010
0001
,
0010
0100
0010
0000
1000
0100
0010
0001
,
0100
0010
0010
0000
1000
0100
0010
0100
,
0000
0001
0100
0010
1000
0100
0010
0000
,
1001
0000
0100
0010
0100
0001
0010
0000
,
1000
0010
1000
0000
0100
0001
0100
0000
,
0100
0100
0010
0000
1000
0010
0100
0000
,
0000
0001
0001
0000
0100
0010
0100
0000
,
1000
0010
0100
0000
0001
0100
0010
0000
,
0000
0100
0010
0000
0010
0100
0001
0000
,
0010
0100
1000
0000
0010
0100
0001
0000
,
0000
0100
0001
0100
0010
0010
0010
0000
,
1000
0000
0100
0000
0010
0100
0010
0000
,
0002
1003
0200
0310
,
0020
0130
2000
3001
,
0010
0100
0001
1000
,
0010
0001
0100
1000
,
2002
0000
0000
0000
,
0000
0000
0000
0000
,
3003
0000
0000
0000
;

//---------------dance-single - ----------------
#NOTES:
     dance-single:
     :
     Hard:
     9:
     0.414106,0.466746,0.122828,0.032754,0.274316,354.000000,339.000000,15.000000,4.000000,0.000000,0.000000,0.414106,0.466746,0.122828,0.032754,0.274316,354.000000,339.000000,15.000000,4.000000,0.000000,0.000000:
1000
0000
0010
0001
0010
0000
1000
0000
0010
0000
0100
0000
0010
0000
0010
0000
,
1000
0000
0100
0010
0100
0000
0001
0000
0010
0000
0100
0000
0001
0000
0010
0000
,
1000
0000
1000
0000
0000
1001
0000
0000
0001
0000
0000
0100
0000
0000
0010
0000
,
0000
0010
0000
0000
0010
0000
0000
0001
0000
0000
0001
0000
0000
0000
1000
0000
,
0000
0000
0100
0000
0010
0000
0100
0000
0001
0000
0000
0010
0000
0000
0001
0000
,
0100
0000
0001
0000
0010
0000
0000
0010
0000
0000
0010
0000
0000
0000
0010
0000
,
1000
0000
0001
0000
1000
0000
0010
0000
0001
0000
0000
0001
0000
0000
0100
0000
,
0000
0100
0000
0000
0100
0000
0000
1000
0000
0000
0001
0000
0000
0000
0100
0000
,
0000
0000
1000
0010
1000
0000
0100
0000
0010
0000
0100
0000
0001
0000
0100
0000
,
0000
0000
0010
0100
0010
0000
1000
0000
0010
0000
0100
0000
0010
0000
0000
0000
,
1000
0000
0001
0000
0000
1000
0000
0000
0010
0000
0000
0100
0000
0000
0001
0000
,
0000
0010
0000
0000
0010
0000
0000
0010
0000
0000
0100
0000
0000
0000
0100
0000
,
0000
0000
0010
0000
0100
0000
0001
0000
0100
0000
0000
0010
0000
0000
0010
0000
,
0000
1000
0000
0000
0010
0000
0000
0100
0000
0000
0010
0000
0000
0000
0100
0000
,
0000
0000
0010
0000
1000
0000
0010
0000
0100
0000
0000
0100
0000
0000
0001
0000
,
0000
0001
0000
0000
0001
0000
0000
1000
0000
0000
1000
0000
0000
0000
1000
0000
,
1001
0000
0000
0000
1000
0000
0001
0000
1000
0000
0000
1000
0000
0000
1000
0000
,
0000
0000
0000
0000
0100
0000
0010
0000
0100
0000
0000
0010
0000
0000
0010
0000
,
1001
0000
0000
0000
0001
0000
1000
0000
0001
0000
0000
0001
0000
0000
0001
0000
,
2000
0000
0000
0000
3100
0000
0010
0000
0100
0000
0000
0100
0000
0000
0000
0000
,
0110
0000
0000
0000
1000
0000
0001
0000
1000
0000
0000
1000
0000
0000
1000
0000
,
0000
0000
0000
0000
0010
0000
0100
0000
0010
0000
0000
0010
0000
0000
0010
0000
,
0110
0000
0000
0000
0001
0000
1000
0000
0001
0000
0000
0001
0000
0000
0001
0000
,
0000
0000
0000
0000
0100
0000
0001
0000
0100
0000
0000
0100
0000
0000
0100
0000
,
0110
0000
0000
0000
0001
0000
0010
0000
0001
0000
0000
0001
0000
0000
0001
0000
,
0000
0000
0000
0000
0100
0000
1000
0000
0100
0000
0000
0100
0000
0000
0100
0000
,
0110
0000
0000
0000
0010
0000
0100
0000
0010
0000
0000
0010
0000
0000
0010
0000
,
0002
0000
0000
0000
1003
0000
0100
0000
1000
0000
0000
1000
0000
0000
0000
0000
,
1001
0000
0000
0000
0100
0000
0010
0000
0100
0000
0000
0100
0000
0000
0100
0000
,
0000
0000
0000
0000
0001
0000
0010
0000
0001
0000
0000
0001
0000
0000
0001
0000
,
1001
0000
0000
0000
0100
0000
1000
0000
0100
0000
0000
0100
0000
0000
0100
0000
,
0000
0000
0000
0000
0010
0000
0100
0000
0010
0000
0000
0010
0000
0000
0010
0000
,
0000
0000
0000
0000
,
0000
0000
0000
0000
,
1000
0000
0010
0000
0000
0000
0010
0000
0000
0110
0000
0000
0010
0000
0000
1000
,
0000
0000
0010
0000
0000
0100
0000
0000
0010
0000
0000
0100
0000
0000
0000
0010
,
0000
0000
0001
0000
0010
0000
0001
0000
0000
0001
0000
0000
0001
0000
0000
1000
,
0000
0000
1000
0000
0000
0010
0000
0000
0010
0000
0000
0100
0000
0000
0100
0000
,
0010
1000
0001
1000
0100
0010
0100
0001
,
1000
0001
1000
0000
0100
0010
0100
0000
,
0001
0100
0010
0100
0001
0100
0010
0100
,
1000
0010
1000
0000
0001
0100
0001
0000
,
0010
0100
0010
1000
0001
1000
0100
0010
,
0100
0010
0110
0000
1000
0001
1001
0000
,
0000
0000
1000
0001
1000
0000
0100
0000
0010
0000
0100
0000
0010
0000
0001
0000
,
0000
0000
0010
0100
0010
0000
1000
0000
0010
0000
0100
0000
0010
0000
0000
0000
,
1000
0000
0001
0000
0000
0100
0000
0000
0010
0000
0000
0100
0000
0000
0001
0000
,
0000
0001
0000
0000
1000
0000
0000
1000
0000
0000
1000
0000
0000
0010
0000
0000
,
0000
0000
0100
0000
0010
0000
0100
0000
0010
0000
0000
0010
0000
0000
1000
0000
,
0000
0010
0000
0000
0100
0000
0000
0010
0000
0000
0010
0000
0000
0000
0010
0000
,
0000
0000
1000
0000
0001
0000
1000
0000
0001
0000
0000
0001
0000
0000
1000
0000
,
0000
0100
0000
0000
0010
0000
0000
0100
0000
0000
0001
0000
0000
0000
0001
0000
,
0000
0000
1000
0010
1000
0000
0100
0000
1000
0000
0010
0000
0100
0000
0010
0000
,
0000
0000
0001
0100
0001
0000
0100
0000
0010
0000
0100
0000
0010
0000
0000
0000
,
1010
0000
0000
0000
0010
0000
0100
0000
0010
0000
0000
0010
0000
0000
0010
0000
,
0000
0000
0000
0000
0100
0000
0010
0000
0100
0000
0000
0100
0000
0000
0100
0000
,
0101
0000
0000
0000
0001
0000
0100
0000
0001
0000
0000
0001
0000
0000
0001
0000
,
0000
0000
0000
0000
1000
0000
0010
0000
1000
0000
0000
1000
0000
0000
1000
0000
,
2002
0000
0000
0000
,
0000
0000
0000
0000
,
3003
0000
0000
0000
;

//---------------pnm-five - ----------------
#NOTES:
     pnm-five:
     :
     Beginner:
     2:
     0.191846,0.274725,0.204713,0.065508,0.000000,164.000000,138.000000,25.000000,8.000000,0.000000,1.000000,0.191846,0.274725,0.204713,0.065508,0.000000,164.000000,138.000000,25.000000,8.000000,0.000000,1.000000:
01000
00000
00010
00000
,
00010
00000
01000
00000
,
10100
00000
01000
00000
,
00001
00001
10000
10000
,
00000
00010
00000
01000
,
00000
10000
00000
00100
,
00101
00000
10000
00000
,
10000
00000
00100
00000
,
00000
00001
10000
00100
,
00001
00100
01000
00100
,
10100
00000
01010
00000
,
00101
00000
01010
00000
,
00000
01000
00000
00010
,
00000
01000
00000
00010
,
00000
00100
00000
10000
,
00000
00100
00000
10000
,
10100
00100
00100
00000
,
00000
00100
01000
00100
,
00000
01010
00100
00001
,
00000
10100
10000
10000
,
01100
10000
10000
10000
,
00000
00100
00100
00100
,
10100
00010
00010
00010
,
00000
01000
01000
01000
,
10110
01000
01000
01000
,
00000
00010
00010
00010
,
10100
10000
10000
10000
,
00001
01000
01000
01000
,
01010
00100
00100
00100
,
00000
10000
10000
10000
,
10001
00001
00001
00001
,
00000
00100
00100
00100
,
00000
00000
00000
00000
,
00000
00000
00000
00000
,
20002
00000
00000
00000
,
30003
00000
00000
00000
,
02200
00000
00000
00000
,
03300
00000
00000
00000
,
10000
00000
00010
00000
,
01000
00000
00010
00000
,
00000
10000
00000
00100
,
00000
10000
00000
00100
,
00000
00100
00001
00000
,
00010
00000
00001
00000
,
00000
00100
10000
10000
,
00000
00010
00100
00100
,
10010
00000
01000
01000
,
01001
00000
00010
00010
,
00000
01000
00000
00010
,
00000
00100
00000
00100
,
00000
01000
00000
00010
,
00000
10000
00000
00001
,
00000
01000
00010
01000
,
00000
00100
01000
00100
,
10100
00000
00000
00000
,
00101
00000
00000
00000
,
01100
00000
00000
00000
,
01010
00000
00000
00000
,
02200
00000
00000
00000
,
03300
00000
00000
00000
,
00022
00000
00000
00000
,
00033
00000
00000
00000
;

//---------------pnm-five - ----------------
#NOTES:
     pnm-five:
     :
     Easy:
     3:
     0.278410,0.399600,0.294787,0.081885,0.000000,238.000000,197.000000,36.000000,10.000000,0.000000,5.000000,0.278410,0.399600,0.294787,0.081885,0.000000,238.000000,197.000000,36.000000,10.000000,0.000000,5.000000:
00100
10000
00010
10000
,
01010
00001
00100
00001
,
10101
00000
01000
00100
,
00001
00001
10000
10000
,
00000
00010
01000
00010
,
00001
01000
00010
01000
,
10101
00010
10000
00010
,
10000
00010
00100
00010
,
00000
00010
01000
00100
,
01000
00100
01000
00100
,
10100
01000
10100
01000
,
00101
00010
00101
00010
,
00000
01000
00100
00010
,
00100
01000
00100
00010
,
00000
00100
00010
01000
,
00010
00100
00001
01000
,
10101
00100
00100
00100
,
00000
00100
01010
00100
,
10100
01010
00101
01010
,
20000
30100
10001
10100
,
01100
10000
10000
10000
,
00000
01000
00100
00001
,
10100
00010
00010
00010
,
00000
01000
00010
01000
,
10110
00010
01000
00010
,
00000
01010
00010
01010
,
10100
00010
00010
00010
,
00002
01003
00100
01000
,
01010
00100
10000
00100
,
00000
10010
10010
10010
,
10001
01000
01000
01000
,
00000
00100
01000
00100
,
00000
00000
00000
00000
,
00000
00000
00000
00000
,
20000
00000
00000
00000
,
30020
00000
00000
00000
,
00030
02000
00000
00000
,
03200
00000
00000
00000
,
10300
00100
01000
00010
,
01000
10000
00010
00010
,
00000
10000
00001
01000
,
00001
10000
00001
00100
,
10000
00100
00001
01000
,
00010
00001
00100
10000
,
00000
10100
00010
10000
,
00100
00010
00100
00100
,
10100
00010
01000
00010
,
01010
10000
00100
01000
,
00000
01000
00100
00010
,
10000
00100
10000
00100
,
00000
01000
00010
00010
,
10000
10000
00100
00001
,
00000
00100
10010
00010
,
00000
00100
00001
00100
,
10101
01000
01000
01000
,
00101
00010
00010
00010
,
10100
01000
01000
01000
,
01010
00100
00100
00100
,
02200
00000
00000
00000
,
03300
00000
00000
00000
,
00022
00000
00000
00000
,
00033
00000
00000
00000
;

//---------------pnm-five - ----------------
#NOTES:
     pnm-five:
     :
     Medium:
     6:
     0.398899,0.431536,0.262033,0.229279,0.000000,341.000000,309.000000,32.000000,28.000000,0.000000,12.000000,0.398899,0.431536,0.262033,0.229279,0.000000,341.000000,309.000000,32.000000,28.000000,0.000000,12.000000:
00100
10000
00100
00000
00010
00000
00001
00000
,
00010
01000
00100
00000
00010
00000
00100
00000
,
11000
00100
01000
00000
01000
00010
01000
00000
,
00001
10000
00001
00000
10000
00010
10000
00000
,
00000
01000
01000
00000
00010
10000
01000
00000
,
10000
00010
10000
00000
01000
00100
01000
00000
,
00101
00010
00010
00000
10000
00010
10000
00000
,
01000
00100
01000
00000
00010
01000
00010
00000
,
00000
00010
00001
00100
10000
00010
01000
00000
,
00001
10000
01000
00000
01000
00010
00100
00000
,
10000
00100
10000
00000
01000
01000
10000
00000
,
01000
00010
01000
00000
01000
00010
01000
00000
,
00000
00100
00100
00010
01000
00010
01000
00010
,
10000
00001
10000
00001
01000
00010
01000
00010
,
00000
00000
10000
00100
00001
00100
10000
00100
,
00001
00100
00100
00100
00100
10000
10000
10000
,
20200
00000
30301
00010
00001
00000
00001
00000
,
00000
00000
00100
01000
00100
00000
00100
00000
,
20200
00000
30310
00001
00010
00000
00010
00000
,
20010
00000
30100
00010
00100
00000
00001
00000
,
20200
00000
30310
00100
00010
00000
00010
00000
,
00000
00000
00100
00010
00100
00000
00100
00000
,
20200
00000
30301
00010
00001
00000
00001
00000
,
00000
00000
01000
00010
01000
00000
01000
00000
,
20200
00000
30310
00010
01000
00000
01000
00000
,
00000
00000
10000
00100
00010
00000
00001
00000
,
00202
00000
10303
00100
10000
00000
10000
00000
,
00002
00000
00013
01000
00010
00000
01000
00000
,
20200
00000
30301
00100
00001
00000
00001
00000
,
00000
00000
10000
00001
10000
00000
10000
00000
,
20002
00000
30103
01000
00100
00000
00100
00000
,
00000
00000
00100
10000
01010
00000
01010
00000
,
00000
00000
00000
00000
,
00000
00000
00000
00000
,
10000
00000
00001
01000
,
00001
00000
01000
01000
,
00000
01000
00100
00000
00100
00000
10000
00000
,
00010
01000
00010
01000
,
10000
00010
10000
00000
10000
00001
10000
00000
,
01000
00100
01000
00000
00010
00100
00010
00000
,
00000
00001
10000
00000
01000
00100
00100
00000
,
00001
00100
10000
00000
01000
00100
00100
00000
,
00000
00010
00100
00000
00001
01000
00010
00000
,
00010
00100
10000
00000
00001
01000
00100
00000
,
00000
00010
00100
01000
10000
00010
10000
00000
,
10000
00100
00010
00000
00100
10000
00100
00000
,
10010
00010
00010
00000
01000
00010
01000
00000
,
01000
10000
01000
00000
00010
01000
00010
00000
,
00000
00100
01010
00000
00100
01010
00100
00000
,
10000
01000
00100
00000
01000
00100
00100
00000
,
00000
00010
01000
00000
10000
01000
00010
00000
,
00010
01000
10000
00000
10000
10000
00001
00000
,
00000
10000
01000
00100
00010
01000
01000
00000
,
00001
00100
00100
00000
01000
01000
00100
00000
,
20200
00000
30301
00100
00001
00000
00001
00000
,
00202
00000
10303
01000
10000
00000
10000
00000
,
20200
00000
30310
00010
00010
00000
01000
00000
,
00202
10303
10000
10000
,
10100
01100
10100
00000
,
01010
01100
01010
00000
,
00110
00101
00110
00000
,
10100
01100
20200
00000
,
30300
00000
00000
00000
;

//---------------pnm-five - ----------------
#NOTES:
     pnm-five:
     :
     Hard:
     9:
     0.495991,0.599401,0.417615,0.114639,0.417615,424.000000,369.000000,51.000000,14.000000,0.000000,6.000000,0.495991,0.599401,0.417615,0.114639,0.417615,424.000000,369.000000,51.000000,14.000000,0.000000,6.000000:
10100
00000
01000
00100
00010
00000
00010
10000
00000
00000
00010
00000
10000
00010
00000
10000
,
00000
00000
00010
10000
00100
00000
01000
00010
00000
00100
10000
00000
00100
00100
00000
00000
,
01001
00000
10000
00000
00000
01000
00000
00000
00010
00000
00000
00001
00000
00000
00100
00000
,
00000
10000
00000
00000
00001
00000
00000
10000
00000
00000
00000
10000
00000
00000
00010
00000
,
00000
00000
10000
00000
00010
00000
01000
00000
00010
00000
00000
01000
00000
00000
00010
00000
,
00000
10000
00000
00000
10000
00000
00000
00010
00000
00000
10000
00000
00000
00000
00010
00000
,
00000
00000
01010
00000
01010
00000
01010
00000
10100
00000
00000
01010
00000
00000
00010
00000
,
00000
10000
00000
00000
00010
00000
00000
01000
00000
00000
00010
00000
00000
00000
00100
00000
,
00000
00000
10000
00100
00001
00000
10000
00010
00000
00000
00100
00000
00010
10000
00000
00100
,
00000
00000
00100
00010
00100
00000
10000
00010
00000
00000
10000
00000
00100
00001
00000
00000
,
11010
00000
11010
00000
00000
01010
00000
00000
01010
00000
00000
10000
00000
00000
00010
00000
,
00000
10100
00000
00000
01000
00000
00000
01100
00000
00000
00101
00000
00000
00000
10000
00000
,
00000
00000
10000
00000
01000
00000
00100
00000
00000
10000
00000
00000
00010
00000
00000
01000
,
00000
00000
00010
00000
00000
01000
00000
00000
00100
00000
00000
00100
00000
00000
10010
00000
,
00000
00000
10000
00000
00000
01000
00000
00000
00010
00000
00000
10000
00000
00000
00100
00000
,
00000
10000
00000
00000
00100
00000
00000
00010
00000
00000
10000
00000
00000
00000
10000
00000
,
10100
00000
00000
00000
10000
00000
00010
00000
10100
00000
00000
01000
00000
00000
01000
00000
,
00000
00000
00000
00000
00100
00000
00010
00000
01000
00000
00000
01000
00000
00000
00010
00000
,
10010
00000
00000
00000
01010
00000
10000
00000
00100
00000
00000
00010
00000
00000
00001
00000
,
00002
00000
00000
00000
10103
00000
01000
00000
10000
00000
00000
10000
00000
10000
00010
10000
,
01010
00000
00000
00000
10000
00000
00010
00000
10000
00000
00000
00100
00000
00000
00001
00000
,
00000
00000
00000
00000
00100
00000
10000
00000
00100
00000
00000
00001
00000
00000
00001
00000
,
10100
00000
00000
00000
00010
00000
01000
00000
00010
00000
00000
10000
00000
00000
00001
00000
,
00000
00000
00000
00000
01000
00000
00010
00000
01000
00000
00000
10100
00000
00000
10100
00000
,
10110
00000
00000
00000
10000
00000
00100
00000
10000
00000
00000
00010
00000
00000
00100
00000
,
00000
00000
10000
00100
10000
00000
10010
10100
,
10100
00000
00000
00000
10000
00000
00001
00000
10000
00000
00000
00001
00000
00000
01000
00000
,
00202
00000
00000
00000
10303
00000
00100
00000
01000
00000
00000
01000
00000
00010
01000
00010
,
00011
00000
00000
00000
00100
00000
10000
00000
00100
00000
00000
00100
00000
00000
00100
00000
,
00000
00000
00000
00000
10000
00000
01000
00000
10000
00000
00000
10000
00000
00000
10000
00000
,
10001
00000
00000
00000
00001
00000
00010
00000
00001
00000
00000
00100
00000
00000
00001
00000
,
00000
00000
00000
00000
00100
00000
10000
00000
00100
00000
00000
00001
00000
00000
00010
00000
,
00000
00000
00000
00000
,
00000
00000
00000
00000
,
10000
00000
00010
00000
00000
01000
00000
00000
10000
00000
00000
00100
00000
00000
00010
00000
,
00000
00001
00000
00000
01000
00000
00000
00010
00000
00000
00100
00000
00000
00000
00000
10000
,
00000
00000
10000
00000
00010
00000
10000
00000
00100
00000
00000
00100
00000
00000
10000
00000
,
00000
00010
00000
00000
01000
00000
00000
00100
00000
00000
10000
00000
00000
00010
00000
00000
,
10000
00010
10000
00000
01000
00000
00100
00000
00010
00000
00100
00000
01000
00000
00010
00000
,
01000
00010
01000
00000
10000
00000
00100
00000
00010
00000
10000
00000
00010
00000
00100
00000
,
00000
00001
10000
01000
00100
10000
00100
00010
,
01000
00010
10000
00100
01000
00001
00100
10000
,
00000
10000
00100
10000
00001
01000
00010
10000
,
00010
00100
00010
01000
00001
00010
10000
00100
,
20000
00000
00001
00010
30100
00000
00001
01000
00000
00001
00000
00000
10000
00001
00000
01100
,
00000
00000
10000
00100
00010
00000
10000
01000
00000
00001
10000
00000
00100
01010
00000
00000
,
10010
00000
10100
00000
00000
01000
00000
00000
00010
00000
00000
00100
00000
00000
10000
00000
,
00000
01001
00000
00000
00100
00000
00000
10100
00000
00000
00010
00000
00000
01000
00000
00000
,
00000
00000
00010
00000
01000
00000
00010
00000
10000
00000
00000
00100
00000
00000
00001
00000
,
00000
01000
00000
00000
00100
00000
00000
10000
00000
00000
00001
00000
00000
00100
00000
00000
,
00000
00000
00001
00000
01000
00000
00001
00000
00100
00000
00000
00010
00000
00000
10000
00000
,
00000
00010
00000
00000
10000
00000
00000
00100
00000
00000
10000
00000
00000
00001
00000
00000
,
10100
00000
00010
00100
01000
00000
10000
00100
00000
00000
00001
00000
01000
01000
00000
00001
,
00000
00000
00100
10000
00100
00000
00010
01000
00000
10000
00100
00000
00100
00100
00000
00000
,
10100
00000
00000
00000
10000
00000
00100
00000
10000
00000
00000
10100
00000
00000
10100
00000
,
00101
00000
00000
00000
00001
00000
00100
00000
00001
00000
00000
00101
00000
00000
00101
00000
,
01100
00000
00000
00000
01000
00000
00100
00000
01000
00000
00000
01100
00000
00000
01100
00000
,
01010
00000
00000
00000
01000
00000
00010
00000
01000
00000
00000
01010
00000
00000
01010
00000
,
20000
32000
03200
00320
,
00032
00023
00230
01300
,
20220
00000
00000
00000
,
30330
00000
00000
00000
;

//---------------pnm-nine - ----------------
#NOTES:
     pnm-nine:
     :
     Beginner:
     2:
     0.222260,0.374625,0.253844,0.073697,0.000000,190.000000,148.000000,31.000000,9.000000,0.000000,11.000000,0.222260,0.374625,0.253844,0.073697,0.000000,190.000000,148.000000,31.000000,9.000000,0.000000,11.000000:
000000001
000000000
000100000
000000100
,
000100000
000000000
001000000
000000010
,
001000100
000000000
010000000
001000000
,
000010000
000000010
100000000
100000000
,
000000000
010100000
000000000
000000100
,
000000000
000000001
000000100
001000000
,
001010000
000000000
000000001
000000000
,
100000001
000000000
001000000
000000000
,
000000000
000010000
000000001
001000000
,
000010000
000000100
010000000
001000000
,
001000100
000000000
010100010
000000000
,
001010100
000000000
000100010
000000000
,
000000000
000000010
000001000
000100000
,
000000000
010000000
001000000
000100000
,
000000000
001000000
000100000
100000000
,
000000000
001000000
000001000
100000000
,
001000100
001000000
001000000
000000000
,
000000000
001000000
001000000
001000000
,
001010100
000000100
000000100
000000100
,
000001010
010100000
000001000
000000010
,
101010000
100000000
100000000
100000000
,
000000000
001000000
001000000
001000000
,
101000000
000000010
000000010
000000010
,
000000000
010000000
010000000
010000000
,
000010101
010000000
010000000
010000000
,
000000000
000001000
000001000
000001000
,
100010100
000010000
000010000
000010000
,
001010000
000001000
000001000
000001000
,
010100000
001000000
001000000
001000000
,
000000000
000000001
000000001
000000001
,
000010001
000010000
000010000
000010000
,
000000000
000001000
000001000
000001000
,
000000000
000000000
000000000
000000000
,
000000000
000000000
000000000
000000000
,
202020000
000000000
000000000
000000000
,
303030000
000000000
000000000
000000000
,
020002000
000000000
000000000
000000000
,
030003000
000000000
000000000
000000000
,
100000000
000000000
000100000
000000000
,
000001000
000000000
000000001
000000000
,
000000000
000010000
000000000
000000010
,
000000000
000000010
000000000
001000000
,
000000000
001000000
000000010
000000000
,
000100000
000000000
000010000
000000000
,
000000000
001001000
000000001
000000001
,
000000000
000100000
000001000
000001000
,
000100000
000000000
000000010
000000010
,
010000010
000000000
000010000
000010000
,
000000000
010000000
000000000
000100000
,
000000000
000001000
000000000
000000010
,
000000000
010000000
000000000
000100000
,
000000000
000000100
000000000
000000001
,
000000000
010000010
000100000
010000010
,
000000000
001000000
001000000
001000000
,
101010000
000000000
000000000
000000000
,
001010001
000000000
000000000
000000000
,
010001010
000000000
000000000
000000000
,
010100010
000000000
000000000
000000000
,
020020000
000000000
000000000
000000000
,
030030000
000000000
000000000
000000000
,
020002000
000000000
000000000
000000000
,
030003000
000000000
000000000
000000000
;

//---------------pnm-nine - ----------------
#NOTES:
     pnm-nine:
     :
     Easy:
     3:
     0.300636,0.424575,0.393050,0.090074,0.000000,257.000000,197.000000,48.000000,11.000000,0.000000,12.000000,0.300636,0.424575,0.393050,0.090074,0.000000,257.000000,197.000000,48.000000,11.000000,0.000000,12.000000:
001000000
000010000
000000100
000000001
,
010000000
000100000
000001000
000000010
,
101010000
000000000
010000000
001000000
,
010000000
000010000
000000001
000000100
,
000000000
000100000
010000010
000100000
,
000010000
010000000
000100000
010000000
,
001010001
000000010
010000000
000100000
,
000000100
000100000
000000100
000100000
,
000000000
100000000
001000000
000010000
,
000000000
000100000
000001000
000000010
,
000101000
010000000
101000000
010000000
,
001010000
000100000
001010000
000100000
,
000000000
010000010
001000100
000101000
,
001000000
100000000
001000000
000000010
,
000000000
001000000
000100000
000010000
,
000001000
001000000
000010000
000000010
,
001010001
001000000
000010000
001000000
,
000000000
001000000
000100000
000001000
,
001010001
000001010
001010000
010100000
,
200000000
301000000
100010000
001000001
,
001000010
000001000
000001000
000001000
,
000000000
010000000
001000000
000010000
,
001000100
000100000
000001000
000100000
,
000000000
000000010
000100000
010000000
,
101100000
000100000
000000010
000100000
,
000000000
000000101
000000101
000000101
,
001101000
000100000
000001000
000100000
,
000020000
010030000
000000010
010000000
,
010100010
001000000
000010000
001000000
,
000000000
010100000
010100000
010100000
,
000010010
010000000
000000010
010000000
,
000000000
000100000
000010000
000001010
,
000000000
000000000
000000000
000000000
,
000000000
000000000
000000000
000000000
,
000000002
000000000
000000000
000000000
,
020000003
000000000
000000000
000000000
,
030000000
000002000
000000000
000000000
,
000023000
000000000
000000000
000000000
,
100030000
001000000
000000100
000100000
,
010000000
100000000
001000000
000100000
,
000010000
000000001
000010000
000000001
,
000010000
000000100
000010000
001000000
,
100000000
001000000
000010000
000000010
,
000100000
000010000
001000000
100000000
,
000000000
001000001
000100010
100000000
,
001000000
000010000
000000100
001000100
,
101000000
000100000
000000010
000001000
,
010100000
100000000
000000100
000000100
,
000000000
010000000
001000000
000100000
,
100010000
001000000
100000001
000000100
,
000000000
000001000
000100000
000001000
,
100000000
100000000
001000000
000010000
,
000000000
001000100
110000000
110100000
,
000000000
000000100
000010000
001000000
,
001010001
000000010
000000010
000000010
,
001011000
000100000
000001000
000000010
,
001000100
000000010
000000010
000000010
,
010100010
000000100
001000100
001000100
,
002000200
000000000
000000000
000000000
,
003000300
000000000
000000000
000000000
,
202020000
000000000
000000000
000000000
,
303030000
000000000
000000000
000000000
;

//---------------pnm-nine - ----------------
#NOTES:
     pnm-nine:
     :
     Medium:
     6:
     0.444520,0.558458,0.565009,0.229279,0.000000,380.000000,309.000000,69.000000,28.000000,0.000000,14.000000,0.444520,0.558458,0.565009,0.229279,0.000000,380.000000,309.000000,69.000000,28.000000,0.000000,14.000000:
000100000
000000010
000100000
000000000
000110000
000000000
000010010
000000000
,
000100000
001000000
001000000
000000000
000100010
000000000
001000100
000000000
,
101000000
001000000
001000000
000000000
000000010
000100000
000000010
000000000
,
000010000
000000001
000010000
000000000
100000000
000010000
100000000
000000000
,
000000000
010000010
010000010
000000000
000101000
000010100
000001010
000000000
,
000000001
000000100
100000001
000000000
010000000
001000000
000010000
000000000
,
001010000
000100000
000001000
000000000
100000000
000100000
100000000
000000000
,
000000100
000010000
000000100
000000000
000101000
010000010
000101000
000000000
,
000000000
000000001
000000010
000000100
100010000
000100010
010001000
000000000
,
001010000
101000000
001010000
000000000
010000000
000100000
000000010
000000000
,
100000000
001000000
000000001
000000000
010000000
010000000
100000000
000000000
,
000000010
000000100
010001000
000000000
000010000
000100000
000010000
000000000
,
000000000
001001000
001001000
000100000
010000000
000100000
010000000
000100000
,
100000000
000010000
100000000
000010000
010000000
000100000
010000000
000100000
,
000000000
000000000
000000001
000000100
000010000
001000000
100000000
001000000
,
000010000
001000000
000001000
001000000
000001000
100000000
100000000
100000000
,
202000000
000000000
303010000
000001000
000010000
000000000
000010000
000000000
,
000000000
000000000
001000000
000001000
001000000
000000000
001000000
000000000
,
202000000
000000000
303100000
000000100
000000001
000000000
000100000
000000000
,
200100000
000000000
300000100
000100000
001000000
000000000
000010000
000000000
,
002000002
000000000
003100003
001000000
000100000
000000000
000100000
000000000
,
000000000
000000000
001000000
000100000
000010000
000000000
001000000
000000000
,
002000002
000000000
003010003
000001000
000010000
000000000
000010000
000000000
,
000000000
000000000
000000010
000100000
010000000
000000000
010000010
000000000
,
000002020
000000000
000103030
000100000
000000001
000000000
010000000
000000000
,
000000000
000000000
100000000
001000000
000100000
000000000
000010000
000000000
,
002020000
000000000
103030000
001000000
100000000
000000000
100000000
000000000
,
000020000
000000000
000030010
010000000
000100000
000000000
010000000
000000000
,
002000200
000000000
003010300
001000000
000010000
000000000
000010000
000000000
,
000000000
000000000
100000000
000010000
000000001
000000000
000010000
000000000
,
200020000
000000000
301030000
000010000
001000000
000000000
001000000
000000000
,
000000000
000000000
001000000
100000000
001000100
000000000
001000100
000000000
,
000000000
000000000
000000000
000000000
,
000000000
000000000
000000000
000000000
,
100000000
000000000
000010000
000000010
,
000010000
000000000
000000100
000010000
,
000000000
000001000
000100000
000000000
001000000
000000000
100000000
000000000
,
000100000
000000010
000100000
000000010
,
100000000
000000010
100000000
000000000
100000000
000010000
100000000
000000000
,
000000010
000001000
000000010
000000000
000100000
000000100
000100000
000000000
,
000000000
000010000
100000000
000000000
010000000
001000000
000010000
000000000
,
000010000
000000100
100000000
000000000
010000000
000100000
000001000
000000000
,
000000000
000100000
000000010
000000000
000010000
010000000
100000000
000000000
,
000000001
000000010
000000100
000000000
000010000
000000010
001000000
000000000
,
000000000
000100000
001000000
010000000
100010000
010100000
100010000
000000000
,
100100000
001001000
000001010
000000000
001000000
100000000
001000000
000000000
,
100100000
000100000
000100000
000000000
000000001
000100000
000000001
000000000
,
010000000
000001000
010000000
000000000
000100000
010000000
000100000
000000000
,
000000000
001000000
010100010
000000000
001000000
010100010
001000000
000000000
,
100000000
010000000
001000100
000000000
010000000
001000000
001000100
000000000
,
000000000
000100000
010000000
000000000
100000000
010000000
000100000
000000000
,
000100000
000000100
000000001
000000000
100000000
100000000
000010000
000000000
,
000000000
100000000
010000000
001000000
000101000
000010100
000101000
000000000
,
000010001
001000100
000010001
000000000
010000000
010000000
001000000
000000000
,
002000002
000000000
003010003
001000000
000010000
000000000
000010000
000000000
,
002020000
000000000
103030000
010000000
100000000
000000000
100000000
000000000
,
200200000
000000000
301300000
000100000
000100000
000000000
000000010
000000000
,
002020000
003030001
100000000
000000001
,
101000000
001000001
101000000
000000000
,
010100000
010000010
010100000
000000000
,
001100000
001001000
001100000
000000000
,
101000000
001000010
202000000
000000000
,
303000000
000000000
000000000
000000000
;

//---------------pnm-nine - ----------------
#NOTES:
     pnm-nine:
     :
     Hard:
     9:
     0.581386,0.724276,0.867984,0.147394,0.417615,497.000000,369.000000,106.000000,18.000000,0.000000,31.000000,0.581386,0.724276,0.867984,0.147394,0.417615,497.000000,369.000000,106.000000,18.000000,0.000000,31.000000:
101010000
000000000
010000000
001000000
000100000
000000000
000100000
100000000
000000000
000000000
000100000
000000000
100000000
000100000
000000000
000001000
,
000000000
000000000
000100000
100000000
001000000
000000000
000000100
000100000
000000000
001000000
100000000
000000000
001010000
001010000
000000000
000000000
,
000010100
000000000
100000000
000000000
000000000
010000000
000000000
000000000
000100000
000000000
000000000
000010000
000000000
000000000
000000100
000000000
,
000000000
100010000
000000000
000000000
000010000
000000000
000000000
000000001
000000000
000000000
000000000
100000000
000000000
000000000
000100000
000000000
,
000000000
000000000
100000000
000000000
000100000
000000000
000000010
000000000
000100000
000000000
000000000
000000010
000000000
000000000
000100000
000000000
,
000000000
100000001
000000000
000000000
100000001
000000000
000000000
000010000
000000000
000000000
010000000
000000000
000000000
000000000
000100000
000000000
,
000000000
000000000
010100010
000000000
010100010
000000000
010100010
000000000
101010000
000000000
000000000
000101000
000000000
000000000
000100010
000000000
,
000000000
100000000
000000000
000000000
000100000
000000000
000000000
000010000
000000000
000000000
000100000
000000000
000000000
000000000
000000100
000000000
,
000000000
000000000
100000000
001000000
000010000
000000000
100000000
001000000
000000000
000000000
001000100
000000000
000010000
000000001
000000000
001000000
,
000000000
000000000
001000000
000000100
001000000
000000000
100000000
000010000
000000000
000000000
000000001
000000000
001000000
000010000
000000000
000000000
,
110100000
000000000
110100000
000000000
000000000
000100010
000000000
000000000
010100010
000000000
000000000
000000100
000000000
000000000
000001000
000000000
,
000000000
001010001
000000000
000000000
010000010
000000000
000000000
010010000
000000000
000000000
011000000
000000000
000000000
000000000
100000000
000000000
,
000000000
000000000
100000000
000000000
010000000
000000000
001000000
000000000
000000000
000100000
000000000
000000000
000010000
000000000
000000000
000000010
,
000000000
000000000
000100001
000000000
000000000
011000000
000000000
000000000
000001000
000000000
000000000
000000100
000000000
000000000
100000100
000000000
,
000000000
000000000
101000000
000000000
000000000
010010000
000000000
000000000
000100100
000000000
000000000
100000000
000000000
000000000
001000000
000000000
,
000000000
100000000
000000000
000000000
001000000
000000000
000000000
000010000
000000000
000000000
100000000
000000000
000000000
000000000
100000000
000000000
,
101010000
000000000
000000000
000000000
100000000
000000000
000100000
000000000
001000100
000000000
000000000
010000000
000000000
000000000
000000010
000000000
,
000000000
000000000
000000000
000000000
001000000
000000000
000100000
000000000
100010000
000000000
000000000
100010000
000000000
000000000
000000100
000000000
,
101100000
000000000
000000000
000000000
010100000
000000000
000001000
000000000
000100010
000000000
000000000
000100000
000000000
000000000
000010000
000000000
,
000020000
000000000
000000000
000000000
101030000
000000000
000000100
000000000
100000000
000000000
000000000
100010000
000000000
100000000
001000000
100000000
,
001010000
000000000
000000000
000000000
100000000
000000000
000100000
000000000
100000100
000000000
000000000
001000100
000000000
000000000
000010100
000000000
,
000000000
000000000
000000000
000000000
001000000
000000000
100000000
000000000
001000000
000000000
000000000
000010000
000000000
000000000
000010000
000000000
,
001010001
000000000
000000000
000000000
000100000
000000000
000001000
000000000
000100000
000000000
000000000
000000010
000000000
000000000
000010000
000000000
,
000000000
000000000
000000000
000000000
000000010
000000000
000100000
000000000
010000000
000000000
000000000
101000000
000000000
000000000
101000000
000000000
,
101100000
000000000
000000000
000000000
100000000
000000000
001000000
000000000
000000100
000000000
000000000
000100100
000000000
000000000
001010000
000000000
,
000000000
000000000
100000000
001000000
000010000
000000000
000010100
000010100
,
000010100
000000000
000000000
000000000
100000000
000000000
000010000
000000000
100000000
000000000
000000000
000010000
000000000
000000000
000000100
000000000
,
002020000
000000000
000000000
000000000
103030000
000000000
001000000
000000000
000001000
000000000
000000000
001000000
000000000
000100000
000010000
000100000
,
000110000
000000000
000000000
000000000
001000000
000000000
000000001
000000000
001000000
000000000
000000000
001000010
000000000
000000000
001000010
000000000
,
000000000
000000000
000000000
000000000
100000000
000000000
010000000
000000000
001010000
000000000
000000000
001100000
000000000
000000000
001010000
000000000
,
000010000
000000000
000000000
000000000
000010000
000000000
000000100
000000000
000010000
000000000
000000000
001000000
000000000
000000000
000010000
000000000
,
000000000
000000000
000000000
000000000
001000000
000000000
000000100
000000000
001000000
000000000
000000000
000010000
000000000
000000000
000101010
000000000
,
000000000
000000000
000000000
000000000
,
000000000
000000000
000000000
000000000
,
100000000
000000000
010000000
000000000
000000000
010000000
000000000
000000000
001000000
000000000
000000000
001000000
000000000
000000000
000100000
000000000
,
000000000
000010000
000000000
000000000
000001000
000000000
000000000
000100000
000000000
000000000
001000000
000000000
000000000
000000000
000000000
000000001
,
000000000
000000000
100000000
000000000
001000000
000000000
100000000
000000000
001000000
000000000
000000000
000000100
000000000
000000000
100000000
000000000
,
000000000
000101010
000000000
000000000
010100000
000000000
000000000
001010000
000000000
000000000
100000000
000000000
000000000
000000010
000000000
000000000
,
100000001
001000100
100000001
000000000
010000010
000000000
001000100
000000000
000101000
000000000
000010000
000000000
000101000
000000000
000010000
000000000
,
010100000
000001010
010100000
000000000
100000000
000000000
001000000
000000000
000010000
000000000
100000000
000000000
000010000
000000000
001000000
000000000
,
000000000
000010000
000001000
000010000
000100000
100000000
001000000
000010000
,
000000100
001000001
101000000
001000100
000100000
000010000
001001000
100000000
,
000000000
100000000
001000000
100000000
000010100
010100000
000100010
100000000
,
000100000
000000010
000100000
000000010
000010000
000100000
100000000
001000000
,
202000000
000000000
000000001
000000100
303010000
000000000
000010000
000000010
000000000
000010000
000000000
000000000
000000001
000010000
000000000
011000000
,
000000000
000000000
100000000
001000000
000010000
000000000
100000000
001000000
000000000
000010000
100000000
000000000
000000100
010101000
000000000
000000000
,
100001000
000000000
101000000
000000000
000000000
010000000
000000000
000000000
000100000
000000000
000000000
000000010
000000000
000000000
100000000
000000000
,
000000000
010010000
000000000
000000000
001000100
000000000
000000000
101000100
000000000
000000000
000101000
000000000
000000000
010000010
000000000
000000000
,
000000000
000000000
000100000
000000000
000000010
000000000
000100000
000000000
100000000
000000000
000000000
001000000
000000000
000000000
000010000
000000000
,
000000000
000000100
000000000
000000000
001000001
000000000
000000000
100000000
000000000
000000000
000010000
000000000
000000000
001000000
000000000
000000000
,
000000000
000000000
000000100
000000000
010000000
000000000
000010000
000000000
000000001
000000000
000000000
000100000
000000000
000000000
100000000
000000000
,
000000000
000100000
000000000
000000000
000000001
000000000
000000000
001000000
000000000
000000000
100000000
000000000
000000000
000010000
000000000
000000000
,
101000000
000000000
000100000
000010000
000001000
000000000
100000000
001000000
000000000
000000000
000010000
000000000
010000000
010000000
000000000
000010000
,
000000000
000000000
001000000
000000010
001000000
000000000
000100000
000000100
000000000
100000000
001000000
000000000
000000100
001000000
000000000
000000000
,
101000100
000000000
000000000
000000000
100000000
000000000
001000000
000000000
100000000
000000000
000000000
101000000
000000000
000000000
101000000
000000000
,
001010001
000000000
000000000
000000000
000010000
000000000
001000000
000000000
000010000
000000000
000000000
001010000
000000000
000000000
001010000
000000000
,
011000001
000000000
000000000
000000000
010000000
000000000
001000000
000000000
010000000
000000000
000000000
011000000
000000000
000000000
011000000
000000000
,
010100010
000000000
000000000
000000000
010000000
000000000
000100000
000000000
010000000
000000000
000000000
010100000
000000000
000000000
010100000
000000000
,
200000002
302000203
003020300
002030200
,
003020300
200030000
302000000
003000010
,
202200000
000000000
000000000
000000000
,
303300000
000000000
000000000
000000000
;
