#TITLE:月影華;
#SUBTITLE:(TSUKI.KAGE.BANA);
#ARTIST:丸山和嘉;
#TITLETRANSLIT:TSUKI.KAGE.BANA;
#SUBTITLETRANSLIT:;
#ARTISTTRANSLIT:Kazuyoshi Maruyama;
#GENRE:;
#CREDIT:caramelangel714;
#BANNER:TSUKI.KAGE.BANA.png;
#BACKGROUND:TSUKI.KAGE.BANA-bg.png;
#LYRICSPATH:;
#CDTITLE:;
#MUSIC:TSUKI.KAGE.BANA.mp3;
#OFFSET:-0.640000;
#SAMPLESTART:67.259979;
#SAMPLELENGTH:12.000000;
#SELECTABLE:YES;
#BPMS:0.000000=152.000000
;
#STOPS:
;
#BGCHANGES:;
#KEYSOUNDS:;
#ATTACKS:;

//---------------dance-single - ----------------
#NOTES:
     dance-single:
     :
     Beginner:
     2:
     0.197516,0.245138,0.059376,0.110269,0.000000,163.000000,156.000000,7.000000,13.000000,0.000000,0.000000,0.197516,0.245138,0.059376,0.110269,0.000000,163.000000,156.000000,7.000000,13.000000,0.000000,0.000000:
// measure 0
0000
0000
0000
0000
,  // measure 1
0000
0000
0000
0000
,  // measure 2
0000
0000
0000
0000
,  // measure 3
0000
0000
0000
0000
,  // measure 4
1000
0001
1000
0000
,  // measure 5
0001
1000
0001
0000
,  // measure 6
0100
0010
0100
0000
,  // measure 7
0010
0100
0010
0000
,  // measure 8
0220
0000
0000
0330
,  // measure 9
1000
0000
0001
0000
,  // measure 10
0000
0010
0000
1000
,  // measure 11
0000
0100
0000
0001
,  // measure 12
0000
0010
0000
0001
,  // measure 13
0000
0010
0100
0010
,  // measure 14
0000
1000
0000
0010
,  // measure 15
0000
0100
0000
0001
,  // measure 16
0000
0100
0000
0010
,  // measure 17
0000
1000
0001
1000
,  // measure 18
0001
0001
0000
0010
,  // measure 19
0000
0100
0000
0001
,  // measure 20
0000
1000
0000
0010
,  // measure 21
0000
0100
0100
0100
,  // measure 22
0000
0001
0000
0010
,  // measure 23
0000
0100
0000
1000
,  // measure 24
0000
1000
0000
0010
,  // measure 25
0000
0100
0001
0100
,  // measure 26
0001
0001
0000
1000
,  // measure 27
2000
0000
0000
3001
,  // measure 28
0001
0000
0000
0100
,  // measure 29
0200
0000
0000
0310
,  // measure 30
0010
1000
0010
0000
,  // measure 31
0100
0010
0100
0000
,  // measure 32
0002
0000
2003
0000
,  // measure 33
3020
0000
0000
0030
,  // measure 34
0100
0000
0001
0001
,  // measure 35
2000
0000
3000
0100
,  // measure 36
0010
0000
0001
0100
,  // measure 37
0002
0000
0003
1000
,  // measure 38
1001
0000
0000
0100
,  // measure 39
0010
0000
0000
0100
,  // measure 40
0010
0000
0000
0000
,  // measure 41
1001
0000
0000
0000
,  // measure 42
1000
0000
1000
0000
,  // measure 43
0001
0000
0100
0010
,  // measure 44
0100
0000
0001
0000
,  // measure 45
1000
0000
0001
1000
,  // measure 46
0001
0000
0100
0000
,  // measure 47
0010
0100
0010
0000
,  // measure 48
1000
0000
0100
0001
,  // measure 49
0100
0000
0000
0000
,  // measure 50
0010
0000
1000
0100
,  // measure 51
1000
0000
0001
0000
,  // measure 52
0100
0000
0010
1000
,  // measure 53
0010
0000
0001
0000
,  // measure 54
0010
0000
0001
0010
,  // measure 55
0001
0000
1000
0000
,  // measure 56
0010
0000
0100
0001
,  // measure 57
0100
0000
0010
0000
,  // measure 58
1001
0000
1000
0000
,  // measure 59
1000
0000
0001
0000
,  // measure 60
2002
0000
0000
0000
,  // measure 61
3003
0000
0000
0000
,  // measure 62
0100
0000
0100
0000
,  // measure 63
0100
0001
0100
0000
,  // measure 64
0010
0000
0010
0000
,  // measure 65
0010
1000
0010
0000
,  // measure 66
1000
0000
0001
0000
,  // measure 67
0100
0010
0001
0000
,  // measure 68
0010
0000
1000
0000
,  // measure 69
0100
1000
0100
0000
,  // measure 70
0220
0000
0330
0000
,  // measure 71
1000
1000
0001
0000
,  // measure 72
0100
0110
0000
0000
;

//---------------dance-single - ----------------
#NOTES:
     dance-single:
     :
     Easy:
     5:
     0.273856,0.309603,0.186610,0.118752,0.000000,226.000000,204.000000,22.000000,14.000000,0.000000,0.000000,0.273856,0.309603,0.186610,0.118752,0.000000,226.000000,204.000000,22.000000,14.000000,0.000000,0.000000:
0000
0000
0000
0000
,
0000
0000
0000
0000
,
0000
0000
0000
0000
,
0000
0000
0000
0000
,
1000
0010
1000
0010
,
0100
0010
0100
0010
,
0001
0100
0001
0100
,
0001
0010
0001
0010
,
2002
0000
0000
3003
,
0100
0010
0110
0000
,
1000
1000
0000
0001
,
0000
1000
0010
0100
,
0001
0001
0000
1000
,
0000
0010
0100
0010
,
0110
0010
0000
1000
,
0000
0100
0001
0100
,
0010
1010
0000
0100
,
0000
0001
0010
0100
,
1000
1001
0000
0100
,
0000
0010
0100
0001
,
2000
0000
0000
3001
,
0001
0000
0000
0100
,
0010
0100
0001
0000
,
1000
0010
0100
0001
,
0010
0000
0000
0100
0000
0000
0020
0000
,
0000
0030
0010
0001
,
1001
0100
0100
0000
,
0110
0001
0001
0000
,
0001
1000
0010
0000
,
0100
0001
0100
0000
,
0110
0000
0000
1000
,
0010
0000
0100
0100
,
0101
0000
0002
0000
,
1003
1000
0010
0010
,
1010
0000
0100
0001
,
0110
0000
0001
0010
,
1010
0000
0100
0001
,
0110
0000
0001
0010
,
1000
0000
0000
0001
,
0001
0000
0010
0100
,
0110
0000
0000
0001
0000
0000
1000
0000
,
0010
0000
2000
0000
,
3001
0001
0000
1000
,
0010
0010
0020
0000
,
1030
1000
0000
0100
,
0010
0000
0000
0001
0000
1000
0000
0010
,
0000
0100
0001
0001
,
0110
0000
0001
0100
,
1000
0001
0001
1000
,
2002
0000
3003
0000
,
0100
0010
0000
0001
,
1000
0100
1010
0000
,
0001
0100
0000
0010
,
0100
0000
0000
1000
0000
0001
0000
0100
,
0000
0010
0110
0000
,
0001
1000
0010
0100
,
0110
0001
0010
0100
,
2000
0000
0000
3001
,
1001
0000
0010
0000
,
0100
0000
0100
0000
,
0002
0000
0000
0000
,
0103
0000
0000
0000
,
0010
0100
0010
0100
,
0010
1000
0010
1000
,
0001
0100
0001
0100
,
0001
0010
0001
0010
,
1000
0100
1000
0100
,
0010
0100
0010
0100
,
1000
0100
1000
0010
,
0100
0001
0100
0010
,
2000
0000
0000
0000
,
3001
0001
1001
0000
,
0100
0220
0000
0000
,
0330
0000
0000
0000
;

//---------------dance-single - ----------------
#NOTES:
     dance-single:
     :
     Medium:
     8:
     0.454407,0.495364,0.390184,0.186610,0.000000,375.000000,329.000000,46.000000,22.000000,0.000000,0.000000,0.454407,0.495364,0.390184,0.186610,0.000000,375.000000,329.000000,46.000000,22.000000,0.000000,0.000000:
0000
0000
0000
0000
,
0000
0000
0000
0000
,
0000
0000
0000
0000
,
0000
0000
0000
0000
,
1000
0010
0100
0010
0000
0000
0101
0000
,
0010
1000
0100
0010
0000
0000
0101
0000
,
0010
1000
0020
0000
0130
1000
0200
0000
,
0301
0100
0002
0000
1003
0010
2000
0000
,
3002
0010
0100
0013
,
1010
0101
0220
0330
,
1000
1000
0000
0001
0000
0100
0000
0010
,
0000
0100
0000
0001
0000
1000
0000
0010
,
0100
0010
0000
1000
0000
0001
0000
0100
,
0000
0010
0000
1000
0000
0100
0000
0010
,
0001
1000
0000
0100
0000
1000
0000
0001
,
0000
0100
0000
0010
0000
0100
0000
0001
,
0010
0001
0000
1000
0000
0001
0000
1000
,
0010
1000
0010
0000
0010
0000
0001
0000
,
0010
0100
0000
0010
0000
1000
0000
0010
,
0000
0010
0000
1000
0000
0010
0000
0100
,
0010
0100
0000
1000
0000
0001
0000
0100
,
0000
0010
0000
1000
0000
0001
0000
1000
,
0010
0100
0000
0001
0000
0100
0000
0010
,
0000
1000
0000
0010
0000
1000
0000
0100
,
0001
0100
0000
0010
0000
0100
0000
0001
,
0000
1000
0000
0010
0000
0100
0010
0100
,
0010
0000
0001
1000
0000
1100
0000
0002
,
0000
0000
1000
0000
1003
0001
1000
0001
,
1001
0000
0100
0010
0000
0110
0000
0200
,
0000
0000
0010
0000
0310
0000
0001
0010
,
0100
0000
0010
0000
0010
1000
0100
0010
,
0001
0001
1001
1010
,
2000
0000
0000
0010
3020
0000
0000
0000
,
0130
0000
0100
0000
0100
0010
0001
0100
,
0010
0000
0001
1000
0000
0110
0000
0200
,
0000
0000
0010
0000
0301
0100
0001
0100
,
0010
0000
1000
0010
0000
0010
0000
0200
,
0000
0000
0301
0000
1000
0000
0001
0010
,
1000
0000
1000
0010
1000
0000
0100
0001
,
0100
0010
0101
0011
,
0001
1000
0000
0010
0100
0000
0001
1000
,
0000
0000
1000
0000
0002
0000
0000
0003
,
0100
1000
0100
0010
0000
0001
1000
0010
,
0100
0101
0110
1010
,
0001
0100
0010
0100
0000
1000
0010
0100
,
0001
0110
1001
1010
,
0001
0100
0010
0100
0000
0001
1000
0010
,
0100
0110
1010
1100
,
0010
0100
0001
0100
0000
0010
1000
0010
,
0100
0000
0100
0000
0100
0010
0001
0010
,
0100
1000
0100
1000
0000
0001
0100
0010
,
0100
0101
0110
1010
,
0100
0010
0100
1000
0000
0001
1000
0010
,
0100
0110
0101
0011
,
1000
0010
0100
0001
0000
1000
0010
0100
,
0010
1010
1100
1001
,
1000
0001
0100
0010
0000
0001
1000
0010
,
0100
0000
0101
0000
0011
0000
1001
0001
,
0010
0000
0000
0100
0100
0000
0000
0001
,
0001
0000
0000
1000
1000
0000
0100
0000
,
0220
0000
0000
0000
,
0330
0000
0000
0000
,
0001
1000
0010
0100
0000
0000
1001
0000
,
0001
0010
0001
1000
0000
0000
0101
0000
,
0100
0001
0100
0010
0000
0000
0110
0000
,
0100
0001
0100
0010
0000
0000
1010
0000
,
0001
0100
0010
1000
0000
0000
0110
0000
,
0001
1000
0100
1000
0000
0000
0101
0000
,
0001
0010
0002
0000
1003
0100
2000
0000
,
3001
0100
0010
0001
1000
0010
0001
0000
,
2020
0000
0000
3030
,
0101
0000
0110
0000
1010
0000
0000
1000
,
0010
1000
2020
0000
0000
0000
0000
0000
,
3030
0000
0000
0000
;

//---------------dance-single - ----------------
#NOTES:
     dance-single:
     :
     Hard:
     11:
     0.610723,0.804967,0.568312,0.229021,0.152681,504.000000,437.000000,67.000000,27.000000,0.000000,0.000000,0.610723,0.804967,0.568312,0.229021,0.152681,504.000000,437.000000,67.000000,27.000000,0.000000,0.000000:
0000
0000
0000
0000
,
0000
0000
0000
0000
,
0000
0000
0000
0000
,
0000
0000
0000
0000
,
1000
0010
0100
0001
0010
0100
0010
0100
,
0001
1000
0010
0100
0001
0100
0001
0100
,
0010
1000
0010
0000
0100
0001
0100
0000
0010
0100
0010
0000
0100
0010
0100
0000
,
1000
0010
1000
0000
0100
0001
0100
0000
0010
0100
0010
0000
0001
0100
0001
0000
,
0220
0000
0000
0330
,
1000
0010
0100
0010
0100
0001
2000
0000
0000
3000
0000
0000
,
0011
0001
0000
1100
0000
0110
0000
0001
,
0010
0100
1000
0000
0101
0000
0011
0000
,
2100
0000
0010
0010
3010
0000
0100
0001
,
0110
0000
0001
0100
0001
0010
0001
1000
,
1000
0101
0000
0011
0000
1010
0000
0001
,
0100
0010
1000
0000
1100
0000
1001
0000
,
0120
0000
1000
1000
1030
0000
0100
0010
,
0001
0010
0100
1000
0100
0010
0100
0010
,
0001
0001
0000
1010
0000
1100
0000
1000
,
0001
0100
0010
0000
0110
0000
0101
0000
,
0002
1000
0000
1000
0003
1000
0000
1010
,
0000
0001
0100
0010
0100
1000
0000
0001
,
1001
0000
0100
0010
0100
0001
0000
0110
,
0010
0000
0000
0000
0110
0000
0000
0000
1000
0000
0000
0010
0000
0000
0001
0000
,
2000
0100
3000
0101
0000
0011
0000
1000
,
0010
0000
0100
0000
0001
0000
0100
0000
0010
0000
0000
1000
0000
0000
0010
0000
,
0001
1000
0001
0100
0000
0101
0000
2010
,
0000
0001
0000
0001
3000
0001
0100
0010
,
0100
0000
0001
0001
0000
0110
0000
0102
,
0000
0100
0000
0100
0003
1000
0010
0100
,
0010
0000
1000
0100
0010
0000
0001
0100
,
0010
0000
0000
0000
0100
0000
0010
0000
0110
0000
0000
1001
0000
0000
0110
0000
,
2000
0000
0000
0100
3200
0000
0010
0300
,
0010
0000
0100
0000
0010
0000
1000
0000
1001
0000
0000
1010
0000
0000
1100
0000
,
1000
0000
0010
0100
0000
0101
0000
0021
,
0000
0001
0000
0001
0030
0010
0100
0010
,
0110
0000
1000
0010
0000
1010
0000
0120
,
0000
0100
0000
0100
0030
0100
0010
0100
,
0120
0000
1030
0100
1000
0010
0001
0100
,
0010
0000
0000
0000
0100
0000
0010
0000
1010
0000
0000
0110
0000
0000
1000
0000
,
0001
0101
0000
0010
1010
0000
0001
0101
,
0000
0110
1002
0000
,
1003
0010
1000
0100
1000
0010
0100
0001
,
0102
0000
1003
2000
0000
0100
3100
0010
,
0001
0100
0010
0100
0001
0010
0100
1000
,
0010
0000
0100
0100
0000
0110
0000
0101
,
0010
0100
0001
0010
0100
0010
0100
0001
,
0101
0000
1000
0010
0000
1000
0010
1000
,
0101
0000
0000
0000
0001
0000
0000
0000
0001
0000
0000
0010
0000
0000
0100
0000
,
0120
0000
0000
0100
0000
0000
0100
0000
0030
0100
0000
0000
1000
0010
1000
0000
,
0001
0100
0010
1000
0010
0100
0001
0100
,
0110
0000
0101
0002
0000
1000
0103
1000
,
0010
0100
0001
0010
0100
1000
0100
0010
,
0001
0000
1000
1000
0000
0101
0000
0001
,
0100
0010
1000
0100
1000
0010
0100
0001
,
0010
0000
0010
0110
0000
1010
0000
1000
,
0010
0000
0100
0000
0002
0000
0000
0000
0013
0000
0000
0010
0000
0000
0010
0000
,
0210
0000
0010
0001
0310
0001
0100
0010
,
0110
0000
0000
0000
1000
0000
0001
0000
0100
0000
0000
0110
0000
0000
0101
0000
,
0001
1000
0000
2000
0000
3001
0100
0020
,
0100
1000
0100
1030
,
1010
0000
0000
0000
0000
0000
0001
0000
0001
0000
0000
0010
0000
0000
0100
0000
,
0001
0010
0100
0010
0100
0001
1000
0010
,
0100
0001
0010
0001
1010
0000
0110
0000
,
1000
0010
0100
0001
0100
0010
0100
0001
,
1000
0010
0100
0001
0100
0000
0110
0000
,
0001
1000
0010
0100
0001
0100
0010
0100
,
0001
1000
0010
1000
0100
1000
0010
0100
,
0001
0010
0001
0000
1000
0010
0100
0000
1000
0001
0100
0000
0010
0100
0001
0000
,
0010
0100
0001
0000
0010
1000
0010
0000
0100
0010
1000
0000
0100
0001
0010
0000
,
0200
0010
0010
0010
0000
0010
0310
0010
,
1000
0000
0010
0000
0100
0000
0001
0000
0010
0000
0100
0000
0002
0000
0000
0000
0000
0000
0000
0000
0000
1003
0000
0000
,
0010
1000
2020
0000
0000
0000
0000
0000
,
3030
0000
0000
0000
;

//---------------pnm-nine - ----------------
#NOTES:
     pnm-nine:
     :
     Hard:
     12:
     1.039684,1.114570,1.950922,0.475007,0.335050,858.000000,579.000000,230.000000,56.000000,0.000000,101.000000,1.039684,1.114570,1.950922,0.475007,0.335050,858.000000,579.000000,230.000000,56.000000,0.000000,101.000000:
100000000
010100000
001000000
010100000
100000000
010100000
001000000
010100000
,
100000000
000000000
010100000
000000000
001000000
000000000
010100000
000000000
101010000
000000000
000000000
101010000
000000000
000000000
101010000
000000000
,
001000000
000101000
000010000
000101000
001000000
000101000
000010000
000101000
,
001000000
000000000
000101000
000000000
000010000
000000000
000101000
000000000
001010100
000000000
000000000
001010100
000000000
000000000
001010100
000000000
,
000010000
000001010
000000100
000001010
000010000
000001010
000000100
000001010
,
000010000
000001010
000000100
000001010
000010101
000001010
000000100
000001010
,
100000000
000100000
000001000
000100000
100000000
000100000
000001000
000100000
000000010
000000100
001000000
000000100
000000010
000000100
001000000
000000100
,
000010000
000100000
010000000
000100000
000010000
000100000
010000000
000100000
000000001
000000100
000010000
000000100
000000001
000000100
000010000
000000100
,
000020002
101000000
000000000
101000000
000000000
101000000
000030003
101000000
,
010000000
000100000
010000000
000000010
000001000
000000010
020202000
000000000
000000000
030303000
000000000
000000000
,
001011000
001011000
010000000
000101000
010000000
000101000
010000000
000101000
,
000000110
000000110
000002020
000000000
100003030
010000000
001000000
000100000
,
100010000
100010000
100010000
000100100
000100000
000010000
000001000
000000010
,
000010000
000100000
010000000
001000000
000100000
000010000
000001000
100010000
,
100010000
100010000
000001000
010000000
000001000
000100000
000001000
010000000
,
000010100
000001010
000010100
000001010
000010000
100000000
010000000
100000000
,
020201000
000000010
030301000
000000010
010001000
000000000
000100100
001010000
,
001010000
010000001
010000010
010000100
010001000
010010000
010100000
011000000
,
010000000
010100000
000100100
001001000
000100100
001001000
000100100
001001000
,
010100000
010100000
020200000
000000000
030302020
000000000
020203030
000000000
,
030300002
000000010
000000100
000000010
000000103
000100100
001001000
010010000
,
001000000
000001000
001000000
000001000
010000000
000100000
000001000
000000010
,
100100000
000000000
010000000
000010000
010000000
000010000
010000000
000010000
,
010010000
000000000
000000000
000000000
000100100
000000000
000000000
000000000
000001001
000000000
000000000
000001001
000000000
000000000
000001001
000000000
,
200000000
010000000
001000000
300200000
000010000
000301000
000000200
000000010
,
000000301
000000000
000000001
000000000
000000001
000010000
000000001
000010000
011001000
000000000
000000000
110100000
000000000
000000000
101010100
000000000
,
010100000
000110000
010100000
000101000
000000000
000001010
000000000
020202000
,
000000010
000000010
000000010
030303010
000000010
001011000
011010000
101001000
,
010010000
000000000
010010000
010100000
000000000
110000000
000000000
000202000
,
100000000
100000000
100000000
100000000
100303000
100100000
100100000
100100000
,
010000100
000000000
001001000
000000000
010001000
001000000
000100000
000010000
,
000202000
000000000
000000000
000000000
000303010
000000000
000000000
000000000
000100000
000000000
000000000
100000000
000000000
000000000
010000000
000000000
,
000022000
000000000
000000000
001000000
002033000
000000000
000001000
000000000
,
003001000
000000000
000000100
000010000
100000000
010000000
000100000
100000000
001001000
000000000
000000000
001001000
000000000
000000000
001001000
000000000
,
000000101
000000101
001010000
001010000
100000000
010000000
000010000
020201000
,
000000000
000000100
000000001
000000100
030300001
000000100
000100100
000100100
,
001010000
000010000
000000100
000000001
001001000
001001000
001001000
000100000
,
202000000
000010000
000001000
000010000
000001000
000000100
303001000
000101000
,
000202000
000000000
010000000
010000000
010303000
001000000
000010000
000000010
,
010001000
000000000
001001000
000000000
001001000
000000000
001001000
000000000
001001001
000000000
000000000
101010000
000000000
000000000
001101000
000000000
,
101010000
101010000
000000000
000011010
000011010
000000000
110100000
110100000
,
000000000
000000000
000000001
000001000
000000002
000000000
000000000
000000000
000020203
000000000
000000000
000000000
000000000
000000000
000000000
000000000
,
100030300
001000000
100000000
000000000
100000000
001000000
100000000
000000000
000010000
000000000
100000000
000000000
001001000
000000000
001010000
000000000
,
001010100
000110000
000010101
000020202
001000000
001000000
001030303
001000000
,
000001000
000100000
000001000
000000000
000001000
000100000
000001000
000000000
010000000
000000000
000100000
000000000
000001000
000000000
000100000
000000000
,
000100100
000001000
000010000
001010000
000001000
001010000
000001000
001010000
,
000100000
000001000
000100000
000000000
000010000
001000000
000010000
000000000
010000000
000000000
000100000
000000000
000001000
000000000
000100000
000000000
,
010100000
001010000
001010000
001010000
010100000
001010000
001010000
001010000
,
011000000
000000000
000101000
000010101
000000000
000010101
000000000
101010000
,
010100000
000000000
001000000
000000010
000000000
000000100
010000000
000000000
010000000
000000100
000000000
000010000
001000000
010000000
100000000
001000000
,
000000001
000001000
000000010
000000000
100000000
000100000
010000000
000000000
001001000
000000000
000010100
000000000
001001000
000000000
000011000
000000000
,
202000000
000000000
303010100
000020200
000000000
001000000
001030300
001000000
,
010000000
000100000
010000000
000000000
000100000
000001000
000100000
000000000
100000000
000000000
001000000
000000000
010000000
000000000
000010000
000000000
,
000100100
001000000
001000000
100100000
100100000
010000000
001001000
001001000
,
001001000
000000100
000010000
000000000
010000000
000100000
001000000
000000000
010000000
000000000
000100000
000000000
010000000
000000000
000100000
000000000
,
010100000
010100000
010100000
001000000
010000000
001000000
000100000
000010000
,
000100100
000001010
000000011
001001000
010100000
001000000
100000000
010000000
,
001000100
000000000
100000000
000100000
000000000
001000000
000000010
000000000
001000000
000010000
010000000
001000000
000100000
000001000
001000000
000100000
,
000000100
001000100
001000100
001000100
000010000
010010000
010010000
010010000
,
000100000
100100000
100100000
100100000
001000000
000010000
000001000
000010000
,
202010000
000000100
000000001
000000100
000000010
000000100
000001000
000010000
,
303000200
000000000
000000000
000000000
000000000
000000000
000000000
000000300
,
100000000
010100000
001000000
010100000
100000000
010100000
001000000
010100000
,
100000000
000000000
010100000
000000000
001000000
000000000
010100000
000000000
101010000
000000000
000000000
101010000
000000000
000000000
101010000
000000000
,
001000000
000101000
000010000
000101000
001000000
000101000
000010000
000101000
,
001000000
000000000
000101000
000000000
000010000
000000000
000101000
000000000
001010100
000000000
000000000
001010100
000000000
000000000
001010100
000000000
,
000010000
000001010
000000100
000001010
000010000
000001010
000000100
000001010
,
000010000
000001010
000000100
000001010
000010101
000001010
000000100
000001010
,
100000000
000100000
000001000
000100000
100000000
000100000
000001000
000100000
000000010
000000100
001000000
000000100
000000010
000000100
001000000
000000100
,
000010000
000100000
010000000
000100000
000010000
000100000
010000000
000100000
000000001
000000100
000010000
000000100
000000001
000000100
000010000
000000100
,
001020002
100000000
001000000
100030003
,
010000000
000000000
000100000
000000000
010000000
000000000
000000010
000000000
000001000
000000000
000000010
000000000
020202000
000000000
000000000
000000000
000000000
000000000
030303000
000000000
000000000
000110100
000000000
000000000
,
001010100
110100000
002202000
000000000
000000000
000000000
000000000
000000000
,
003303000
000000000
000000000
000000000
;

//---------------pnm-nine - ----------------
#NOTES:
     pnm-nine:
     :
     Medium:
     8:
     0.677370,0.774007,1.026354,0.203574,0.021206,559.000000,437.000000,121.000000,24.000000,0.000000,12.000000,0.677370,0.774007,1.026354,0.203574,0.021206,559.000000,437.000000,121.000000,24.000000,0.000000,12.000000:
010000000
001000000
000100000
000010000
000000000
000010000
001000000
000010000
,
000000100
000100000
000010000
000100000
000000000
100000000
010000000
000100000
,
001000000
000010000
001000000
000100000
000010000
000100000
001000000
100000000
,
010000000
001000000
000010000
010000000
000000000
000000000
001010000
000000000
,
000010000
000001000
000000100
000000001
000000000
100000000
010000000
001000000
,
100010000
001000000
000010000
001000000
000000000
000001000
000100000
001000000
,
000010000
001000000
000010000
001000000
000010000
001000000
000010000
001000000
,
100000000
001000000
100000000
001000000
100000000
001000000
000100000
000010000
,
000000202
000100000
000000000
000100000
000000000
000100000
000000000
000100303
,
000010100
001010000
000020200
000030300
,
000010000
000101000
000000000
000101000
000000000
000101000
000000000
000101000
,
000000000
010100000
000000000
010100000
000000000
000101000
000000000
000101000
,
000001000
000001010
000000000
000001010
000000000
000001010
000000000
000001010
,
000000000
001010000
000000000
001010000
000000000
001010000
010000000
001000000
,
000100010
000001010
000000000
000100100
000000000
001001000
000000000
000101000
,
000000000
001001000
000000000
001010000
000000000
000100100
000000000
000010100
,
001000000
001010000
000000000
100100000
000000000
001010000
000000000
000101000
,
010000000
000000001
000000010
000000100
000001000
000010000
000100000
001000000
,
110000000
001001000
000000000
000101000
000000000
000110000
000000000
000101000
,
000000000
010001000
000000000
010010000
000000000
010100000
000000000
001001000
,
000100000
000010100
000000000
000010100
000000000
000110000
000000000
000101000
,
000000000
011000000
000000000
001001000
000000000
000101000
000000000
000110000
,
000010000
000110000
010000000
000000000
100000000
001000000
100000000
000100000
,
010000000
000000000
000010000
000100000
000010000
000000000
001010000
000100000
,
000010000
001000000
000001000
000000100
000000010
000001001
000001000
010000000
,
001000000
000000000
000000001
000000000
000000010
000000000
000001000
000000000
010100000
000000000
000000000
000101000
000000000
000000000
010100000
000000000
,
000000001
000000010
000000100
000000010
000000001
000000010
000000100
000000010
,
000000001
000100000
000001000
000010000
000001000
000100000
000010000
000010000
,
001010000
000100000
010000000
000010000
001000000
000100000
000001000
000100000
,
000001000
001000000
000100000
000010000
000001000
000010000
000100000
001000000
,
010001000
000000000
010001000
000000000
010000000
001000000
000100000
001000000
,
010001000
000000000
000000000
000000000
001000100
000000000
000000000
000000000
000010100
000000000
000000000
000010100
000000000
000000000
000010100
000000000
,
002000000
000000000
000000000
000000001
000000002
000000000
000000000
003000003
,
010000000
000000000
000100000
000000000
000001000
000000000
000000100
000000000
000101000
000000000
000000000
000101000
000000000
000000000
000101000
000000000
,
100000000
001000000
000010000
000100000
001000000
010000000
000100000
001000000
,
000001000
000000100
000000010
000000001
000000100
000010000
000100000
001000000
,
010100000
010010000
010100000
010010000
010100000
001000000
010000000
001000000
,
010000000
001000000
010100000
001000000
010100000
001000000
000010000
000001010
,
000000001
000000000
010000000
010000000
010000000
000100000
010000000
001000000
,
001010000
000000000
000000000
000000000
000101000
000000000
000000000
000000000
000010100
000000000
000000000
001010000
000000000
000000000
010100000
000000000
,
100000000
001010000
000000000
100000000
001010000
000000000
100000000
001010000
,
000000000
000000000
100000000
010000000
002000000
000000000
000000000
000000000
203000000
000000000
000000000
000000000
000000000
000000000
000000000
300000000
,
000000010
000000000
001001000
000000000
001000000
000100000
000010000
000100000
,
001001000
000000000
000000101
000000202
000000000
010000000
010000000
010000303
,
001000000
000100000
000010000
001000000
000010000
001000000
010000000
001000000
,
010100000
000000000
000100100
000100100
000000000
000010010
000000000
000100100
,
100000000
000000000
201000000
000000000
310000000
001000000
000010000
001000000
,
000100000
000000000
001000000
010000000
000000000
011000000
011000000
011000000
,
000001000
000000000
000200000
000000000
010300000
010000000
010000000
010000000
,
000100200
000000000
001000000
000000000
010000300
001000000
000100000
000010000
,
010001000
000000000
010100000
000000000
000100000
000010000
000100000
000010000
,
000200000
000000000
000300100
000000100
000000000
010000000
000010000
010010000
,
001010000
000000000
010000000
000000000
000010000
001000000
000100000
000010000
,
000001000
000000000
001100000
001100000
000000000
001001000
000000000
000010100
,
001000000
000000000
000020000
000000000
001030000
010000000
001000000
000100000
,
101000000
000000000
010100000
010100000
000000000
001001000
001001000
001001000
,
000100000
000000000
000010100
000000000
000010000
001000000
000100000
000010000
,
000000002
000000000
100000000
000000000
010000000
000000000
001000003
010000000
,
001000000
000000000
100000000
010000000
001000000
000000000
000100000
010000000
,
001000000
000000000
000000010
000001000
000010000
001000000
000100000
000001000
,
000002020
000000000
000000000
000000000
,
010003030
000000000
000000000
000000000
,
010000000
001000000
000100000
000010000
000000000
000010000
001000000
000010000
,
000000100
000100000
000010000
000100000
000000000
100000000
010000000
000100000
,
001000000
000010000
001000000
000100000
000010000
000100000
001000000
100000000
,
010000000
001000000
000010000
010000000
000000000
000000000
001010000
000000000
,
000010000
000001000
000000100
000000001
000000000
100000000
010000000
001000000
,
100010000
001000000
000010000
001000000
000000000
000001000
000100000
001000000
,
000010000
001000000
000010000
001000000
000010000
001000000
000010000
001000000
,
100000000
001000000
100000000
001000000
100000000
001000000
000100000
000010000
,
000100202
000000000
000100000
000000000
000100000
000000000
000100000
000000303
,
000010100
000000000
001010000
000000000
000020200
000000000
000030300
100000000
,
010000000
001000000
000202000
000000000
000000000
000000000
000000000
000000000
,
000303000
000000000
000000000
000000000
;

//---------------pnm-five - ----------------
#NOTES:
     pnm-five:
     :
     Hard:
     11:
     0.819145,0.928808,1.162071,0.288397,0.279915,676.000000,521.000000,137.000000,34.000000,0.000000,26.000000,0.819145,0.928808,1.162071,0.288397,0.279915,676.000000,521.000000,137.000000,34.000000,0.000000,26.000000:
10000
01010
00100
01010
10000
01010
00100
01010
,
10000
00000
01010
00000
00100
00000
01010
00000
10101
00000
00000
10101
00000
00000
10101
00000
,
00100
00010
00001
00010
00100
00010
00001
00010
,
00100
00000
00010
00000
00001
00000
00010
00000
00101
00000
00000
00101
00000
00000
00101
00000
,
00001
01010
00100
01010
00001
01010
00100
01010
,
00001
01010
00100
01010
00001
01010
00100
01010
,
10000
00010
10000
00000
00010
10000
00010
00000
01000
00100
01000
00000
00100
01000
00100
00000
,
00001
00010
01000
00010
00001
00010
01000
00010
00001
00010
01000
00010
00001
00010
01000
00010
,
00002
10100
00000
10100
00000
10100
00003
10100
,
01000
00010
01000
00010
01000
00010
20200
00000
00000
30300
00000
00000
,
00101
00101
01000
00010
01000
00010
01000
00010
,
10000
00100
00001
00000
10000
01000
00100
00010
,
10001
10001
10001
00010
00010
00001
00010
01000
,
00001
00010
01000
00100
00010
00001
00100
10001
,
10001
10001
00010
01000
00100
00010
00100
01000
,
10001
00000
10001
00000
00001
10000
01000
10000
,
02020
00000
03030
00000
01000
00000
00010
00101
,
00101
10000
01000
00100
00010
00001
00010
00100
,
01000
10010
00010
00100
00010
00100
00010
00100
,
01010
01010
01010
00000
01010
00000
10000
00000
,
02000
00000
00000
00000
03000
00010
00100
01001
,
00100
00000
00100
00000
01000
00010
01000
00000
,
10010
00000
01000
00001
01000
00001
01000
00001
,
01001
00000
00000
00000
00010
00000
00000
00000
10100
00000
00000
10100
00000
00000
10100
00000
,
20000
01000
00100
30020
00001
00031
00200
00000
,
10000
00000
10000
00000
10300
00000
00001
00000
01100
00000
00000
11010
00000
00000
10101
00000
,
01010
00010
01010
00010
00000
10100
00000
02020
,
00000
00000
00000
03030
00000
00101
01101
10100
,
01001
00000
01001
01010
00000
11000
00000
00020
,
10000
10000
10000
10000
10030
10010
10010
10010
,
01000
00000
00100
00000
01000
00100
00010
00001
,
00020
00000
00000
00000
00030
00000
00000
00000
00010
00000
00000
10000
00000
00000
01000
00000
,
00002
00000
00000
00100
00203
00000
00000
00000
,
10300
00000
00000
00000
10000
00000
00010
00000
10100
00000
00000
00100
00000
00000
00100
00000
,
10110
00000
00101
00101
10000
01000
00001
02020
,
00000
00000
00000
00000
03030
00010
00010
00010
,
00102
00000
10000
01000
00003
00100
00000
00000
,
20200
00001
00000
00001
00000
00001
30300
00010
,
00020
00000
01000
01000
01030
00100
00001
00000
,
01000
00000
00100
00000
00100
00000
00100
00000
00100
00000
00000
10101
00000
00000
00110
00000
,
10101
10101
00000
00001
00001
00000
11010
11010
,
00000
00000
00001
00100
20000
00000
00000
00000
30002
00000
00000
00000
00000
00000
00000
00000
,
10003
00100
10000
00000
10000
00100
10000
00000
00001
00000
10000
00000
00100
00000
00101
00000
,
00101
00011
00001
00002
00100
00100
00103
00100
,
01000
00010
01000
00000
01000
00010
01000
00000
01000
00000
00010
00000
01000
00000
00010
00000
,
00010
01000
00001
00101
00000
00101
00000
00101
,
00010
01000
00010
00000
00001
00100
00001
00000
01000
00000
00010
00000
10000
00000
00010
00000
,
01010
00101
00101
00101
01010
00101
00101
00101
,
01100
00000
00010
00001
00000
00001
00000
10101
,
01010
00000
00100
00001
00000
00010
01000
00000
01000
00100
00010
00001
00100
01000
10000
00100
,
00010
10000
00010
00000
10000
00010
01000
00000
00100
00000
00001
00000
00100
00000
00001
00000
,
20200
00000
30301
00002
00000
00100
00103
00100
,
01000
00010
01000
00000
00010
10000
00010
00000
10000
00000
00100
00000
01000
00000
00001
00000
,
00010
00100
00100
10010
10010
01000
00100
00100
,
00100
00010
00001
00000
01000
00010
00100
00000
01000
00000
00010
00000
01000
00000
00010
00000
,
01010
01010
01010
00100
01000
00100
00010
00001
,
00010
00000
01010
00100
01010
00100
10000
01000
,
00100
00000
10000
00010
00000
00100
10000
00000
00100
00001
01000
00100
00010
10000
00100
00010
,
00000
00100
00100
00100
00001
01001
01001
01001
,
00010
10010
10010
10010
00100
00001
00000
00001
,
20201
00000
00000
00000
,
30301
00000
00000
00000
,
10000
01010
00100
01010
10000
01010
00100
01010
,
10000
00000
01010
00000
00100
00000
01010
00000
10101
00000
00000
10101
00000
00000
10101
00000
,
00100
00010
00001
00010
00100
00010
00001
00010
,
00100
00000
00010
00000
00001
00000
00010
00000
00101
00000
00000
00101
00000
00000
00101
00000
,
00001
01010
00100
01010
00001
01010
00100
01010
,
00001
01010
00100
01010
00001
01010
00100
01010
,
10000
00010
10000
00000
10000
00010
10000
00000
00001
00010
00100
00000
00001
00010
00100
00000
,
00001
00010
01000
00010
00001
00010
01000
00010
00001
00010
01000
00010
00001
00010
01000
00010
,
00102
10000
00100
10003
,
01000
00000
00010
00000
01000
00000
00010
00000
01000
00000
00010
00000
20200
00000
00000
00000
00000
00000
30300
00000
00000
00011
00000
00000
,
00101
11010
00220
00000
00000
00000
00000
00000
,
00330
00000
00000
00000
;

//---------------pnm-five - ----------------
#NOTES:
     pnm-five:
     :
     Medium:
     7:
     0.573159,0.743047,0.517418,0.161163,0.021206,473.000000,412.000000,61.000000,19.000000,0.000000,0.000000,0.573159,0.743047,0.517418,0.161163,0.021206,473.000000,412.000000,61.000000,19.000000,0.000000,0.000000:
01000
00100
00010
00001
00000
00001
00100
00001
,
10000
00010
00001
00010
00000
10000
01000
00010
,
00100
00001
00100
00010
00001
00010
00100
10000
,
01000
00100
00001
01000
00000
00000
00101
00000
,
00001
00010
01000
00100
00000
10000
01000
00100
,
10001
00100
00001
00100
00000
10000
00010
00100
,
00001
00100
00001
00100
00001
00100
00001
00100
,
10000
00100
10000
00100
10000
00100
00010
00001
,
20000
00010
00000
00010
00000
00010
00000
30010
,
00001
00101
20002
30003
,
00001
00010
00000
00010
00000
00010
00000
00010
,
00000
01010
00000
01010
00000
01010
00000
01010
,
00000
00001
00000
00001
00000
00001
00000
00001
,
00000
00101
00000
00101
00000
00101
01000
00100
,
00010
01000
00000
00010
00000
00100
00000
00010
,
00000
00100
00000
00101
00000
00010
00000
00001
,
00100
00101
00000
10010
00000
00101
00000
00010
,
01000
00010
00000
00101
00000
00001
00010
00100
,
11000
00100
00000
00010
00000
00011
00000
00010
,
00000
01000
00000
01001
00000
01010
00000
00100
,
00010
00001
00000
00001
00000
00011
00000
00010
,
00000
01100
00000
00100
00000
00010
00000
00011
,
00001
00011
01000
00000
10000
00100
10000
00010
,
01000
00000
00001
00010
00001
00000
00101
00010
,
00001
00100
00000
01000
00000
00002
00000
01000
,
00103
00000
00000
00000
00010
00000
00000
00000
01010
00000
00000
00010
00000
00000
01010
00000
,
10000
00000
01000
00100
00000
01010
00000
10000
,
00000
00010
00000
00001
00000
00010
00001
00001
,
00101
00010
01000
00001
00100
00010
00000
00010
,
10000
00100
00010
00001
00000
00001
00010
00100
,
01000
00000
01000
00000
01000
00100
00010
00100
,
01000
00000
00000
00000
00100
00000
00000
00000
00001
00000
00000
00001
00000
00000
00001
00000
,
00200
00000
00000
10000
20000
00000
00000
30300
,
01000
00000
00010
00000
00100
00000
00000
00000
00010
00000
00000
00010
00000
00000
00010
00000
,
10000
00100
00001
00010
00100
01000
00010
00100
,
02002
00000
00000
03003
00000
00001
00010
00100
,
01010
01001
01010
01001
01010
00100
01000
00100
,
01000
00100
01010
00100
01010
00100
00001
00000
,
01000
00000
01000
01000
01000
00010
01000
00100
,
00101
00000
00000
00000
00010
00000
00000
00000
00001
00000
00000
00101
00000
00000
01010
00000
,
10000
00101
00000
10000
00101
00000
10000
00101
,
00000
00000
10000
01000
00200
00000
00000
00000
20300
00000
00000
00000
00000
00000
00000
30000
,
00001
00000
00100
00000
00100
00010
00001
00010
,
00100
00000
10000
20000
00000
01000
01000
31000
,
00100
00010
00001
00100
00001
00100
01000
00100
,
01010
00000
00010
00010
00000
00001
00000
00010
,
10000
00000
20100
00000
31000
00100
00001
00100
,
00010
00000
00100
01000
00000
01100
01100
01100
,
00000
00000
00020
00000
01030
01000
01000
01000
,
00010
00000
00100
00000
01000
00100
00010
00001
,
01000
00000
01010
00000
00010
00001
00010
00001
,
00020
00000
10030
10000
00000
01000
00001
01001
,
00101
00000
01000
00000
00001
00100
00010
00001
,
10000
00000
00110
00110
00000
00100
00000
00001
,
00100
00000
00002
00000
00103
01000
00100
00010
,
10100
00000
01010
01010
00000
00100
00100
00100
,
00010
00000
00001
00000
00001
00100
00010
00001
,
10010
00000
10000
00000
01000
00000
00100
01000
,
00100
00000
10000
01000
00100
00000
00010
01000
,
00100
00000
01000
00000
00001
00100
00010
01000
,
00020
00000
00000
00000
,
01030
00000
00000
00000
,
01000
00100
00010
00001
00000
00001
00100
00001
,
10000
00010
00001
00010
00000
10000
01000
00010
,
00100
00001
00100
00010
00001
00010
00100
10000
,
01000
00100
00001
01000
00000
00000
00101
00000
,
00001
10000
01000
00100
00000
10000
01000
00100
,
10001
00100
00001
00100
00000
00000
00010
00100
,
00001
00100
00001
00100
00001
00100
00001
00100
,
10000
00100
10000
00100
10000
00100
00010
00001
,
20010
00010
00010
30010
,
00001
00000
00101
00000
00002
00000
00003
10000
,
01000
00100
00020
00000
00000
00000
00000
00000
,
00030
00000
00000
00000
;

//---------------pnm-five - ----------------
#NOTES:
     pnm-five:
     :
     Beginner:
     2:
     0.203574,0.244289,0.093305,0.118752,0.000000,168.000000,157.000000,11.000000,14.000000,0.000000,0.000000,0.203574,0.244289,0.093305,0.118752,0.000000,168.000000,157.000000,11.000000,14.000000,0.000000,0.000000:
00000
01000
00000
01000
,
00000
01000
00000
01000
,
00000
00010
00000
00010
,
00000
00010
00000
00010
,
00000
01000
00000
01000
,
00000
01000
00000
01000
,
00000
00010
00000
00010
,
00000
00010
00000
00010
,
00200
00000
00000
00000
,
10300
00000
10000
00000
,
00000
00100
00000
00100
,
00000
00100
10000
00100
,
00000
10000
00000
10000
,
00000
10000
00100
10000
,
00000
00001
00000
00001
,
00000
00001
01000
00001
,
00000
00010
00000
00010
,
00000
00010
01000
00010
,
00000
01000
00000
01000
,
00000
01000
00100
01000
,
00000
00010
00000
00010
,
00000
10000
00010
10000
,
00000
01000
00000
01000
,
00000
00100
10000
00100
,
00000
00010
00000
01000
,
00000
00010
01000
00010
,
20000
00000
00000
00000
,
32000
00000
00000
00000
,
03200
00000
00000
00000
,
00320
00000
00000
00000
,
00031
00000
00000
00001
,
10001
00000
00000
01010
,
20020
00000
00000
00000
,
30030
00000
00000
10000
,
10010
00000
00000
01000
,
01010
00000
00000
00001
,
00101
00000
00000
01000
,
02020
00000
00000
03030
,
00100
00000
00000
00100
,
00100
00000
10000
01000
,
00100
00000
10000
00000
,
10010
00000
00000
00000
,
10000
00100
10000
00000
,
00001
01000
00001
00000
,
00100
01000
00100
00000
,
10000
00100
01000
00010
,
01000
00100
01000
00000
,
00001
01000
00001
00000
,
10000
00100
10000
00000
,
01000
00010
01000
00010
,
01000
00100
00010
00000
,
10000
00010
10000
00000
,
01000
00100
01000
00000
,
00001
01000
00100
00010
,
00001
10000
00100
00000
,
10000
00010
01000
00000
,
01000
00100
01000
00000
,
00001
01000
00100
01000
,
00010
00000
00000
00000
,
10000
00000
00000
00000
,
20002
00000
00000
00000
,
30003
00000
00000
00000
,
01000
00000
00000
01000
,
02000
00000
00000
00000
,
03001
00000
00000
00001
,
00001
00000
10000
00000
,
01001
00000
00000
00100
,
00200
00000
00000
00300
,
10000
00000
01000
00000
,
10000
00000
01000
00000
,
20000
00000
00000
00000
,
30001
00000
00001
00000
,
10001
00000
00000
00000
;

//---------------pnm-five - ----------------
#NOTES:
     pnm-five:
     :
     Easy:
     4:
     0.261739,0.427506,0.229021,0.279915,0.000000,216.000000,186.000000,27.000000,33.000000,0.000000,4.000000,0.261739,0.427506,0.229021,0.279915,0.000000,216.000000,186.000000,27.000000,33.000000,0.000000,4.000000:
20000
00000
00000
00001
,
30002
00000
00000
00000
,
02003
00000
00000
00100
,
03200
00000
00000
00000
,
20300
00000
00000
00000
,
30001
00010
00100
00000
,
10000
00100
10000
00100
,
10000
00100
10000
00100
,
20200
00000
00000
00000
,
30301
00001
10101
00000
,
00000
10000
00000
00010
,
00000
01000
00010
01000
,
00020
00000
00000
10030
,
10000
01000
00100
00010
,
00000
00001
00000
10000
,
00000
00001
10000
00001
,
20000
00000
00000
30100
,
00100
01000
00100
00010
,
00000
01010
00000
01010
,
00000
01000
00010
01000
,
00020
00000
00000
10030
,
20000
00000
00000
30010
,
01000
01000
01000
00010
,
00100
01000
10000
01000
,
00010
00000
00000
10010
00000
00000
20200
00000
,
00000
00000
30300
00000
,
10000
00100
00010
01000
,
10000
00000
00000
00000
,
00010
01000
00100
01000
,
10000
00000
00000
00000
,
10110
00000
00000
01000
,
01000
00000
00002
02003
,
03200
00000
00000
00000
,
10300
00000
10001
00000
,
10000
01000
00100
01000
,
10001
00000
00000
00000
,
01000
00100
01000
00100
,
00101
00000
00000
00010
,
01000
00000
00000
00100
,
10100
00000
10000
00100
,
10001
00000
00000
10001
00000
00000
10001
00000
,
00000
20000
30020
00000
,
10030
10000
00010
00010
,
10000
01000
00002
00000
,
10003
01000
00100
00010
,
01000
00100
01000
00100
,
00010
01000
00100
10000
,
00100
01000
01010
00000
,
00001
01000
00100
01000
,
20020
00000
00000
30030
,
10000
01000
00100
01000
,
20000
00000
00010
30010
,
00010
01000
00010
01000
,
00100
00010
01000
00100
,
10000
00000
10000
01000
,
00100
01000
10000
00010
,
10010
10100
11000
10100
,
20002
00000
00000
30003
,
10010
00000
01010
00000
,
01100
00000
01010
00000
,
20202
00000
00000
00000
,
30303
00000
00000
00000
,
20000
00000
00000
00100
,
30200
00000
00000
00000
,
00302
00000
00000
01000
,
02003
00000
00000
00000
,
23000
00000
00000
00010
,
30010
01000
00100
00000
,
10000
01000
00100
00010
,
00001
00010
00100
01000
,
20000
00000
00000
00000
,
30001
00001
00001
00000
,
10010
00000
00000
00000
;

//---------------pnm-nine - ----------------
#NOTES:
     pnm-nine:
     :
     Easy:
     4:
     0.284762,0.427506,0.339291,0.296879,0.000000,235.000000,187.000000,40.000000,35.000000,0.000000,9.000000,0.284762,0.427506,0.339291,0.296879,0.000000,235.000000,187.000000,40.000000,35.000000,0.000000,9.000000:
200000000
000000000
000000000
000010000
,
300020000
000000000
000000000
000000000
,
000030200
000000000
000000000
001000000
,
002000300
000000000
000000000
000000000
,
003000002
000000000
000000000
000000000
,
000010003
000100000
001000000
000000000
,
100000000
001000000
000010000
001000000
,
100000000
001000000
000010000
001000000
,
202010000
000000000
000000000
000000000
,
303010000
000010000
101010000
000000000
,
000000000
100000000
000000000
000100000
,
000000000
010000000
000100000
010000000
,
000200000
000000000
000000000
100300000
,
100000000
010000000
001000000
000100000
,
000000000
000010000
000000000
000000001
,
000000000
000010000
100000000
000010000
,
000000002
000000000
000000000
000001003
,
001000000
010000000
001000000
000100000
,
000000000
000001010
000000000
000001010
,
000000000
000000010
000001000
010000000
,
000200000
000000000
000000000
100300000
,
200000000
000000000
000000000
300100000
,
010000000
000000100
010000000
000001000
,
000000100
000000010
000000001
010000000
,
000100000
000000000
000000000
101000000
000000000
000000000
202020000
000000000
,
000000000
000000000
303030000
000000000
,
100000000
001000000
000100000
000000100
,
100000001
000000000
000000000
000000000
,
000000100
000100000
001000000
010000000
,
000010000
000000000
000000000
000000000
,
101100000
000000000
000000000
000000100
,
010000000
000000000
000020000
200030000
,
302000000
000000000
000000000
000000000
,
103000000
000000000
101010000
000000000
,
000000001
000000100
000001000
000000010
,
000010000
000000000
000000000
000000000
,
000010000
000100000
000010000
000100000
,
001010000
000000000
000000000
000101000
,
010000010
000000000
000000000
001001000
,
001001000
000000000
100000000
001000000
,
100010000
000000000
000000000
100010000
000000000
000000000
100010000
000000000
,
000000000
200000000
300000002
000000000
,
100000003
100000000
000010000
000010000
,
100000000
001000000
000020000
000000000
,
100030000
001000000
000010000
000000100
,
010000001
001010000
010000000
001010000
,
000100000
000000100
001000000
100000000
,
001000000
000000010
010101000
000000000
,
000010000
000000100
001000000
010000000
,
200020000
000000000
000000000
300030000
,
100000000
010000000
001000000
010000000
,
200000000
000000000
000000100
300000100
,
000000100
010000000
000100000
000001000
,
000000010
000100000
010000000
001000000
,
000010000
001000000
100000000
010000000
,
001000000
000100000
100000000
000100000
,
101000000
101000000
101000000
101000000
,
200020000
000000000
000000000
300030000
,
000100100
000000000
010100000
000000000
,
010000010
000000000
010100000
000000000
,
202020000
000000000
000000000
000000000
,
303030000
000000000
000000000
000000000
,
200000000
000000000
000000000
001000000
,
302000000
000000000
000000000
000000000
,
003020000
000000000
000000000
000000100
,
000030200
000000000
000000000
000000000
,
000000302
000000000
000000000
000010000
,
000010003
000100000
001000000
000000000
,
100000000
010000000
001000000
000100000
,
000010000
000101000
001000100
010000010
,
200000002
000000000
000000000
300000003
,
010001000
010001000
010001000
000000000
,
101100000
000000000
000000000
000000000
;

//---------------pnm-nine - ----------------
#NOTES:
     pnm-nine:
     :
     Beginner:
     2:
     0.215692,0.274826,0.152681,0.127234,0.000000,178.000000,157.000000,18.000000,15.000000,0.000000,3.000000,0.215692,0.274826,0.152681,0.127234,0.000000,178.000000,157.000000,18.000000,15.000000,0.000000,3.000000:
000000000
010000000
000000000
010000000
,
000000000
010000000
000000000
010000000
,
000000000
000100000
000000000
000100000
,
000000000
000100000
000000000
000100000
,
000000000
010000000
000000000
010000000
,
000000000
010000000
000000000
010000000
,
000000000
000100000
000000000
000100000
,
000000000
000100000
000000000
000100000
,
002000000
000000000
000000000
000000000
,
003010000
000000000
000010000
000000000
,
000000000
001000000
000000000
001000000
,
000000000
001000000
000000100
001000000
,
000000000
100000000
000000000
100000000
,
000000000
100000000
001000000
100000000
,
000000000
000010000
000000000
000010000
,
000000000
000010000
000000001
000010000
,
000000000
000100000
000000000
000100000
,
000000000
000100000
010000000
000100000
,
000000000
000000010
000000000
000000010
,
000000000
000000010
001000000
000000010
,
000000000
000100000
000000000
000100000
,
000000000
000000001
000000100
000000001
,
000000000
000000100
000000000
000000100
,
000000000
000010000
000000100
000010000
,
000000000
000000100
000000000
000001000
,
000000000
000100000
010000000
000100000
,
200000000
000000000
000000000
000000000
,
320000000
000000000
000000000
000000000
,
032000000
000000000
000000000
000000000
,
003200000
000000000
000000000
000000000
,
000310000
000000000
000000000
000010000
,
000010001
000000000
000000000
010101000
,
000200020
000000000
000000000
000000000
,
000300030
000000000
000000000
000000010
,
000001010
000000000
000000000
010000000
,
010100000
000000000
000000000
000010000
,
001010100
000000000
000000000
010000000
,
020200000
000000000
000000000
030300000
,
001000100
000000000
000000000
000000100
,
001000000
000000000
100000000
010000000
,
001000000
000000000
100000000
000000000
,
101000000
000000000
000000000
000000000
,
100000000
001000000
000010000
000000000
,
000010000
000000100
000010000
000000000
,
000000010
000000100
000000010
000000000
,
000000100
000001000
000000100
000100000
,
010000000
001000000
010000000
000000000
,
000010000
000100000
000010000
000000000
,
100000000
001000000
010000000
000000000
,
010000000
000100000
010000000
000100000
,
010000000
001000000
000100000
000000000
,
100000000
000000100
100000000
000000000
,
010000000
001000000
000010000
000000000
,
000010000
010000000
001000000
000100000
,
000010000
100000000
000000010
000000000
,
000000010
000010000
010000000
000000000
,
010000000
001000000
010000000
000000000
,
000010000
000000100
001000000
010000000
,
000100000
000000000
000000000
000000000
,
000001000
000000000
000000000
000000000
,
202000000
000000000
000000000
000000000
,
303000000
000000000
000000000
000000000
,
010000000
000000000
000000000
010000000
,
020000000
000000000
000000000
000000000
,
030000010
000000000
000000000
001000000
,
001000000
000000000
100000000
000000000
,
000110000
000000000
000000000
001000100
,
002000200
000000000
000000000
003000300
,
100000001
000000000
010000010
000000000
,
100000001
000000000
010000010
000000000
,
200000000
000000000
000000000
000000000
,
300010000
000000000
000010000
000000000
,
101010000
000000000
000000000
000000000
;
