#VERSION:0.83;
#TITLE:STEREO TOKYO;
#SUBTITLE:;
#ARTIST:polyphonic room;
#TITLETRANSLIT:;
#SUBTITLETRANSLIT:;
#ARTISTTRANSLIT:;
#GENRE:;
#ORIGIN:;
#CREDIT:caramelangel714;
#BANNER:STEREO TOKYO.png;
#BACKGROUND:STEREO TOKYO-bg.png;
#PREVIEWVID:;
#JACKET:STEREO TOKYO-jacket.png;
#CDIMAGE:;
#DISCIMAGE:;
#LYRICSPATH:;
#CDTITLE:;
#MUSIC:STEREO TOKYO.mp3;
#OFFSET:-0.060000;
#SAMPLESTART:32.000008;
#SAMPLELENGTH:12.000000;
#SELECTABLE:YES;
#BPMS:0.000=180.000;
#STOPS:;
#DELAYS:;
#WARPS:;
#TIMESIGNATURES:0.000=4=4;
#TICKCOUNTS:0.000=4;
#COMBOS:0.000=1;
#SPEEDS:0.000=1.000=0.000=0;
#SCROLLS:0.000=1.000;
#FAKES:;
#LABELS:0.000=Song Start;
#BGCHANGES:;
#KEYSOUNDS:;
#ATTACKS:
;

//---------------dance-single - ----------------
#NOTEDATA:;
#CHARTNAME:;
#STEPSTYPE:dance-single;
#DESCRIPTION:;
#CHARTSTYLE:;
#DIFFICULTY:Beginner;
#METER:1;
#RADARVALUES:0.173328,0.295741,0.294898,0.033703,0.000000,144.000000,109.000000,35.000000,4.000000,0.000000,0.000000,0.000000,0.000000,0.000000,0.173328,0.295741,0.294898,0.033703,0.000000,144.000000,109.000000,35.000000,4.000000,0.000000,0.000000,0.000000,0.000000,0.000000;
#CREDIT:;
#NOTES:
// measure 0
0000
0000
0000
0000
,  // measure 1
0000
0000
0000
0000
,  // measure 2
0000
0000
0000
0000
,  // measure 3
0000
0000
0000
0000
,  // measure 4
0000
0000
0000
0000
,  // measure 5
0000
0000
0000
0000
,  // measure 6
0000
0000
0000
0000
,  // measure 7
0000
0000
0000
0000
,  // measure 8
0010
0000
0000
0000
,  // measure 9
1000
0000
0000
0000
,  // measure 10
0020
0000
0000
0000
,  // measure 11
0030
0000
0000
0000
,  // measure 12
0100
0000
0000
0000
,  // measure 13
0001
0000
0000
0000
,  // measure 14
0200
0000
0000
0000
,  // measure 15
0300
0000
0000
0000
,  // measure 16
0010
0000
1000
0000
,  // measure 17
0010
0000
0000
0000
,  // measure 18
0100
0000
0001
0000
,  // measure 19
0100
0000
0000
0000
,  // measure 20
0010
0000
0100
0000
,  // measure 21
0010
0000
0000
0000
,  // measure 22
1000
0000
0001
0000
,  // measure 23
1000
0000
0000
0000
,  // measure 24
1001
0000
1001
0000
,  // measure 25
1001
0000
0000
0000
,  // measure 26
0110
0000
0110
0000
,  // measure 27
0110
0000
0000
0000
,  // measure 28
1001
0000
1001
0000
,  // measure 29
1001
0000
0000
0000
,  // measure 30
0110
0000
0110
0000
,  // measure 31
0110
0000
0000
0000
,  // measure 32
1000
0000
0010
0000
,  // measure 33
1000
0000
0000
0000
,  // measure 34
1000
0000
0010
0000
,  // measure 35
1000
0000
0000
0000
,  // measure 36
0001
0000
1000
0000
,  // measure 37
0001
0000
1000
0000
,  // measure 38
0001
0000
0000
0000
,  // measure 39
1001
0000
0000
0000
,  // measure 40
0010
0000
0000
0000
,  // measure 41
0100
0000
0000
0000
,  // measure 42
0020
0000
0000
0000
,  // measure 43
0030
0000
0000
0000
,  // measure 44
1000
0000
0000
0000
,  // measure 45
0010
0000
0000
0000
,  // measure 46
0002
0000
0000
0000
,  // measure 47
0003
0000
0000
0000
,  // measure 48
1000
0000
0001
0000
,  // measure 49
1000
0000
0000
0000
,  // measure 50
0010
0000
1000
0000
,  // measure 51
0010
0000
0000
0000
,  // measure 52
0100
0000
0010
0000
,  // measure 53
0100
0000
0000
0000
,  // measure 54
0001
0000
0100
0000
,  // measure 55
0001
0000
0000
0000
,  // measure 56
0110
0000
0110
0000
,  // measure 57
0110
0000
0000
0000
,  // measure 58
1001
0000
1001
0000
,  // measure 59
1001
0000
0000
0000
,  // measure 60
0110
0000
0110
0000
,  // measure 61
0110
0000
0000
0000
,  // measure 62
1001
0000
1001
0000
,  // measure 63
1001
0000
0000
0000
,  // measure 64
0001
0000
0100
0000
,  // measure 65
0001
0000
0000
0000
,  // measure 66
0001
0000
0100
0000
,  // measure 67
0001
0000
0000
0000
,  // measure 68
0010
0000
0100
0000
,  // measure 69
0010
0000
0100
0000
,  // measure 70
0010
0000
0000
0000
,  // measure 71
0110
0000
0000
0000
,  // measure 72
1000
0000
0001
0000
,  // measure 73
1000
0000
0001
0000
,  // measure 74
1001
0000
0000
0000
,  // measure 75
1001
0000
0000
0000
,  // measure 76
0010
0000
0100
0000
,  // measure 77
0010
0000
0100
0000
,  // measure 78
0110
0000
0000
0000
,  // measure 79
0110
0000
0000
0000
,  // measure 80
1000
0000
0010
0000
,  // measure 81
1000
0000
0001
0000
,  // measure 82
1001
0000
0000
0000
,  // measure 83
1001
0000
0000
0000
,  // measure 84
0001
0000
0100
0000
,  // measure 85
0010
0000
1000
0000
,  // measure 86
0110
0000
0000
0000
,  // measure 87
0110
0000
0000
1001
;

//---------------dance-single - ----------------
#NOTEDATA:;
#CHARTNAME:;
#STEPSTYPE:dance-single;
#DESCRIPTION:;
#CHARTSTYLE:;
#DIFFICULTY:Easy;
#METER:3;
#RADARVALUES:0.276843,0.369676,0.261196,0.000000,0.000000,230.000000,199.000000,31.000000,0.000000,0.000000,0.000000,0.000000,0.000000,0.000000,0.276843,0.369676,0.261196,0.000000,0.000000,230.000000,199.000000,31.000000,0.000000,0.000000,0.000000,0.000000,0.000000,0.000000;
#CREDIT:;
#NOTES:
0000
0000
0000
0000
,
0000
0000
0000
0000
,
0000
0000
0000
0000
,
0000
0000
0000
0000
,
0000
0000
0000
0000
,
0000
0000
0000
0000
,
0000
0000
0000
0000
,
0000
0000
0000
0000
,
0000
1000
0000
0001
,
0000
0100
0010
0100
,
0000
0010
0000
0100
,
0000
0001
0100
1000
,
0000
0010
0010
0100
,
0000
1000
0000
1000
,
0000
0100
0100
0001
,
0000
0010
0000
0010
,
0000
1000
0000
1000
,
0000
0100
0010
0001
,
0000
0010
0000
0010
,
0000
1000
0100
0001
,
0000
0100
1000
0100
,
0000
0001
0000
0100
,
0000
0010
1000
0010
,
0000
0000
0100
0100
,
1001
0000
1001
0000
,
1000
0010
1000
0000
,
0110
0000
0110
0000
,
1000
0100
0001
0000
,
1001
0000
1001
0000
,
0010
1000
0010
0000
,
0110
0000
0110
0000
,
1000
0100
0010
0000
,
1010
0000
1010
0000
,
0001
0100
0001
0000
,
0101
0000
0101
0000
,
0010
1000
0010
0000
,
1000
0100
0001
0000
,
0001
0100
1000
0000
,
1000
0000
0000
0000
0001
0000
0000
0110
,
0000
0000
0000
0000
,
1000
0000
0010
0000
,
1000
0000
0010
0000
,
0100
0000
0010
0000
,
0100
0000
0010
0000
,
0001
0000
1000
0000
,
0001
0000
1000
0000
,
0001
0000
0010
0000
,
0001
0000
0010
0000
,
0100
0100
0000
0001
,
0000
1000
0000
0010
,
0000
1000
0000
0100
,
0000
0010
0000
0001
,
0000
0100
0000
0010
,
0000
1000
0000
0010
,
0000
0100
0000
0001
,
0000
0000
0001
0001
,
1001
0000
0110
0000
,
1001
0000
0110
0000
,
1000
0010
1000
0000
,
0001
0100
0001
0000
,
0110
0000
1001
0000
,
0110
0000
1001
0000
,
1000
0001
0100
0000
,
0001
0010
1000
0000
,
1001
0000
0110
0000
,
1001
0000
0110
0000
,
1000
0100
0010
0000
,
0001
0010
0100
0000
,
1000
0100
0010
0000
,
1000
0100
0001
0000
,
0001
0000
0000
0000
1000
0000
0000
0110
,
0000
0000
0000
0000
,
1001
0001
0001
0000
,
0100
0010
0100
0000
,
1000
0100
0010
0001
,
0001
0000
0000
0000
,
0110
0100
0100
0000
,
0001
0100
0010
1000
,
1000
0100
0010
0001
,
0001
0000
0000
0000
,
1001
1000
1000
0000
,
0001
0100
0010
1000
,
1000
0001
0100
0010
,
0010
0000
0000
0000
,
0110
0010
0010
0000
,
0001
0100
0010
1000
,
0001
0010
0100
1000
,
1000
0000
0000
1001
;

//---------------dance-single - ----------------
#NOTEDATA:;
#CHARTNAME:;
#STEPSTYPE:dance-single;
#DESCRIPTION:;
#CHARTSTYLE:;
#DIFFICULTY:Medium;
#METER:6;
#RADARVALUES:0.442949,0.517546,0.581371,0.033703,0.000000,368.000000,299.000000,69.000000,4.000000,0.000000,0.000000,0.000000,0.000000,0.000000,0.442949,0.517546,0.581371,0.033703,0.000000,368.000000,299.000000,69.000000,4.000000,0.000000,0.000000,0.000000,0.000000,0.000000;
#CREDIT:;
#NOTES:
0000
0000
0000
0000
,
0000
0000
0000
0000
,
0000
0000
0000
0000
,
0000
0000
0000
0000
,
0000
0000
0000
0000
,
0000
0000
0000
0000
,
0000
0000
0000
0000
,
0000
0000
0000
0000
,
1000
1000
0001
0001
,
0100
0010
0100
0010
,
2010
0000
3001
0000
0001
1000
0010
0000
,
0101
0000
0001
0000
0010
0100
0010
0000
,
0001
0100
0010
1000
,
0010
0100
0010
1000
,
0120
0000
1030
0000
0100
0001
0100
0000
,
1001
0000
0010
0000
1000
0010
0100
0000
,
1000
0001
0100
0010
,
0010
0100
0001
1000
,
0102
0000
0013
0000
1000
0001
1000
0000
,
1100
0000
0100
0000
0001
0100
0010
0000
,
0100
0001
0100
0001
,
0010
0100
1000
0001
,
0102
0000
0103
0000
0010
1000
0000
0110
,
0000
0000
0000
1000
0001
0000
0001
0000
,
1001
1010
1001
0100
,
0010
0000
0000
0100
0000
0000
0001
0000
,
1000
0100
0010
0001
,
1001
0000
0000
0001
0000
0000
1000
0000
,
0110
1010
0110
0001
,
0010
0000
0000
0001
0000
0000
1000
0000
,
0010
1000
0100
0010
,
1001
0000
0000
1010
0000
0000
1100
0000
,
0110
1001
0110
0100
,
0010
0000
0000
1000
0000
0000
1000
0000
,
0110
0101
0110
0010
,
0100
0000
0000
0001
0000
0000
1000
0000
,
0001
0100
0010
1000
,
0010
0000
0000
0010
0000
0000
1000
0100
,
1000
0000
0000
0000
0001
0000
0000
0100
,
0000
0000
0000
0010
0010
0000
1000
0000
,
1001
0100
0010
0000
,
0001
0100
0010
0000
,
1000
0100
0010
0000
,
0100
0010
0100
0000
,
0110
0001
1000
0000
,
1000
0010
1000
0000
,
0001
0100
0010
0000
,
0100
0010
0100
0000
,
0101
0001
0001
0000
,
0110
0100
0100
0000
,
1010
1000
1000
0000
,
0101
0001
0001
0000
,
0110
0100
0100
0000
,
1001
0001
0001
0000
,
1010
0000
1000
0000
1000
0000
0000
0001
,
0000
0000
0000
0100
0100
0000
0110
0000
,
1001
1010
1001
1000
,
0001
0000
0000
1000
0000
0000
0010
0000
,
0110
1001
0110
0001
,
0010
0000
0000
0100
0000
0000
0001
0000
,
1010
1100
0011
1000
,
0010
0000
0000
0010
0000
0000
0010
0000
,
0011
0101
0011
1000
,
0010
0000
0000
0100
0000
0000
0010
0000
,
1010
1001
1010
0001
,
0001
0000
0000
1000
0000
0000
1000
0000
,
0110
0101
1010
0100
,
0001
0000
0000
0100
0000
0000
0010
0000
,
1010
1100
1001
0100
,
0010
0000
0000
0001
0000
0000
1000
0010
,
1000
0000
0000
0000
0001
0000
0000
0010
,
0000
0000
0000
0000
0000
0001
1000
0010
,
0001
0000
1001
0000
0110
0000
0000
1000
,
0000
0001
0000
0100
0010
0000
0110
0000
,
0001
0010
0100
0000
1000
0010
0000
0110
,
0000
0000
0000
0000
0000
1000
0100
0010
,
0001
0000
0110
0000
1001
0000
0000
1000
,
0000
0010
0000
0100
0010
0000
0001
0000
,
0010
0100
0010
0000
1000
0001
0000
1001
,
0000
0000
0000
0000
0000
0010
0100
0010
,
0100
0000
1010
0000
1100
0000
0000
0001
,
0000
0010
0000
0100
1000
0000
1001
0000
,
0001
0100
0010
0000
1000
0010
0000
0001
,
0000
0000
0000
0000
0000
1000
0010
0100
,
0010
0000
0110
0000
0101
0000
0000
0010
,
0000
0100
0000
0001
1000
0000
1001
0000
,
0010
1000
0100
0000
0001
0100
0000
0010
,
0000
0000
0000
0010
0010
0000
0110
0000
;

//---------------dance-single - ----------------
#NOTEDATA:;
#CHARTNAME:;
#STEPSTYPE:dance-single;
#DESCRIPTION:;
#CHARTSTYLE:;
#DIFFICULTY:Hard;
#METER:8;
#RADARVALUES:0.571742,0.591482,0.657202,0.033703,0.000000,475.000000,397.000000,78.000000,4.000000,0.000000,0.000000,0.000000,0.000000,0.000000,0.571742,0.591482,0.657202,0.033703,0.000000,475.000000,397.000000,78.000000,4.000000,0.000000,0.000000,0.000000,0.000000,0.000000;
#CREDIT:;
#NOTES:
0000
0000
0000
0000
,
0000
0000
0000
0000
,
0000
0000
0000
0000
,
0000
0000
0000
0000
,
0000
0000
0000
0000
,
0000
0000
0000
0000
,
0000
0000
0000
0000
,
0000
0000
0000
0000
,
1000
0010
0100
0000
0001
0100
0010
0000
,
1000
0010
1000
0010
0000
0101
0000
0002
,
1000
0000
0103
0000
0010
0001
0010
0000
,
1000
0010
0100
0000
0001
0100
0001
0100
,
0010
0100
1000
0000
0001
0100
0010
0000
,
1000
0010
0100
0001
0000
1001
0000
0020
,
0100
0000
1030
0000
0100
0010
0100
0000
,
0001
1000
0010
0000
1000
0010
0100
0001
,
0001
1000
0010
0000
0100
0001
0100
0000
,
0010
1000
0100
0010
0000
0101
0000
2000
,
0100
0000
3010
0000
0100
0010
0001
0000
,
1000
0010
0100
0000
0001
0010
0100
1000
,
0100
0010
0100
0000
0001
1000
0010
0000
,
0100
0010
0100
1000
0000
1010
0000
0200
,
0001
0000
0310
0000
0100
1000
0100
1000
,
0000
0000
0000
1000
1001
0000
0100
0000
,
0110
0000
1010
0000
0110
0000
0001
0100
,
0010
0100
0000
0101
0000
0001
1000
0000
,
0110
0000
1010
0000
1100
0000
0001
0100
,
0010
0100
0000
0101
0000
0001
1000
0000
,
0110
0000
1010
0000
0110
0000
0001
0100
,
0010
1000
0000
0110
0000
0001
1000
0000
,
0101
0000
0110
0000
1000
0001
0100
0001
,
0010
0100
1000
0010
0000
0100
0001
0000
,
1010
0000
1001
0000
0011
0000
1000
0010
,
0100
0001
0000
1001
0000
0001
0100
0000
,
1010
0000
1100
0000
0110
0000
0001
1000
,
0010
0100
0000
0101
0000
0010
0100
0000
,
0001
0000
1000
0000
0010
0000
0100
0001
,
0100
0010
0000
1000
0000
0000
0001
0010
,
1000
0000
0001
0000
0010
0010
0000
0100
,
0000
0000
0000
0001
0001
0000
1001
0000
,
0110
0000
0001
1000
0000
0000
0100
0000
,
1000
0000
0100
0001
0000
0000
0010
0000
,
0001
0000
1000
0010
0000
0000
0100
0000
,
0001
0000
1000
0010
0000
0001
0010
0000
,
1000
0000
0100
0010
0000
0000
0010
0000
,
0010
0000
1000
0001
0000
0000
0001
0000
,
0010
0000
1000
0010
0000
0000
0001
0000
,
0010
0000
0100
0010
0000
0010
1000
0000
,
0100
0000
0001
1000
0000
0000
0100
0000
,
1000
0000
1000
0010
0000
0000
0010
0000
,
0100
0000
0001
1000
0000
0000
0010
0000
,
1000
0000
1000
0001
0000
1000
0001
0000
,
0010
0000
0010
1000
0000
0000
0010
0000
,
0001
0000
1000
0010
0000
0000
1000
0000
,
0010
0000
0010
0100
0000
0000
0001
0000
,
0000
0000
0000
1000
1000
0000
0110
0000
,
1001
0000
1010
0000
1001
0000
1000
0001
,
0100
0010
0000
0110
0000
1000
0001
0000
,
0110
0000
1010
0000
0101
0000
1000
0100
,
0010
0001
0000
0101
0000
0001
1000
0000
,
0110
0000
1001
0000
1010
0000
0001
0100
,
0010
1000
0000
0110
0000
1000
0010
0000
,
0110
0000
0101
0000
1000
0001
1000
0010
,
0100
0001
0100
0010
0000
0010
1000
0000
,
1100
0000
0110
0000
0011
0000
0001
0010
,
0100
1000
0000
1001
0000
1000
0010
0000
,
0110
0000
1001
0000
0110
0000
1000
0010
,
0100
0010
0000
0101
0000
0001
1000
0000
,
1000
0000
0100
0000
0010
0000
0001
1000
,
0001
1000
0000
0010
0000
0000
0100
0010
,
1000
0000
0001
0000
1000
0010
0000
0110
,
0000
0000
0000
0000
0000
0001
0010
0100
,
1001
0000
1001
0000
1001
0000
0000
0110
,
0000
0010
0000
0100
0001
0000
0101
0000
,
1000
0010
1000
0010
0100
0001
0000
0101
,
0000
0000
0001
0001
0000
0001
0010
0100
,
1001
0000
1001
0000
1001
0000
0000
0110
,
0000
1000
0000
0010
0001
0000
1001
0000
,
0010
0100
0010
0100
0010
0100
0000
0110
,
0000
0000
0001
1000
0000
0010
0100
0010
,
0110
0000
0110
0000
0110
0000
0000
1010
,
0000
0101
0000
0001
0100
0000
0110
0000
,
0001
0010
0100
1000
0100
0010
0000
0001
,
0000
0000
0100
0010
0000
0001
1000
0010
,
0110
0000
0110
0000
0110
0000
0000
1010
,
0000
1100
0000
1000
0001
0000
0101
0000
,
1000
0100
0010
0001
0010
0100
0000
1000
,
0000
0000
0000
1000
0010
0000
1010
0000
;

//---------------pnm-nine - ----------------
#NOTEDATA:;
#CHARTNAME:;
#STEPSTYPE:pnm-nine;
#DESCRIPTION:;
#CHARTSTYLE:;
#DIFFICULTY:Hard;
#METER:8;
#RADARVALUES:0.852196,0.961158,2.215950,0.000000,0.046341,708.000000,418.000000,263.000000,0.000000,0.000000,27.000000,0.000000,0.000000,0.000000,0.852196,0.961158,2.215950,0.000000,0.046341,708.000000,418.000000,263.000000,0.000000,0.000000,27.000000,0.000000,0.000000,0.000000;
#CREDIT:;
#NOTES:
000100000
000000000
000101000
000101000
000000000
000000000
001010000
000000000
,
000001000
000000000
000101000
000101000
000000000
000000000
000010100
000000000
,
100000000
000000000
101000000
101000000
000000000
000000000
010100000
000000000
,
000000001
000000000
000000101
000000101
000000000
101000000
000001010
000000000
,
010000000
000000000
010100000
010100000
000000000
000000000
001010000
000000000
,
000000100
000000000
000010100
000010100
000000000
000000000
010001000
000000000
,
000010000
000000000
000010100
000010100
000000000
000000000
000000101
000000000
,
000000000
000000000
000000000
000000000
100000000
001000000
000010100
000000000
,
101010000
000000000
000101000
000101000
000000000
000000000
000010100
000000000
,
010101000
000000000
000100100
000100100
000000000
000000000
010100000
000000000
,
100000000
000000000
001000000
000010000
000000000
000000000
000010100
000000000
,
000100100
000000000
010100000
010100000
000000000
001001000
001001000
000000000
,
000011010
000000000
011000000
011000000
000000000
000000000
000110000
000000000
,
101010000
000000000
000011000
000011000
000000000
000000000
000010010
000000000
,
101100000
000000000
000101000
000101000
000000000
000000000
010010000
000000000
,
000101000
000000000
000010100
000010100
000000000
000011000
000011000
000000000
,
001101000
000000000
000010100
000010100
000000000
000000000
010100000
000000000
,
010101000
000000000
000001100
000001100
000000000
000000000
000100010
000000000
,
101000000
000000000
101000000
101000000
000000000
000000000
000001010
000000000
,
000000101
000000000
001010000
001010000
000000000
000010100
000010100
000000000
,
000110100
000000000
010100000
010100000
000000000
000000000
000110000
000000000
,
000100100
000000000
101000000
101000000
000000000
000000000
000011000
000000000
,
000001001
000000000
000001100
000001100
000001000
000010000
000001000
000101010
,
000000000
000000000
000000000
100110000
100110000
000000000
100110000
000000000
,
101000000
000000000
010100000
000000000
001010000
000000000
000100000
000001000
,
000100000
000000000
000100000
000000000
000000000
000000000
000101000
000000000
000000000
010000000
000100000
000001000
000000010
000000000
000000000
000000000
,
100100000
000000000
010010000
000000000
001001000
000000000
000100000
000000100
,
000100000
000100000
000000000
000100100
000000000
001010000
001010000
000000000
,
001010000
000000000
000101000
000000000
001010000
000000000
100000000
001000000
,
100000000
001000000
000000000
101000000
000000000
000000000
000000010
000001000
,
000010100
000000000
001010000
000000000
101000000
000010000
000100000
000010000
,
000100000
000010000
000001000
000000100
000000000
000000101
000000101
000000000
,
101000000
000000000
001010000
000000000
000010100
000000000
000000010
000010000
,
000000010
000000000
000010000
000000000
000000000
000000000
000010010
000000000
000000000
100000000
001000000
000010000
000000100
000000000
000000000
000000000
,
100100000
000000000
010010000
000000000
100100000
000000000
000001000
000100000
,
000001000
000100000
000000000
000101000
000000000
000101000
000101000
000000000
,
101100000
000000000
101100000
000000000
101100000
000000000
100000000
001000000
,
000100000
001000000
000000000
101000000
000000000
000000000
000010000
000001000
,
000000101
000000000
000000101
000000000
000000101
000010100
000000000
001010100
,
000000000
000000000
000000000
000000000
010000000
000100000
010000000
000100000
000001010
000000000
000000000
000000000
000010100
000000000
000000000
000000000
,
001000000
000000000
000010001
000010001
000000000
000000000
001000000
000000000
,
100000000
000000000
000100100
000100100
000000000
000000000
100000000
000000000
,
000000010
000000000
000110000
000110000
000000000
000000000
000000010
000000000
,
000000001
000000000
001000100
001000100
000000000
000010001
000010001
000000000
,
000010000
000000000
010001000
010001000
000000000
000000000
001010000
000000000
,
010000000
000000000
001000100
001000100
000000000
000000000
010000000
000000000
,
000000001
000000000
001001000
001001000
000000000
000000000
000000001
000000000
,
000100000
000000000
000010010
000010010
000000000
000010010
000100000
000000000
,
100000000
000000000
001010000
001010000
000000000
000000000
100000000
000000000
,
000100000
000000000
000001100
000001100
000000000
000000000
000100000
000000000
,
000010000
000000000
010100000
010100000
000000000
000000000
000001000
000000000
,
000100000
000000000
000010010
000010010
000000000
000010010
000100000
000000000
,
100000000
000000000
001010000
001010000
000000000
000000000
100000000
000000000
,
000100000
000000000
000010010
000010010
000000000
000000000
000100000
000000000
,
001000000
000000000
000101000
000101000
000000000
000000000
001000000
000000000
,
000000000
000000000
000000000
000110100
000110100
000000000
000110100
000000000
,
001010000
000000000
000100100
000000000
000010001
000000000
010000000
000100000
,
000010000
000000000
001000000
000000000
000000000
000000000
101000000
000000000
000000000
000000001
000000100
000010000
001000000
000000000
000000000
000000000
,
101000000
000000000
001010000
000000000
101000000
000000000
010100000
001010000
,
000101000
000101000
000000000
001101000
000000000
001000000
010000000
000000000
,
100100000
000000000
010010000
000000000
100100000
000000000
010000000
000100000
,
000010000
000000100
000000000
001001000
000000000
010000000
010100000
000000000
,
001001000
000000000
001010000
000000000
001001000
000100000
000010000
000001000
,
000000100
000000010
000010001
000010001
000000000
100100000
100100000
000000000
,
010100000
000000000
001010000
000000000
010100000
000000000
100000000
000100000
,
100000000
000000000
000100000
000000000
000000000
000000000
001010000
000000000
000000000
000000001
000000100
000010000
001000000
000000000
000000000
000000000
,
001001000
000000000
001001000
000000000
001001000
000000000
100000000
000100000
,
100000000
000100000
000000000
001101000
000000000
000000100
000100100
000000000
,
010010000
000000000
010010000
000000000
010010000
000000000
000001000
000010000
,
000100000
001000000
000000000
010001000
000000000
000000000
101000000
010100000
,
001010000
000000000
001010000
000000000
000001010
000010100
000000000
001010100
,
000000000
000000000
000000000
000000000
000000000
010000000
000100000
000001000
,
010000010
000000000
010000010
000000000
010000010
000000000
000000000
000101000
,
000000000
000101000
000000000
100000000
001010000
000000000
001010000
000000000
,
010000000
001000000
000100000
000010000
010001000
010001000
000000000
000101010
,
000000000
000000000
010100000
010100000
000000000
000000010
000000100
000001000
,
001010000
000000000
001010000
000000000
001010000
000000000
000000000
000010100
,
000000000
000010100
000000000
101000000
001001000
000000000
000010010
000000000
,
000100000
001000000
010000000
100000000
010000000
001000000
000000000
001010100
,
000000000
000000000
001100000
001100000
000000000
010000000
001000000
000100000
,
000001010
000000000
000001010
000000000
000001010
000000000
000000000
000100100
,
000000000
000010100
000000000
000000010
000101000
000000000
010100000
000000000
,
010000000
000100000
000000100
000000010
000010000
010100000
000000000
010101000
,
000000000
000000000
001010000
001010000
000000000
010100000
001001000
000010010
,
000000101
000000000
000000101
000000000
000000101
000000000
000000000
010100000
,
000000000
001001000
000000000
000010010
000001010
000000000
001010000
000000000
,
000000011
000000101
000001001
000010001
000100001
001000001
000000000
101001000
,
000000000
000000000
000000000
000000000
000000000
000000000
100100000
000000000
100100000
000000000
100000000
010000000
101001000
000000000
000000000
000000000
;

//---------------pnm-five - ----------------
#NOTEDATA:;
#CHARTNAME:;
#STEPSTYPE:pnm-five;
#DESCRIPTION:;
#CHARTSTYLE:;
#DIFFICULTY:Hard;
#METER:8;
#RADARVALUES:0.731829,0.776320,1.516620,0.000000,0.046341,608.000000,419.000000,180.000000,0.000000,0.000000,9.000000,0.000000,0.000000,0.000000,0.731829,0.776320,1.516620,0.000000,0.046341,608.000000,419.000000,180.000000,0.000000,0.000000,9.000000,0.000000,0.000000,0.000000;
#CREDIT:;
#NOTES:
00010
00000
01010
01010
00000
00000
00101
00000
,
01000
00000
01010
01010
00000
00000
10001
00000
,
10000
00000
10100
10100
00000
00000
01010
00000
,
00001
00000
01001
01001
00000
10100
01010
00000
,
01000
00000
01010
01010
00000
00000
00101
00000
,
10000
00000
10001
10001
00000
00000
01100
00000
,
00001
00000
10001
10001
00000
00000
01010
00000
,
00000
00000
00000
00000
10000
00100
00001
00000
,
10101
00000
00010
00010
00000
00000
01001
00000
,
01010
00000
00110
00110
00000
00000
01010
00000
,
10000
00000
00101
00011
00000
00000
01001
00000
,
00010
00000
01010
01010
00000
00110
00110
00000
,
10001
00000
00100
00100
00000
00000
00011
00000
,
10001
00000
00101
10001
00000
00000
00001
00000
,
10110
00000
00011
00011
00000
00000
01001
00000
,
00110
00000
01001
01001
00000
01001
01001
00000
,
00110
00000
00011
00011
00000
00000
01010
00000
,
01000
00000
00101
00101
00000
00000
01010
00000
,
10000
00000
10100
10100
00000
00000
00101
00000
,
00010
00000
00101
00101
00000
01001
01001
00000
,
00011
00000
01010
01010
00000
00000
00011
00000
,
00010
00000
10100
10100
00000
00000
10001
00000
,
01010
00000
10100
10100
01000
00001
00100
00010
,
00000
00000
00000
10011
10011
00000
10011
00000
,
10100
00000
01010
00000
00101
00000
00010
01000
,
00010
00000
01000
00000
00000
00000
00010
00000
00000
10000
01000
00100
00011
00000
00000
00000
,
10010
00000
01001
00000
00100
00000
00010
01000
,
00010
01000
00000
01010
00000
00101
00101
00000
,
00101
00000
01010
00000
00101
00000
10000
00100
,
10000
00100
00000
10100
00000
00110
00110
00000
,
00101
00000
00101
00000
10100
00001
00010
00001
,
00010
00001
00010
00100
11000
00000
01010
00000
,
10100
00000
00101
00000
01001
00000
10000
00001
,
10000
00000
00001
00000
00000
00000
10000
00000
00000
00001
00010
00100
11000
00000
00000
00000
,
10010
00000
01001
00000
10010
00000
00100
00010
,
01000
00010
00000
01010
00000
00010
00010
00000
,
10110
00000
10110
00000
10110
00000
10000
00100
,
00010
00100
00000
10100
00000
00000
00001
00010
,
00100
00000
10000
00000
00100
00001
00000
00101
,
00000
00000
00000
00000
01000
00010
01000
00010
00000
00000
00000
00000
10110
00000
00000
00000
,
00100
00000
00001
00001
00000
00000
00100
00000
,
10000
00000
00010
00010
00000
00000
10000
00000
,
00100
00000
00001
00001
00000
00000
01000
00000
,
00001
00000
00100
00100
00000
00001
00001
00000
,
00001
00000
01000
01000
00000
00000
00100
00000
,
01000
00000
00100
00100
00000
00000
01000
00000
,
10000
00000
00100
00100
00000
00000
00010
00000
,
00010
00000
00001
00001
00000
00001
00010
00000
,
10000
00000
00001
00001
00000
00000
10000
00000
,
00010
00000
01000
01000
00000
00000
00010
00000
,
00001
00000
01000
00010
00000
00000
01000
00000
,
00010
00000
00001
00001
00000
00001
00010
00000
,
10000
00000
00100
00100
00000
00000
10000
00000
,
00010
00000
00001
00001
00000
00000
00010
00000
,
00100
00000
00010
00010
00000
00000
00100
00000
,
10000
00000
00000
00001
00001
00000
00001
00000
,
00101
00000
00010
00000
00001
00000
01000
00010
,
00001
00000
00100
00000
00000
00000
10100
00000
00000
00001
00010
00100
11000
00000
00000
00000
,
10100
00000
00101
00000
10100
00000
01010
00101
,
00010
00010
00000
00110
01000
00100
01000
00000
,
10010
00000
01001
00000
10010
00000
01000
00010
,
00001
01000
00000
00101
00000
01000
01010
00000
,
00100
00000
00101
00000
00100
00010
00001
00010
,
00100
00010
00001
00001
00000
10010
10010
00000
,
01010
00000
00101
00000
01010
00000
10000
00010
,
10000
00000
00010
00000
00000
00000
00101
00000
00000
00001
00010
00100
11000
00000
00000
00000
,
00110
00000
00110
00000
00110
00000
10000
00010
,
10000
00010
00000
00110
00000
00010
00010
00000
,
01001
00000
01001
00000
01001
00000
01000
00001
,
00010
00100
00000
01000
00000
00000
10100
01010
,
00101
00000
00101
00000
10001
10001
00000
00101
,
00000
00000
00000
00000
00000
01000
00010
01000
,
00011
00000
01001
00000
01010
00000
00000
00010
,
00000
00010
00000
10000
00101
00000
00101
00000
,
01000
00100
00010
00001
01000
01000
00000
00010
,
00000
00000
01010
01010
00000
10000
01000
00100
,
00101
00000
00101
00000
00101
00000
00000
00001
,
00000
00001
00000
10100
00100
00000
01001
00000
,
00010
00100
01000
10000
01000
00100
00000
00101
,
00000
00000
00110
00110
00000
01000
00100
00010
,
01001
00000
00101
00000
01001
00000
00000
00010
,
00000
00001
00000
01000
00010
00000
01010
00000
,
01000
00010
01000
00100
00001
01010
00000
01010
,
00000
00000
00101
00101
00000
01010
00100
00001
,
01000
00000
01010
00000
01100
00000
00000
01010
,
00000
10100
00000
01001
00100
00000
00101
00000
,
00100
00010
00001
00001
00010
00100
00000
10100
,
00000
00000
00000
00000
00000
00000
10010
00000
10010
00000
10000
01000
00101
00000
00000
00000
;

//---------------pnm-nine - ----------------
#NOTEDATA:;
#CHARTNAME:;
#STEPSTYPE:pnm-nine;
#DESCRIPTION:;
#CHARTSTYLE:;
#DIFFICULTY:Beginner;
#METER:2;
#RADARVALUES:0.243141,0.295741,0.219067,0.117959,0.000000,202.000000,176.000000,26.000000,14.000000,0.000000,0.000000,0.000000,0.000000,0.000000,0.243141,0.295741,0.219067,0.117959,0.000000,202.000000,176.000000,26.000000,14.000000,0.000000,0.000000,0.000000,0.000000,0.000000;
#CREDIT:;
#NOTES:
000000000
100000000
000000000
000100000
,
000000000
100000000
000000000
000100000
,
000000000
000000001
000000000
000001000
,
000000000
000000001
000000000
000001000
,
000000000
000010000
000000000
001000000
,
000000000
000010000
000000000
001000000
,
000000000
000010000
000000000
001000000
,
000000000
000000000
001000000
001000000
,
000010000
000001000
000000000
000100000
,
000000000
010000000
000000000
100000000
,
001000000
000001000
000000000
000100000
,
000000000
000000100
000000000
010000000
,
000001000
000100000
000000000
000001000
,
000000000
000010000
000000000
010000000
,
000001000
000010000
000000000
001000000
,
000000000
000001000
010000000
000100000
,
000000100
000100000
000000000
010000000
,
000000000
000001000
000000000
010000000
,
000010000
000000100
000000000
001000000
,
000000000
000001000
000000000
000100000
,
000001000
000000010
000000000
010000000
,
000000000
000001000
000000000
001000000
,
000010000
000000100
000000000
001000000
,
000000000
000000000
000100000
000100000
,
010000000
000000000
010000000
000000000
,
010000000
000000000
010000000
000000000
,
000000100
000000000
000000100
000000000
,
000000100
000000000
000000100
000000000
,
000010000
000000000
000010000
000000000
,
000010000
000000000
000010000
000000000
,
000100000
000000000
000100000
000000000
,
000100000
000000000
000100000
000000000
,
100000000
000000000
100000000
000000000
,
100000000
000000000
100000000
000000000
,
000000010
000000000
000000010
000000000
,
000000010
000000000
000000010
000000000
,
100000000
000000000
010000000
000000000
,
001000000
000000000
000100000
000000000
,
000010000
000000000
000000000
000000000
,
001010000
000000000
000000000
000000000
,
000000000
010000000
000000000
000001000
,
000000000
010000000
000000000
000001000
,
000000000
000000100
000000000
010000000
,
000000000
000010000
000000000
000001000
,
000000000
100000000
000000000
000100000
,
000000000
000001000
000000000
000000010
,
000000000
001000000
000000000
000100000
,
000000000
010000000
000000000
000010000
,
000000000
001000000
000000000
000000100
,
000000000
010000000
000000000
000000001
,
000000000
000100000
000000000
000000100
,
000000000
000100000
000000000
000000100
,
000000000
010000000
000000000
000000100
,
000000000
000100000
000000000
000010000
,
000000000
010000000
000000000
000000100
,
000000000
000000000
001000000
010000000
,
010000000
000000000
000000010
000000000
,
001000000
000000000
000001000
000000000
,
001000000
000000000
000010000
000000000
,
001000000
000000000
001000000
000000000
,
000000100
000000000
000010000
000000000
,
000000100
000000000
000010000
000000000
,
000010000
000000000
000100000
000000000
,
000001000
000000000
001000000
000000000
,
010000000
000000000
000000100
000000000
,
010000000
000000000
100000000
000000000
,
000010000
000000000
001000000
000000000
,
000010000
000000000
000010000
000000000
,
100000000
000000000
010000000
000000000
,
001000000
000000000
000100000
000000000
,
000010000
000000000
000010000
000000000
,
100010000
000000000
000000000
000000000
,
000101000
000000000
000101000
000000000
,
000202000
000000000
000303000
000000000
,
010100000
000000000
010100000
000000000
,
020200000
000000000
030300000
000000000
,
000010100
000000000
000010100
000000000
,
000020200
000000000
000030300
000000000
,
010100000
000000000
010100000
000000000
,
020200000
000000000
030300000
000000000
,
101000000
000000000
001010000
000000000
,
202000000
000000000
303000000
000000000
,
000000101
000000000
000001010
000000000
,
000000202
000000000
000000303
000000000
,
000010100
000000000
000101000
000000000
,
000002020
000000000
000003030
000000000
,
001010000
000000000
000010100
000000000
,
001010000
000000000
001000000
000001000
;

//---------------pnm-five - ----------------
#NOTEDATA:;
#CHARTNAME:;
#STEPSTYPE:pnm-five;
#DESCRIPTION:;
#CHARTSTYLE:;
#DIFFICULTY:Beginner;
#METER:1;
#RADARVALUES:0.174532,0.221806,0.025277,0.058980,0.000000,145.000000,142.000000,3.000000,7.000000,0.000000,0.000000,0.000000,0.000000,0.000000,0.174532,0.221806,0.025277,0.058980,0.000000,145.000000,142.000000,3.000000,7.000000,0.000000,0.000000,0.000000,0.000000,0.000000;
#CREDIT:;
#NOTES:
00000
10000
00000
00010
,
00000
10000
00000
00010
,
00000
10000
00000
00010
,
00000
10000
00000
00010
,
00000
00001
00000
00100
,
00000
00001
00000
00100
,
00000
00001
00000
00100
,
00000
00000
00100
00100
,
00000
10000
00000
00010
,
00000
01000
00000
10000
,
00000
00001
00000
00010
,
00000
00010
00000
01000
,
00000
00010
00000
01000
,
00000
00001
00000
01000
,
00000
00001
00000
00100
,
00000
00001
00000
00010
,
00000
00010
00000
01000
,
00000
00001
00000
01000
,
00000
00001
00000
00100
,
00000
00010
00000
00010
,
00000
01000
00000
00010
,
00000
01000
00000
00001
,
00000
00010
00000
01000
,
00000
00000
00100
00100
,
00100
00000
00000
00000
,
10000
00000
00000
00000
,
00010
00000
00000
00000
,
00001
00000
00000
00000
,
00001
00000
00000
00000
,
10000
00000
00000
00000
,
00010
00000
00000
00000
,
00100
00000
00000
00000
,
10000
00000
00000
00000
,
10000
00000
00000
00000
,
00100
00000
00000
00000
,
01000
00000
00000
00000
,
10000
00000
01000
00000
,
00100
00000
00010
00000
,
00001
00000
00000
00000
,
00101
00000
00000
00000
,
00000
01000
00000
00001
,
00000
01000
00000
00001
,
00000
00001
00000
01000
,
00000
00001
00000
01000
,
00000
10000
00000
00010
,
00000
10000
00000
00001
,
00000
00001
00000
01000
,
00000
00001
00000
01000
,
00000
00100
00000
10000
,
00000
00100
00000
10000
,
00000
00100
00000
10000
,
00000
00100
00000
10000
,
00000
01000
00000
00010
,
00000
01000
00000
00010
,
00000
01000
00000
00010
,
00000
00000
00100
01000
,
01010
00000
00000
00000
,
00100
00000
00000
00000
,
00100
00000
00000
00000
,
00100
00000
00000
00000
,
10000
00000
00000
00000
,
01000
00000
00000
00000
,
00001
00000
00000
00000
,
00100
00000
00000
00000
,
01000
00000
00000
00000
,
00001
00000
00000
00000
,
00001
00000
00000
00000
,
00100
00000
00000
00000
,
10000
00000
01000
00000
,
00100
00000
00010
00000
,
00001
00000
00000
00000
,
10001
00000
00000
00000
,
00010
00000
00010
00000
,
00020
00000
00030
00000
,
01000
00000
01000
00000
,
02000
00000
03000
00000
,
00001
00000
00001
00000
,
00002
00000
00003
00000
,
00010
00000
00010
00000
,
00020
00000
00030
00000
,
00100
00000
00100
00000
,
00200
00000
00300
00000
,
10000
00000
10000
00000
,
20000
00000
30000
00000
,
00001
00000
00010
00000
,
00200
00000
00300
00000
,
00001
00000
00010
00000
,
00100
00000
00100
10000
;

//---------------pnm-nine - ----------------
#NOTEDATA:;
#CHARTNAME:;
#STEPSTYPE:pnm-nine;
#DESCRIPTION:;
#CHARTSTYLE:;
#DIFFICULTY:Medium;
#METER:6;
#RADARVALUES:0.559705,0.628449,1.019505,0.033703,0.000000,465.000000,337.000000,121.000000,4.000000,0.000000,7.000000,0.000000,0.000000,0.000000,0.559705,0.628449,1.019505,0.033703,0.000000,465.000000,337.000000,121.000000,4.000000,0.000000,7.000000,0.000000,0.000000,0.000000;
#CREDIT:;
#NOTES:
000000000
000000000
010100000
010100000
000000000
000000000
000000100
000000000
,
000000000
000000000
000001010
000001010
000000000
000000000
001000000
000000000
,
000000000
000000000
000101000
000101000
000000000
000000000
000010000
000000000
,
000000000
000000000
010100000
010100000
000000000
000000000
001000000
000000000
,
000000000
000000000
000010100
000010100
000000000
000000000
000001000
000000000
,
000000000
000000000
000000101
000000101
000000000
000000000
000000010
000000000
,
000000000
000000000
010100000
010100000
000000000
000000000
000001000
000000000
,
000000000
000000000
000000000
000000000
100000000
001000000
000010000
000000000
,
001000000
000000000
000010000
000000000
001000000
000100000
001000000
000000000
,
010100000
000000000
100000000
010000000
000000000
000100000
000000000
000000020
,
000000000
100000000
000000000
100000000
,
000000030
000000000
100000000
000000000
000100000
010000000
000100000
000000000
,
100010000
100100000
101000000
100010000
,
001001000
000000000
000001000
001000000
000000000
000100000
000000000
000020000
,
000000000
001000000
000000000
001000000
,
000030000
000000000
001000000
000000000
001000000
000010000
001000000
000000000
,
000000101
000001010
000010100
000001010
,
000000101
000000000
000010000
000001000
000000000
000000010
000000000
000000002
,
000000000
000010000
000000000
000010000
,
000000003
000000000
000010000
000000000
001000000
000100000
001000000
000000000
,
001010000
001010000
010100000
010100000
,
101000000
000000000
000001000
000100000
000000000
010000000
000000000
002000000
,
000000000
000001000
000000000
000001000
,
003000000
000000000
010000010
000101000
,
010001000
010001000
010001000
001010000
,
000100000
000001000
000000000
000001010
000000000
000000000
100100000
000000000
,
010100000
010100000
010100000
010100000
,
000101000
000010000
000000000
000010000
000000000
000000000
010100000
000000000
,
000000001
000000000
000000010
000000000
000000100
000000000
000001000
000000100
,
000001000
000000010
000000000
000000101
000000000
000000000
101010000
000000000
,
100000000
000000000
010000000
000000000
001000000
000000000
000100000
100000000
,
000100000
100000000
000100000
100000000
000000000
000000000
110100000
000000000
,
001010000
000000000
001010000
000000000
001010000
000000000
001010000
000100000
,
000100000
000100000
000000000
100000000
000000000
000000000
101000000
000000000
,
000000101
000000000
000000101
000000000
000000101
000000000
000000001
000000100
,
000000001
000000100
000000000
000000101
000000000
000000000
001001000
000000000
,
100000000
000000000
010000000
000000000
001000000
000000000
000100000
000010000
,
000100000
000010000
000000000
000100000
000000000
000000000
000000100
000001000
,
001010000
000000000
001010000
000000000
001010000
001010000
000000000
000010101
,
000000000
000000000
000000000
001010000
,
000000000
000000000
100000000
100000000
000000000
000000000
001000000
000000000
,
000000000
000000000
000010000
000010000
000000000
000000000
010000000
000000000
,
000000000
000000000
001000000
001000000
000000000
000000000
000010000
000000000
,
000000000
000000000
000010000
000010000
000000000
000000000
000000010
000000000
,
000000000
000000000
000001000
000001000
000000000
000000000
001000000
000000000
,
000000000
000000000
000010000
000010000
000000000
000000000
010000000
000000000
,
000000000
000000000
000000010
000000010
000000000
000000000
000100000
000000000
,
000000000
000000000
010000000
010000000
000000000
000000000
000000001
000000000
,
000000000
000000000
001000000
001000000
000000000
000000000
000001000
000000000
,
000000000
000000000
100000000
100000000
000000000
000000000
010000000
000000000
,
000000000
000000000
010000000
010000000
000000000
000000000
001000000
000000000
,
000000000
000000000
000000100
000000100
000000000
000000000
001000000
000000000
,
000000000
000000000
001000000
001000000
000000000
000000000
000010000
000000000
,
000000000
000000000
010000000
010000000
000000000
000000000
001000000
000000000
,
000000000
000000000
000000100
000000100
000000000
000000000
001000000
000000000
,
000000000
000000000
000000000
000100000
000100000
000000000
100010000
000000000
,
100100000
000000000
100100000
000000000
100100000
000000000
100000000
010000000
,
001000000
000100000
000000000
000010000
000000000
000000000
001001000
000000000
,
000100000
000000000
000100000
000000000
000100000
000000000
000001000
000100000
,
000001000
000100000
000000000
000101000
000000000
000000000
010100000
000000000
,
000101000
000000000
010010000
000000000
000101000
000000000
000000001
000000100
,
000010000
001000000
000000000
010000000
000000000
000000000
100010000
000000000
,
001000000
000000000
000010000
000000000
001000000
000100000
000010000
000100000
,
001000000
010000000
100000000
010000000
000000000
000000000
010001000
000000000
,
000101000
000000000
000101000
000000000
000101000
000000000
010000000
000100000
,
010000000
000100000
000000000
001001000
000000000
000000000
000011000
000000000
,
001000100
000000000
001000100
000000000
001000100
000000000
001000000
000010000
,
000000100
000010000
000000000
001000100
000000000
000000000
001010000
000000000
,
100000000
000000000
010000000
000000000
001000000
000000000
000100000
000010000
,
000001000
000000100
000000000
000000010
000000000
000000000
000000001
000000010
,
000000100
000000000
000001000
000000000
000010000
000100000
000000000
101000000
,
000000000
000000000
000000000
000000000
000000000
000000000
100000000
001000000
,
100100000
100100000
100100000
000000000
,
001010000
001010000
001010000
001010000
,
001000000
000010000
001000000
000000000
000010000
001000000
000010000
000000000
,
010010000
000000000
000000000
000000000
000000000
000000000
100000000
010000000
,
100100000
100100000
100100000
000000000
,
000010100
000010100
000010100
000010100
,
000010000
000000100
000010000
000000000
000010000
001000000
000010000
000000000
,
001010100
000000000
000000000
000000000
000000000
000000000
001000000
000100000
,
000010100
000010100
000010100
000000000
,
001001000
001001000
001001000
001001000
,
001000000
000001000
001000000
000000000
000001000
000100000
000001000
000000000
,
000001101
000000000
000000000
000000000
000000000
000000000
000000001
000000100
,
000011000
000011000
000011000
000000000
,
001010000
001010000
001010000
001010000
,
001000000
000100000
000010000
000100000
001000000
000000000
000000000
001101000
,
000000000
000000000
000000000
010100000
010100000
000000000
010101000
000000000
;

//---------------pnm-five - ----------------
#NOTEDATA:;
#CHARTNAME:;
#STEPSTYPE:pnm-five;
#DESCRIPTION:;
#CHARTSTYLE:;
#DIFFICULTY:Medium;
#METER:6;
#RADARVALUES:0.499522,0.628449,0.867843,0.033703,0.000000,415.000000,310.000000,103.000000,4.000000,0.000000,2.000000,0.000000,0.000000,0.000000,0.499522,0.628449,0.867843,0.033703,0.000000,415.000000,310.000000,103.000000,4.000000,0.000000,2.000000,0.000000,0.000000,0.000000;
#CREDIT:;
#NOTES:
00000
00000
01010
01010
00000
00000
10100
00000
,
00000
00000
01010
01010
00000
00000
00100
00000
,
00000
00000
01010
01010
00000
00000
00001
00000
,
00000
00000
01010
01010
00000
00000
00100
00000
,
00000
00000
10001
10001
00000
00000
01000
00000
,
00000
00000
10001
10001
00000
00000
00001
00000
,
00000
00000
10001
10001
00000
00000
01000
00000
,
00000
00000
00000
00000
10000
00100
00001
00000
,
00100
00000
00001
00000
00100
00010
00100
00000
,
01010
00000
10000
01000
00000
00010
00000
00000
,
00002
10000
00000
10000
,
00003
00000
10000
00000
00010
01000
00010
00000
,
10001
10010
10100
10001
,
00100
00000
10000
00100
00000
00010
00000
00002
,
00000
00100
00000
00100
,
00003
00000
00100
00000
00100
00001
00100
00000
,
10010
01000
00001
01000
,
00100
00000
00001
01000
00000
00010
00000
00200
,
00000
00001
00000
00001
,
00300
00000
00001
00000
00100
00010
00100
00000
,
00101
00101
01010
01010
,
10100
00000
01000
00010
00000
01000
00000
00200
,
00000
00000
00000
00000
,
00300
00000
01000
00010
,
01000
01000
01000
00101
,
00010
00000
00000
01000
00000
00000
10010
00000
,
01010
01010
01010
01010
,
00010
00000
00000
00001
00000
00000
01010
00000
,
01100
01100
01100
01100
,
10010
00000
00000
01000
00000
00000
10101
00000
,
10000
00000
01000
00000
00100
00000
00010
10000
,
00010
10000
00010
10000
00000
00000
11010
00000
,
00101
00101
00101
00101
,
00010
00000
00000
10000
00000
00000
10100
00000
,
01010
01010
01010
10010
,
10100
00000
00000
00001
00000
00000
00100
00000
,
10000
01000
00100
00010
,
00001
00000
00000
00010
00000
00000
00000
00000
,
00101
00000
00101
00000
00101
00101
00000
00101
,
00000
00000
00000
00101
,
00000
00000
10000
10000
00000
00000
00100
00000
,
00000
00000
00001
00001
00000
00000
01000
00000
,
00000
00000
00100
00100
00000
00000
00001
00000
,
00000
00000
00001
00001
00000
00000
01000
00000
,
00000
00000
00010
00010
00000
00000
00100
00000
,
00000
00000
00001
00001
00000
00000
01000
00000
,
00000
00000
10000
10000
00000
00000
00010
00000
,
00000
00000
01000
01000
00000
00000
00010
00000
,
00000
00000
00100
00100
00000
00000
01000
00000
,
00000
00000
10000
10000
00000
00000
01000
00000
,
00000
00000
01000
01000
00000
00000
00100
00000
,
00000
00000
10000
10000
00000
00000
00100
00000
,
00000
00000
00100
00100
00000
00000
00001
00000
,
00000
00000
01000
01000
00000
00000
00100
00000
,
00000
00000
00001
00001
00000
00000
00100
00000
,
00000
00000
00000
00010
00010
00000
10001
00000
,
10010
10010
10010
10000
,
01000
00000
00000
00001
00000
00000
00100
00000
,
00010
00010
00010
01000
,
00000
00010
00000
00010
00000
00000
01010
00000
,
00010
01001
00010
01000
,
00001
00000
00000
01000
00000
00000
10001
00000
,
00100
00000
00001
00000
00100
00010
00001
00010
,
00100
01000
10000
01000
00000
00000
01010
00000
,
00010
00010
00010
01000
,
01000
00000
00000
00100
00000
00000
00001
00000
,
00100
00100
00100
00100
,
00001
00000
00000
00100
00000
00000
00101
00000
,
10000
00000
01000
00000
00100
00000
00010
00001
,
00010
01000
00000
00100
00000
00000
10010
00000
,
10010
00000
00000
00000
01001
00000
00000
10100
,
00000
00000
00000
00000
00000
00000
10000
00100
,
10010
10010
10010
00000
,
00101
00101
00101
00101
,
00100
00001
00100
00000
00001
00100
00001
00000
,
01001
00000
00000
00000
00000
00000
10000
01000
,
10010
10010
10010
00000
,
00101
00101
00101
00101
,
00001
00100
00001
00000
00001
00100
00001
00000
,
00101
00000
00000
00000
00000
00000
00100
00010
,
01001
01001
01001
00000
,
01100
01100
01100
01100
,
00100
00010
00100
00000
00100
00010
00100
00000
,
00000
00000
00000
00000
00000
00000
10000
01000
,
00101
00101
00101
00000
,
10001
10001
10001
10001
,
00100
00010
00001
00010
00100
01000
00000
01010
,
00000
00000
00000
01010
01010
00000
01010
00000
;

//---------------pnm-five - ----------------
#NOTEDATA:;
#CHARTNAME:;
#STEPSTYPE:pnm-five;
#DESCRIPTION:;
#CHARTSTYLE:;
#DIFFICULTY:Easy;
#METER:4;
#RADARVALUES:0.300917,0.480579,0.370729,0.033703,0.000000,250.000000,205.000000,44.000000,4.000000,0.000000,1.000000,0.000000,0.000000,0.000000,0.300917,0.480579,0.370729,0.033703,0.000000,250.000000,205.000000,44.000000,4.000000,0.000000,1.000000,0.000000,0.000000,0.000000;
#CREDIT:;
#NOTES:
00000
00100
00000
00100
,
00000
00100
00000
00100
,
00000
00100
00000
00100
,
00000
00100
00000
00100
,
00000
10000
00000
10000
,
00000
10000
00000
10000
,
00000
10000
00000
10000
,
00000
00000
00000
00100
,
01000
01010
01010
01010
,
00100
00000
10000
00000
,
00200
00000
00000
00000
,
00300
00000
00000
00000
,
10100
10100
10100
10100
,
00101
00000
00011
00000
,
00002
00000
00000
00000
,
00003
00000
00000
00000
,
01010
01010
01010
01010
,
01100
00000
11000
00000
,
00020
00000
00000
00000
,
00030
00000
00000
00000
,
01010
01010
01010
01010
,
01001
00000
00101
00000
,
00002
00000
00000
00000
,
00003
00000
00000
00000
,
10000
00010
10000
00000
,
10010
00000
00000
00000
,
00001
00100
00001
00000
,
00101
00000
00000
00000
,
01000
00100
00010
00000
,
01001
00000
00000
00000
,
00010
01000
00010
00100
,
01000
10000
01000
00000
,
10000
01000
10000
01000
,
01001
00000
00000
00000
,
00010
01000
00100
01000
,
01001
00000
00000
00000
,
10000
01000
00100
01000
,
00100
00000
00000
01000
00000
00000
10000
00000
,
01000
00000
00100
00000
01000
00000
00000
00010
,
00000
00000
00000
00000
,
00000
10000
00000
10000
,
00000
10000
00000
10000
,
00000
01000
00000
01000
,
00000
01000
00000
01000
,
00000
00100
00000
00100
,
00000
00100
00000
00100
,
00000
00010
00000
00010
,
00000
00010
00000
00010
,
00000
00001
00000
00001
,
00000
00001
00000
00001
,
00000
00100
00000
10000
,
00000
00100
00000
01000
,
00000
00100
00000
01000
,
00000
00100
00000
00001
,
00000
01000
00000
00100
,
00000
00000
00000
00000
,
10000
00100
10000
00100
,
01010
00000
01010
00000
,
00010
01000
00010
01000
,
01100
00000
01100
00000
,
01000
00100
01000
00100
,
10100
00000
10100
00000
,
10000
01000
00100
00010
,
10001
01100
10100
00000
,
00010
01000
00010
01000
,
01010
00000
00101
00000
,
10000
01000
00100
01000
,
10010
00000
10100
00000
,
10000
01000
10000
01000
,
00010
00000
00000
01000
00000
00000
00000
00000
,
10010
00000
01000
00000
00100
00000
00000
01000
,
00000
00000
00000
00000
,
10000
00100
10000
00000
,
00010
00000
00010
00000
,
01000
00010
01000
00010
,
01000
00000
00000
00000
,
01000
00100
00010
00000
,
10010
00000
10010
00000
,
01000
00100
01000
00100
,
01000
00000
00000
00000
,
10000
01000
00100
00000
,
00010
01000
00010
01000
,
00100
00100
00100
00100
,
01010
00000
00000
00000
,
10000
01000
10000
00000
,
00010
01000
00010
01000
,
00100
01000
10000
01000
,
00100
00000
00000
10101
;

//---------------pnm-nine - ----------------
#NOTEDATA:;
#CHARTNAME:;
#STEPSTYPE:pnm-nine;
#DESCRIPTION:;
#CHARTSTYLE:;
#DIFFICULTY:Easy;
#METER:4;
#RADARVALUES:0.349063,0.702385,0.648776,0.033703,0.000000,290.000000,206.000000,77.000000,4.000000,0.000000,6.000000,0.000000,0.000000,0.000000,0.349063,0.702385,0.648776,0.033703,0.000000,290.000000,206.000000,77.000000,4.000000,0.000000,6.000000,0.000000,0.000000,0.000000;
#CREDIT:;
#NOTES:
000000000
001000000
000000000
001000000
,
000000000
001000000
000000000
001000000
,
000000000
001000000
000000000
001000000
,
000000000
001000000
000000000
001000000
,
000000000
100000000
000000000
100000000
,
000000000
100000000
000000000
100000000
,
000000000
100000000
000000000
100000000
,
000000000
000000000
000000000
001000010
,
000001000
000100010
000100010
000100010
,
001000000
000000000
000001000
000000000
,
002000000
000000000
000000000
000000000
,
003000000
000000000
000000000
000000000
,
001000100
001000100
001000100
001000100
,
001010000
000000000
000010001
000000000
,
000020000
000000000
000000000
000000000
,
000030000
000000000
000000000
000000000
,
000000110
000000110
000000110
000000110
,
011000000
000000000
000001010
000000000
,
000000020
000000000
000000000
000000000
,
000000030
000000000
000000000
000000000
,
010100000
010100000
010100000
010100000
,
000010100
000000000
001010000
000000000
,
000000020
000000000
000000000
000000000
,
000000030
000000000
000000000
000000000
,
000000010
000001000
000000010
000000000
,
000100010
000000000
000000000
000000000
,
000010000
000000100
000010000
000000000
,
001010100
000000000
000000000
000000000
,
010000000
001000000
000100000
000000000
,
000010001
000000000
000000000
000000000
,
000000010
000000100
000001000
001000000
,
010000000
100000000
010000000
000000000
,
100000000
010000000
100000000
010000000
,
000010100
000000000
000000000
000000000
,
000000001
000000100
000000001
000000010
,
001010000
000000000
000000000
000000000
,
100000000
010000000
001000000
010000000
,
001000000
000000000
000000000
010000000
000000000
000000000
100000000
000000000
,
010000000
000000000
001000000
000000000
010000000
000000000
000000000
000101010
,
000000000
000000000
000000000
000000000
,
000000000
100000000
000000000
100000000
,
000000000
100000000
000000000
100000000
,
000000000
010000000
000000000
010000000
,
000000000
010000000
000000000
010000000
,
000000000
001000000
000000000
001000000
,
000000000
001000000
000000000
001000000
,
000000000
000100000
000000000
000100000
,
000000000
000100000
000000000
000100000
,
000000000
000010000
000000000
000010000
,
000000000
000010000
000000000
000010000
,
000000000
000001000
000000000
000001000
,
000000000
000000100
000000000
000000100
,
000000000
000000010
000000000
000000010
,
000000000
000000001
000000000
000000001
,
000000000
010000000
000000000
001000000
,
000000000
000000000
000000000
000000000
,
100000001
001000100
100000001
001000100
,
010100000
000000000
010100000
000000000
,
000101000
010000010
000101000
010000010
,
010100000
000000000
010100000
000000000
,
010000010
001000100
010000010
001000100
,
101010000
000000000
101010000
000000000
,
100000000
010000000
001000000
000100000
,
100010000
100010000
101000000
000000000
,
000100000
000001000
000100000
010000000
,
010100000
000000000
001010000
000000000
,
100000000
010000000
001000000
000010000
,
100010000
000000000
101000000
000000000
,
100000000
010000000
000001000
000000100
,
000100000
000000000
000000000
010000000
000000000
000000000
000000000
000000000
,
100100000
000000000
010000000
000000000
001000000
000000000
000000000
000000010
,
000000000
000000000
000000000
000000000
,
100000000
001000000
100000000
000000000
,
000110000
000000000
000110000
000000000
,
000000100
000010000
000000100
000100000
,
010000000
000000000
000000000
000000000
,
000001000
000000100
000000010
000000000
,
010100000
001010000
010100000
000000000
,
010001000
001000100
010000010
001000100
,
010001000
000000000
000000000
000000000
,
101000000
010100000
001010000
000000000
,
000101000
010000010
000101000
010000010
,
001010000
001000100
001010000
001000100
,
010101000
000000000
000000000
000000000
,
100000000
010000000
000000001
000000000
,
000001000
000100000
000100000
000000010
,
001000000
010000000
100000000
010000000
,
001000000
000000000
000000000
101010100
;
