#TITLE:SERENDIPITY;
#SUBTITLE:;
#ARTIST:ZAQ;
#TITLETRANSLIT:;
#SUBTITLETRANSLIT:;
#ARTISTTRANSLIT:;
#GENRE:;
#CREDIT:caramelangel714;
#BANNER:SERENDIPITY.png;
#BACKGROUND:SERENDIPITY-bg.png;
#LYRICSPATH:;
#CDTITLE:;
#MUSIC:Serendipity.mp3;
#OFFSET:-0.040001;
#SAMPLESTART:53.060005;
#SAMPLELENGTH:12.000000;
#SELECTABLE:YES;
#BPMS:0.000000=173.000000
;
#STOPS:
;
#BGCHANGES:0.500=SERENDIPITY.avi=1.000=0=0=1=====,
99999=-nosongbg-=1.000=0=0=0 // don't automatically add -songbackground-
;
#KEYSOUNDS:;
#ATTACKS:;

//---------------dance-single - ----------------
#NOTES:
     dance-single:
     :
     Easy:
     4:
     0.274663,0.414772,0.259232,0.140418,0.000000,178.000000,154.000000,24.000000,13.000000,0.000000,0.000000,0.274663,0.414772,0.259232,0.140418,0.000000,178.000000,154.000000,24.000000,13.000000,0.000000,0.000000:
0000
0000
0000
0000
,
0000
0000
0000
0000
,
0000
0000
0000
0000
,
0000
0000
0000
0000
,
0000
0000
0000
0000
,
0000
0100
0000
0100
,
0000
0100
0010
0101
,
0000
0100
0000
0100
,
0000
0100
1000
1100
,
0000
0010
0000
0101
,
0000
0010
0000
0100
,
0000
0100
0010
0010
,
0000
1000
0100
0100
,
1000
0100
1000
0000
,
0001
0010
0001
0000
,
0100
0010
0100
0000
,
0001
0100
0001
0000
,
1000
0000
1000
0000
,
0001
0000
0001
0000
,
0100
0010
0001
1000
,
0100
0010
0001
0000
,
1001
0000
0100
0010
,
0100
0000
0000
0000
,
0100
0010
1000
0100
,
1000
0000
0000
0000
,
0001
0100
0001
0100
,
0101
0001
0100
0001
,
0101
0010
1000
0010
,
1000
0010
1000
0000
,
2020
0000
3030
0000
,
0202
0000
0303
0000
,
2002
0000
3003
0000
,
2200
0000
3300
0000
,
0000
0010
0000
0010
,
0000
0010
0000
0010
,
0000
0010
0000
0010
,
0000
0010
0000
0010
,
2000
0000
0000
3001
,
1001
0000
0000
0000
,
0100
0010
0100
0010
,
1000
0010
0100
0010
,
0001
0100
0010
1000
,
0001
0100
0010
0100
,
1001
0100
0010
0100
,
0001
0001
1000
1000
,
0010
0100
0001
0100
,
1000
0000
0001
0001
,
1010
0000
1000
1000
,
1010
0000
0100
0100
,
0110
0000
0010
0010
,
0011
0001
0010
0100
,
1000
0010
1000
0010
,
1000
0000
0001
0010
,
1001
0000
0000
0010
,
1001
0000
0000
0000
,
2002
0000
3003
0000
,
0110
0110
0110
0000
,
1000
0010
1000
0010
,
1001
0000
0000
0000
,
0000
1000
0000
0001
,
0000
0100
0010
0100
,
0000
0001
1000
0010
,
0220
0000
0000
0000
,
0000
0000
0000
0000
,
0330
0000
0000
0000
;

//---------------dance-single - ----------------
#NOTES:
     dance-single:
     :
     Beginner:
     2:
     0.143504,0.276515,0.086411,0.086411,0.000000,93.000000,85.000000,8.000000,8.000000,0.000000,0.000000,0.143504,0.276515,0.086411,0.086411,0.000000,93.000000,85.000000,8.000000,8.000000,0.000000,0.000000:
// measure 0
0000
0000
0000
0000
,  // measure 1
0000
0000
0000
0000
,  // measure 2
0000
0000
0000
0000
,  // measure 3
0000
0000
0000
0000
,  // measure 4
0000
0000
0000
0000
,  // measure 5
0000
0001
0000
0100
,  // measure 6
0000
0001
0000
0100
,  // measure 7
0000
0001
0000
0100
,  // measure 8
0000
0001
0000
0100
,  // measure 9
0000
0010
0000
0100
,  // measure 10
0000
0010
0000
0100
,  // measure 11
0000
0010
0000
0100
,  // measure 12
0000
0010
0000
0000
,  // measure 13
1000
0000
0000
0000
,  // measure 14
0010
0000
0000
0000
,  // measure 15
0100
0000
0000
0000
,  // measure 16
0100
0000
0000
0000
,  // measure 17
0010
0000
0000
0000
,  // measure 18
1000
0000
0000
0000
,  // measure 19
0001
0000
0000
0000
,  // measure 20
0100
0000
0000
0000
,  // measure 21
0010
0000
0100
0000
,  // measure 22
0010
0000
0100
0000
,  // measure 23
0010
0000
0001
0000
,  // measure 24
0010
0000
1000
0000
,  // measure 25
0010
0000
0100
0000
,  // measure 26
1000
0000
0100
0000
,  // measure 27
0010
0000
0001
0000
,  // measure 28
0010
0000
0010
0000
,  // measure 29
1001
0000
0000
0000
,  // measure 30
0110
0000
0000
0000
,  // measure 31
0010
0000
0000
0000
,  // measure 32
0100
0000
0000
0000
,  // measure 33
0110
0000
0000
0000
,  // measure 34
0100
0000
0000
0000
,  // measure 35
0001
0000
0000
0000
,  // measure 36
0000
0000
0000
0000
,  // measure 37
2000
0000
0000
0000
,  // measure 38
3001
0000
0000
0000
,  // measure 39
0000
0100
0000
0010
,  // measure 40
0000
0100
0000
0010
,  // measure 41
0000
0001
0000
1000
,  // measure 42
0000
0001
0000
1000
,  // measure 43
0000
0100
0000
0010
,  // measure 44
0000
0100
0000
0010
,  // measure 45
0000
0001
0000
1000
,  // measure 46
0000
0001
0000
1000
,  // measure 47
1001
0000
0000
0000
,  // measure 48
0110
0000
0000
0000
,  // measure 49
0200
0000
0300
0000
,  // measure 50
0020
0000
0030
0000
,  // measure 51
2002
0000
0000
0000
,  // measure 52
3003
0000
0000
0000
,  // measure 53
0200
0000
0000
0000
,  // measure 54
0320
0000
0000
0000
,  // measure 55
0030
0000
0000
0000
,  // measure 56
1000
0010
0100
0000
,  // measure 57
1001
0000
0110
0000
,  // measure 58
1000
0010
1000
0000
,  // measure 59
0000
1000
0000
0010
,  // measure 60
0000
1000
0000
0010
,  // measure 61
0000
0100
0000
0020
,  // measure 62
0000
0000
0000
0000
,  // measure 63
0000
0000
0000
0000
,  // measure 64
0030
0000
0000
0000
;

//---------------dance-single - ----------------
#NOTES:
     dance-single:
     :
     Medium:
     7:
     0.405822,0.553029,0.205226,0.129616,0.000000,263.000000,244.000000,19.000000,12.000000,0.000000,0.000000,0.405822,0.553029,0.205226,0.129616,0.000000,263.000000,244.000000,19.000000,12.000000,0.000000,0.000000:
0000
0000
0000
0000
,
0000
0000
0000
0000
,
0000
0000
0000
0000
,
0000
0000
0000
0000
,
0000
0000
0000
0000
,
1000
0010
0100
0000
0001
0000
0100
0000
,
0001
0100
0010
0000
0100
0000
0010
0000
,
0001
0100
1000
0000
0010
0100
0010
0000
,
0100
0010
0100
0000
0001
0000
1000
0000
,
0010
1000
0010
0000
0010
0001
0010
0000
,
0100
0001
0100
0000
0010
1000
0010
0000
,
0100
0001
0100
0000
0010
1000
0010
0000
,
0001
0010
0001
0000
2000
0000
0000
0000
,
3001
0000
0001
0000
0000
0100
0010
0000
,
0100
0000
0100
0000
0000
0010
0100
0000
,
1000
0000
1000
0000
0000
0010
0010
0000
,
0001
0000
0001
0000
0000
0100
0010
0000
,
0100
0000
0001
0000
0000
0010
1000
0000
,
0100
0000
0100
0000
0000
0010
1000
0000
,
0100
0000
0001
0000
0000
0100
0010
0000
,
0100
0000
0001
0000
0000
0100
0010
0000
,
1000
0000
0001
0000
0100
0010
0100
0000
,
0001
0000
0100
0000
0010
0100
0001
0000
,
0010
0000
1000
0000
0100
0010
0100
0000
,
0001
0000
1000
0000
1000
0010
1000
0000
,
0100
0000
0001
0000
0010
0100
0001
0000
,
0010
0000
1000
0000
0010
0100
0001
0000
,
0010
0000
1000
0000
0010
0100
0001
0000
,
1000
0000
0010
0000
0100
0010
0100
0000
,
2001
0000
3100
0000
,
0120
0000
1030
0000
,
0201
0000
0310
0000
,
2010
0000
3001
0000
,
0110
0100
0011
1000
,
1010
0100
0110
0100
,
0101
0001
0001
0001
,
1001
1000
1000
1000
,
2000
0000
0000
0000
,
3001
0001
0000
0000
,
0100
0010
0100
0000
0001
0100
0010
0000
,
1000
0100
0010
0000
0001
0100
0010
0000
,
1000
0010
0100
0000
0001
0100
0010
0000
,
1000
0001
0100
0000
0001
0100
0010
0000
,
1001
0000
1010
0000
0100
0010
0100
0000
,
1001
0000
0110
0000
0100
0001
0100
0000
,
1001
0000
0100
0010
0100
0000
0001
1000
,
0001
0000
0001
0000
1000
0010
0100
0010
,
0000
0000
0000
0001
0100
0010
1000
0001
,
0000
0000
0000
0100
0010
0100
0001
0010
,
0000
0000
0000
0000
0100
0010
1000
0010
,
0000
0010
0001
1000
,
0100
0010
0100
0000
0001
1000
0010
0000
,
0100
0010
0100
0000
0001
1000
0001
0000
,
2000
0000
0000
3001
,
0002
0000
0000
0003
,
1001
0000
0110
0000
,
2000
0000
3002
0000
,
1003
0000
0100
0000
,
0110
0000
0000
0000
,
1000
0000
0010
0000
0100
0010
0100
0000
,
0001
0000
1000
0000
0010
0100
0010
0000
,
0001
0000
1000
0000
0010
0100
0010
0100
,
0220
0000
0000
0000
,
0000
0000
0000
0000
,
0330
0000
0000
0000
;

//---------------dance-single - ----------------
#NOTES:
     dance-single:
     :
     Hard:
     8:
     0.515379,0.553029,0.226828,0.108014,0.000000,334.000000,313.000000,21.000000,10.000000,0.000000,0.000000,0.515379,0.553029,0.226828,0.108014,0.000000,334.000000,313.000000,21.000000,10.000000,0.000000,0.000000:
0000
0000
0000
0000
,
0000
0000
0000
0000
,
0000
0000
0000
0000
,
0000
0000
0000
0000
,
0000
0000
0000
0000
,
1000
0100
0100
0000
0001
0010
0010
0000
,
1000
0010
0100
0000
0001
0100
0010
0000
,
1000
0010
0100
0000
0001
1000
1000
0000
,
0001
0100
0001
0000
0010
0100
0010
0000
,
0001
1000
1000
0000
0001
0100
0001
0000
,
0001
0010
0010
0000
0001
0100
1000
0000
,
0010
0100
0010
0000
0001
1000
0001
0000
,
0100
0010
0100
0000
2002
0000
3003
0000
,
0110
0000
1000
0010
0100
0001
0100
0010
,
0100
0000
0010
0000
0010
0000
0010
1000
,
0100
0000
0100
0001
0100
0001
0100
0010
,
0100
0000
0001
0000
0001
0000
1000
0010
,
0100
0000
0001
0100
0100
0000
0010
0100
,
0010
0000
1000
0010
0100
0010
1000
0100
,
0010
0000
1000
0010
0100
0001
0001
0000
,
0100
0001
0010
0000
0100
1000
0010
0000
,
0100
0001
0100
0000
0010
1000
0010
0100
,
0100
0010
1000
0000
0100
0010
0100
0001
,
0010
1000
0010
0000
0100
0001
0100
0010
,
0010
0100
0010
0000
1000
0001
1000
0010
,
0100
0010
0010
0000
1000
0100
1000
0001
,
0010
0100
0100
0000
0001
1000
0010
0100
,
0001
0010
0001
1000
,
0010
0100
0010
0010
,
2001
0000
0100
3000
,
1002
0000
0100
0003
,
0120
0000
1000
0030
,
0210
0000
0001
0300
,
0010
0110
1000
1010
,
0100
0110
0001
0101
,
0010
1010
0100
0110
,
1000
1000
1000
1000
,
0001
1000
0001
1000
0001
1000
0001
1000
,
1001
1001
0000
0000
,
0100
1000
0100
1000
0001
0100
0010
1000
,
0010
0000
0100
0001
1000
0001
0000
0010
,
0000
0100
0000
0010
0000
1000
0000
1010
,
0000
0000
0100
1000
0100
1000
0001
1000
,
0010
0000
0100
0001
1000
0010
0000
0010
,
0000
0010
1000
0010
0100
0001
0000
0001
,
0100
0000
0010
0100
0001
0010
0100
0010
,
0010
0000
1000
0000
1000
0010
0100
0010
,
0010
0000
1000
0010
1000
0010
0100
0010
,
0001
0010
0001
0100
0001
0010
0100
0001
,
0000
0001
1000
0010
1000
0010
0100
0001
,
0010
0000
1010
0000
0100
0010
0001
0010
,
0000
0100
0010
0001
0010
0001
0010
0001
,
1000
0000
1000
0000
0001
0010
0001
0010
,
0002
1003
2000
3001
,
0100
0010
0100
0010
0100
0010
0100
0010
,
0110
0000
1001
0000
,
1000
0010
1000
0010
,
1010
0000
0101
0000
,
0010
0000
0100
0000
0010
0000
0001
1000
,
0010
0100
0010
0100
0010
1000
0001
1000
,
0001
0001
0001
1000
,
1000
0010
0100
0010
0000
0010
0010
0220
,
0000
0000
0000
0000
,
0000
0000
0000
0000
,
0330
0000
0000
0000
;

//---------------pnm-five - ----------------
#NOTES:
     pnm-five:
     :
     Hard:
     10:
     0.751465,0.933237,0.950519,0.388849,0.032404,487.000000,392.000000,88.000000,36.000000,0.000000,12.000000,0.751465,0.933237,0.950519,0.388849,0.032404,487.000000,392.000000,88.000000,36.000000,0.000000,12.000000:
00000
00000
00000
00000
,
10000
01000
00100
01000
10000
01000
00010
01000
,
10000
01000
00100
01000
10000
01000
00010
01000
,
10000
01000
00100
01000
10000
01000
00010
01000
,
10000
00000
00101
00000
10100
10100
00000
20000
,
00100
00000
00010
00000
00100
00000
00010
00000
00001
00000
00010
00000
30100
00001
00100
00001
,
10010
00000
01000
00000
00100
00000
01000
00000
00010
00000
10000
00000
01000
00001
01000
00001
,
00100
01000
00100
10000
00100
01000
00001
02000
,
00000
00000
03010
00000
00100
00000
01000
00000
10000
00000
00100
00010
01000
00000
00010
00000
,
01010
10000
01000
00100
10000
00001
01000
00200
,
00000
10300
01000
00100
10001
01010
10100
01000
,
00010
01000
00100
10000
01000
00001
00010
02000
,
00000
00100
00010
03100
20200
00000
00000
00000
,
30301
00000
01100
00000
10000
01000
00010
01000
,
00000
00001
00100
00010
00100
01000
10000
00100
,
10010
00000
01100
00000
00010
01000
00100
01000
,
10100
00000
10000
00100
10000
00100
10000
01000
,
00010
00000
00001
01000
10000
00000
10000
00100
,
00010
00000
00100
01000
10000
00000
10000
01000
,
00100
10000
00001
01000
00100
01000
00010
01000
,
00100
00000
01000
00000
10000
00000
00010
00000
01000
00000
00100
00010
01000
00000
10000
00000
,
00101
01010
00101
01000
10100
01010
10100
00100
,
01010
00101
01010
01000
00100
01000
10000
00100
,
00000
00100
00010
01000
00100
10100
10100
20200
,
00000
00000
30310
00001
00010
00100
01000
10000
,
10010
00000
01000
00100
01000
00010
00100
01001
,
00000
10010
00000
01100
00000
10010
00000
10100
,
00010
00001
00010
00100
01000
00100
10000
00100
,
01000
01010
01000
00000
10110
00000
10100
11000
,
20101
00000
00000
00000
30001
00010
00100
01000
,
10102
00000
00000
00000
00013
00100
01000
10000
,
02010
00000
00000
00000
03010
00100
01000
01010
,
01020
00000
00000
00000
10030
01000
00100
00010
,
10000
00000
00100
01010
00000
01010
00100
01000
,
10000
01000
00101
00000
00010
00100
11000
00000
,
01000
00100
01010
00100
01000
10000
00100
00010
,
01000
00010
01000
00100
10000
01000
00100
00020
,
00100
01000
00100
01000
00100
01000
00130
01000
,
10110
20220
00000
30330
,
00010
00100
01000
00010
01000
00100
01000
00010
,
00000
01010
01000
00100
00010
01000
00000
01010
,
00000
10110
00000
10100
00000
11000
00000
01010
,
01000
00010
10000
01000
00010
01000
10100
20200
,
00000
30301
00100
01000
00010
01000
10000
01000
,
00000
01010
10001
00000
01000
00100
00010
10010
,
00000
10010
01000
00100
01000
01020
00030
01200
,
00300
00000
10110
00000
10000
01000
00010
20020
,
00000
30030
00101
01000
00010
01000
00100
02020
,
00000
03030
10100
00000
10000
01000
00010
02020
,
00000
03030
01001
00000
10000
01000
00100
20200
,
00000
00000
30301
00000
10000
01000
00100
00010
,
00000
00010
01000
20000
00000
00000
30001
00010
,
10000
01000
00010
01010
00000
01010
01010
02020
,
00000
00000
03030
10100
,
20200
00000
00000
00000
30301
00000
10000
01000
,
00100
00010
00001
10100
00000
11000
00000
10000
,
01000
10000
00010
01000
00000
00000
01000
00100
,
00010
01000
00001
01010
00000
01010
00000
10100
,
00000
01010
00000
00101
00000
10001
01000
00200
,
00010
00010
00310
10000
01000
00100
10000
01010
,
00000
01010
10000
01010
00000
00001
01000
10000
,
01000
00100
00010
10000
00010
10000
10010
20020
,
00000
00000
00000
00000
,
00000
00000
00000
00000
,
30030
00000
00000
00000
;

//---------------pnm-five - ----------------
#NOTES:
     pnm-five:
     :
     Beginner:
     2:
     0.199053,0.311079,0.183623,0.162020,0.000000,129.000000,110.000000,17.000000,15.000000,0.000000,2.000000,0.199053,0.311079,0.183623,0.162020,0.000000,129.000000,110.000000,17.000000,15.000000,0.000000,2.000000:
00000
00000
00000
00000
,
00100
00000
00000
10000
,
10000
00000
00000
00000
,
00010
00000
00000
00100
,
00100
00000
00000
00000
,
00000
10000
00000
10000
,
00000
00100
00000
00100
,
00000
00001
00000
00001
,
00000
00010
00000
00010
,
00000
01000
00000
01000
,
00000
00100
00000
00100
,
00000
10000
00000
10000
,
00000
10000
10010
00000
,
00000
01000
00000
00100
,
00000
01000
00000
00100
,
00000
01000
00000
00100
,
00000
01000
00000
00100
,
00000
00010
00000
00100
,
00000
00010
00000
00100
,
00000
10000
00000
00100
,
00000
10000
01000
00100
,
20002
00000
00000
30003
,
00000
00000
10000
10000
,
00100
00000
00100
00000
,
10010
00000
00000
00000
,
02000
00000
00000
03000
,
00010
00000
00010
00000
,
20002
00000
00000
00000
,
30003
00000
00000
00000
,
10100
00000
00000
00000
,
10100
00000
00000
00000
,
01010
00000
00000
00000
,
01010
00000
00000
00000
,
10000
00000
00100
00000
,
10000
00000
01000
00000
,
00200
00000
00000
00300
,
00020
00000
00000
00030
,
20002
00000
00000
30003
,
01010
01010
00000
00000
,
10000
00100
00000
00100
,
00000
00010
00000
00010
,
10000
00100
00000
01000
,
00000
00010
00000
01000
,
00100
10000
00000
00010
,
00000
01000
00000
00010
,
10000
00010
00000
01000
,
00000
00100
00000
10000
,
10000
00000
00000
00010
,
00010
00000
00000
00100
,
00100
00000
00000
01000
,
01000
00000
00010
00000
,
10001
00000
10001
00000
,
10001
00000
00000
00000
,
20202
00000
00000
00000
,
30303
00000
00000
00000
,
10000
00000
01000
00000
,
00100
00000
00010
00000
,
00001
00000
00010
00000
,
00100
00000
01000
00000
,
10001
01000
00000
01000
,
00000
01000
00000
01000
,
00000
00010
00000
00010
,
20202
00000
00000
00000
,
00000
00000
00000
00000
,
30303
00000
00000
00000
;

//---------------pnm-five - ----------------
#NOTES:
     pnm-five:
     :
     Easy:
     4:
     0.376504,0.449336,0.475259,0.237630,0.000000,244.000000,194.000000,44.000000,22.000000,0.000000,6.000000,0.376504,0.449336,0.475259,0.237630,0.000000,244.000000,194.000000,44.000000,22.000000,0.000000,6.000000:
00000
00000
00000
00000
,
00100
00000
00000
00100
,
00000
00000
00000
00000
,
00010
00000
00000
00100
,
00000
00000
00000
00000
,
10000
00100
01000
00010
,
00010
01000
10000
00100
,
01000
01000
00010
00001
,
10010
00010
01000
10000
,
00010
01000
00100
01000
,
10000
01000
00100
00010
,
00001
10000
00100
10000
,
00010
10000
20202
30303
,
01000
00000
00010
00000
00000
01000
00100
00000
,
10010
00000
01000
00000
00000
00001
01000
00000
,
00101
00000
01000
00000
00000
01000
00100
00000
,
10100
00000
10000
00000
00000
00001
00010
00000
,
10100
00000
01000
00000
00000
10000
01000
00000
,
00101
00000
01000
00000
00000
00010
00100
00000
,
10100
00000
01000
00000
00000
00001
10000
00000
,
01010
00000
00100
00000
00000
10000
00100
00000
,
10000
01000
00100
00010
,
00001
10000
00001
10000
,
00100
00000
00000
10000
00000
00000
00100
00000
,
10000
00000
00001
00010
,
02000
03001
00000
10001
,
00200
10300
00000
10010
,
00002
01003
00000
10010
,
01000
01000
00000
00000
,
20200
00000
30300
00000
,
00202
00000
00303
00000
,
20002
00000
30003
00000
,
02020
00000
03030
00000
,
10000
00010
00000
00001
,
10000
00100
00000
10000
,
00001
10000
00010
01000
,
00100
00100
00100
00100
,
20202
00000
00000
30303
,
01010
01010
00000
00000
,
10001
01000
10001
01000
,
01000
00100
01000
00100
,
10001
10100
10001
10100
,
01000
00000
00010
01000
,
00101
10000
00101
10000
,
01000
01000
00010
00010
,
10000
01000
10000
01000
,
00101
00101
00010
00100
,
10000
10010
00010
00010
,
00010
00110
00100
00100
,
00100
11000
10000
10000
,
10000
00010
10000
00100
,
10101
00000
10101
00000
,
10101
01000
00100
01000
,
20000
00000
00000
31000
,
00020
00000
00000
00030
,
10100
10100
10100
10100
,
00100
00000
00100
00000
,
00101
00101
00101
00101
,
00100
00000
01000
00000
,
10000
01000
10000
01000
,
00001
00010
00001
00010
,
10000
00000
00010
00000
10000
00000
00000
00100
,
20202
00000
00000
00000
,
00000
00000
00000
00000
,
30303
00000
00000
00000
;

//---------------pnm-five - ----------------
#NOTES:
     pnm-five:
     :
     Medium:
     7:
     0.570929,0.656722,0.691287,0.162020,0.000000,370.000000,304.000000,64.000000,15.000000,0.000000,2.000000,0.570929,0.656722,0.691287,0.162020,0.000000,370.000000,304.000000,64.000000,15.000000,0.000000,2.000000:
00000
00000
00000
00000
,
10000
00010
10000
00010
,
01000
00100
01000
00100
,
00010
00100
00010
00100
,
10000
10000
10000
00000
,
10010
00000
00100
10000
01000
00010
00000
10010
,
00000
01000
00000
00010
00000
01000
00000
00010
,
01000
00100
01000
00100
00010
01000
00000
10010
,
00000
01010
00000
00010
00000
00100
00000
10000
,
00010
00100
01000
00010
00000
10100
00000
10100
,
00000
01010
00000
00101
00000
00011
00000
10000
,
00001
00100
10000
00100
00001
00100
10000
00010
,
00000
00000
10000
01000
20202
00000
30303
00000
,
01000
00000
00010
00000
00000
01000
00101
00000
,
10010
00000
01000
00000
00000
10000
01010
00000
,
00001
00000
00001
00000
00000
01000
00101
00000
,
10000
00000
01000
00000
00000
10000
01010
00000
,
00100
00000
01000
00000
00000
00001
00100
00000
,
00100
00000
01000
00000
00000
10000
01100
00000
,
00100
00010
01000
00000
10000
00001
10000
00000
,
10000
01000
00100
00000
00001
00010
00100
00000
,
10000
00100
01000
00000
00100
01000
00010
00000
,
01000
00100
01000
00000
00001
00010
00001
00000
,
10100
00000
00000
10001
00000
10000
01000
00101
,
00000
10010
10010
00000
00001
10000
00010
00000
,
01001
00000
00001
00000
00000
00100
00001
00000
,
10010
00000
10100
00000
00000
00001
01010
00000
,
10100
10100
00101
00101
,
01010
00100
01010
00000
01010
00000
00000
00000
,
20100
00000
30001
00000
,
00102
00000
10003
00000
,
21000
00000
30010
00000
,
00012
00000
01003
00000
,
10000
00100
00010
00000
00001
00100
01000
00000
,
10000
01000
00100
00000
00001
00010
10000
00000
,
00001
00100
10000
00000
00100
00010
01000
00000
,
00100
01000
00100
00000
00100
00001
00100
00000
,
10000
00100
10000
00100
10000
00100
10000
00100
,
01010
01010
01010
00000
00000
00000
00000
00000
,
10000
00100
01000
00100
00001
00100
10000
01000
,
00000
00001
00100
00001
00000
10000
00100
10000
,
00001
10010
00000
10100
00000
10001
00000
10100
,
00000
01010
00000
00000
00010
00100
01000
00100
,
00001
00100
10000
00100
00001
00100
00000
10010
,
00000
10010
00000
01100
00000
01100
00000
00010
,
10000
00010
01000
10000
00010
01000
00000
01010
,
00000
00101
00101
00000
10000
01000
00100
00010
,
00000
00000
10010
00000
00100
01000
00100
00001
,
00000
00000
10010
00000
00100
01000
00100
01000
,
00000
00000
00101
00000
10000
01000
10000
00100
,
00000
00000
00110
00000
10000
01000
00100
00010
,
00000
00001
00010
00100
00000
00000
10010
00100
,
10000
00000
01000
00100
00100
00001
00001
00000
,
20000
31000
00002
00103
,
02000
03001
00200
10300
,
10000
00100
10000
00100
00000
00100
00000
00001
,
00010
00100
01000
10000
00000
00000
10000
01000
,
00101
00101
00101
00101
00000
01010
00000
10100
,
00000
01010
00000
00002
00000
10000
01003
00100
,
10000
01000
00100
00000
00001
00010
00100
00000
,
10000
01000
00100
00000
00001
00010
00100
00000
,
10000
00100
10000
00000
10000
01000
00100
00010
,
20202
00000
00000
00000
,
00000
00000
00000
00000
,
30303
00000
00000
00000
;

//---------------pnm-nine - ----------------
#NOTES:
     pnm-nine:
     :
     Beginner:
     2:
     0.225285,0.345643,0.345643,0.162020,0.000000,146.000000,110.000000,32.000000,15.000000,0.000000,4.000000,0.225285,0.345643,0.345643,0.162020,0.000000,146.000000,110.000000,32.000000,15.000000,0.000000,4.000000:
000000000
000000000
000000000
000000000
,
001000000
000000000
000000000
000000001
,
000000001
000000000
000000000
000000000
,
000010000
000000000
000000000
001000000
,
001000000
000000000
000000000
000000000
,
000000000
000000100
000000000
000000100
,
000000000
000000010
000000000
000000010
,
000000000
000000001
000000000
000000001
,
000000000
000000100
000000000
000000100
,
000000000
010000000
000000000
010000000
,
000000000
100000000
000000000
100000000
,
000000000
000001000
000000000
000001000
,
000000000
100000000
010100000
000000000
,
000000000
010000010
000000000
001000100
,
000000000
010000010
000000000
001000100
,
000000000
010000010
000000000
001000100
,
000000000
010000010
000000000
001000100
,
000000000
000101000
000000000
001000100
,
000000000
000101000
000000000
001000100
,
000000000
100000000
000000000
001000000
,
000000000
000000100
000001000
000010000
,
200020000
000000000
000000000
300030000
,
000000000
000000000
000000100
000000100
,
000000001
000000000
000000010
000000000
,
000110000
000000000
000000000
000000000
,
020000000
000000000
000000000
030000000
,
000100000
000000000
000100000
000000000
,
200020000
000000000
000000000
000000000
,
300030000
000000000
000000000
000000000
,
001001000
000000000
000000000
000000000
,
001001000
000000000
000000000
000000000
,
010100000
000000000
000000000
000000000
,
010100000
000000000
000000000
000000000
,
000000010
000000000
000000100
000000000
,
100000000
000000000
010000000
000000000
,
002000000
000000000
000000000
003000000
,
000200000
000000000
000000000
000300000
,
000020002
000000000
000000000
000030003
,
010101000
010101000
000000000
000000000
,
000000001
000000010
000000000
000010000
,
000000000
000100000
000000000
000100000
,
100000000
001000000
000000000
000000100
,
000000000
000100000
000000000
000001000
,
001000000
000000100
000000000
000100000
,
000000000
010000000
000000000
000100000
,
100000000
000100000
000000000
000000010
,
000000000
000000100
000000000
000000001
,
100000000
000000000
000000000
000000010
,
000100000
000000000
000000000
000010000
,
001000000
000000000
000000000
010000010
,
010000010
000000000
000101000
000000000
,
100010000
000000000
100010000
000000000
,
100010000
000000000
000000000
000000000
,
202020000
000000000
000000000
000000000
,
303030000
000000000
000000000
000000000
,
100000000
000000000
010000000
000000000
,
001000000
000000000
000100000
000000000
,
000010000
000000000
000001000
000000000
,
000000100
000000000
000000010
000000000
,
000010001
010000000
000000000
010000000
,
000000000
010000000
000000000
010000000
,
000000000
000100000
000000000
000100000
,
202020000
000000000
000000000
000000000
,
000000000
000000000
000000000
000000000
,
303030000
000000000
000000000
000000000
;

//---------------pnm-nine - ----------------
#NOTES:
     pnm-nine:
     :
     Easy:
     4:
     0.402736,0.622158,0.615677,0.237630,0.000000,261.000000,195.000000,57.000000,22.000000,0.000000,9.000000,0.402736,0.622158,0.615677,0.237630,0.000000,261.000000,195.000000,57.000000,22.000000,0.000000,9.000000:
000000000
000000000
000000000
000000000
,
001000000
000000000
000000000
001000000
,
000000000
000000000
000000000
000000000
,
000100000
000000000
000000000
000100000
,
000000000
000000000
000000000
000000000
,
100000000
001000000
000001000
000010000
,
000001000
010000000
100000000
001000000
,
000010000
000010000
000100000
000010000
,
000101000
000101000
000000010
000000001
,
000001000
000000010
000001000
010000000
,
100000000
010000000
001000000
000100000
,
000010000
000000001
000000100
000000001
,
000010000
100000000
202020000
303030000
,
010000000
000000000
000100000
000000000
000000000
010000000
001000000
000000000
,
100100000
000000000
010000000
000000000
000000000
000010000
000001000
000000000
,
001010000
000000000
010000000
000000000
000000000
010000000
001000000
000000000
,
101000000
000000000
100000000
000000000
000000000
000010000
000000100
000000000
,
001010000
000000000
000000100
000000000
000000000
000000001
000000010
000000000
,
001010000
000000000
100000000
000000000
000000000
000000100
000000010
000000000
,
000010100
000000000
010000000
000000000
000000000
000001000
000000010
000000000
,
000100010
000000000
001000000
000000000
000000000
000000001
000000100
000000000
,
100000000
001000000
000010000
000000100
,
000000001
000001000
000010000
000001000
,
000010000
000000000
000000000
000000010
000000000
000000000
001000000
000000000
,
001000010
000000000
000010000
000100000
,
020000000
030001000
000000000
100010000
,
000000002
000000103
000000000
000100100
,
000000002
000001003
000000000
000101010
,
000000010
000000010
000000000
000000000
,
002020000
000000000
003030000
000000000
,
000202000
000000000
000303000
000000000
,
000020200
000000000
000030300
000000000
,
000002020
000000000
000003030
000000000
,
010000000
000100000
000000000
000010000
,
000001000
000000100
000000000
000000010
,
000000100
100000000
000100000
010000000
,
001000000
001000000
001000000
001000000
,
202020000
000000000
000000000
303030000
,
010100000
010100000
000000000
000000000
,
100010000
001000000
100010000
001000000
,
010000000
001000000
010000000
001000000
,
000010001
000000011
000010001
000000011
,
010000000
000000000
000001000
000010000
,
001000000
100000000
001011000
100000000
,
010000000
001000000
000100000
000010000
,
000000001
000000010
100000000
010000000
,
001010100
001010100
000100000
001000000
,
100000000
010100000
001100000
010100000
,
100100000
001000100
001000100
001000100
,
001000100
000000110
100000000
100000000
,
100000000
000000010
100000000
000000010
,
100100000
000000000
101010000
000000000
,
001010100
010000010
001000100
010000010
,
000000002
000000000
000000000
000000013
,
000200000
000000000
000000000
000310000
,
101000000
000000101
101000000
000000101
,
001100000
000000000
001010000
000000000
,
001000000
000010000
001000000
000010000
,
001000000
000000000
010000100
000000000
,
100000001
010000010
100000001
010000010
,
000010000
000100000
000010000
000100000
,
100000000
000000000
000100000
000000000
100000000
000000000
000000000
100000000
,
202020000
000000000
000000000
000000000
,
000000000
000000000
000000000
000000000
,
303030000
000000000
000000000
000000000
;

//---------------pnm-nine - ----------------
#NOTES:
     pnm-nine:
     :
     Medium:
     7:
     0.624935,0.794980,0.961320,0.151219,0.000000,405.000000,305.000000,89.000000,14.000000,0.000000,11.000000,0.624935,0.794980,0.961320,0.151219,0.000000,405.000000,305.000000,89.000000,14.000000,0.000000,11.000000:
000000000
000000000
000000000
000000000
,
000010000
000001000
000010000
000100000
,
010000000
100000000
010000000
001000000
,
000100000
001000000
000100000
001000000
,
100000000
000000001
100000000
000000000
,
000000101
000000000
000000100
000100000
000000100
000100000
000000000
010100000
,
000000000
011000000
000000000
001100000
000000000
011000000
000000000
001100000
,
010000000
100000000
010000000
100000000
001000000
010000000
000000000
101000000
,
000000000
010100000
000000000
000101000
000000000
001010000
000000000
100000000
,
000100000
000000100
000000010
000001000
000000000
101010000
000000000
101010000
,
000000000
010100000
000000000
001010000
000000000
000010010
000000000
000000001
,
000010000
001000000
100000000
001000000
000010000
001000000
100000000
001000000
,
000000000
000000000
100000001
010000010
000002200
000000000
000003300
000000000
,
010000000
000000000
001000000
000000000
000000000
000100000
001010000
000000000
,
110000000
000000000
010000000
000000000
000000000
100000000
010100000
000000000
,
000000010
000000000
000000100
000000000
000000000
000000010
000001100
000000000
,
000000010
000000000
000001000
000000000
000000000
000010000
010100000
000000000
,
001000000
000000000
010000000
000000000
100000000
010010000
001001000
000000000
,
000000100
000000000
000000010
000000000
000000000
000000010
000001100
000000000
,
000000100
000100000
010000000
000000000
100000000
001000000
100000000
000000000
,
100000000
010000000
001000000
000000000
000000001
000000010
000000100
000000000
,
100000000
001000000
000101000
000000000
000000001
000000100
000101000
000000000
,
010000000
001000000
100000000
000000000
000010000
000000100
000010000
000000000
,
000000101
000000000
000000000
000010100
000000000
100000000
010000000
001010000
,
000000000
101100000
101100000
000000000
000010000
100000000
001000000
000000000
,
000001010
000000000
000010000
000000000
000000000
001000000
000010000
000000000
,
000001010
000000000
000010100
000000000
000000000
000010000
010000000
000000000
,
000000011
000000110
000001100
000011000
,
010100000
001000000
010100000
000000000
010100000
000000000
000000000
000000000
,
201000000
000000000
300010000
000000000
,
000000002
000000000
000000013
000000000
,
000020000
000000000
000130000
000000000
,
200000000
000000000
301000000
000000000
,
100000000
001000000
000100000
000000000
000010000
000000100
000000010
000000000
,
000000100
000001000
000010000
000000000
000010000
000000100
000000001
000000000
,
000010000
010000000
100000000
000000000
001000000
000100000
010000000
000000000
,
001000000
010000000
001000000
000000000
001000000
000010000
000000010
000000000
,
100000000
001000000
000000001
000000100
100000000
001000000
000000001
000000100
,
010100010
010100010
010100010
000000000
000000000
000000000
000000000
000000000
,
000000100
000001000
000010000
000000100
000010000
001000000
100000000
010000000
,
000000000
000001010
000001010
000001010
000000000
101000000
101000000
101000000
,
000000100
100001000
000000000
101000000
000000000
100010000
000000000
101000000
,
000000000
010100000
000000000
000000000
000000001
000000100
000000100
000000100
,
000000001
001010000
000001000
001010000
000001000
001010000
000000000
000000110
,
000000000
000000110
000000000
011000000
000000000
011000000
000000000
000000100
,
000000010
000000100
010000000
100000000
000100000
010000000
000000000
010100000
,
000000000
001010001
001010001
000000000
000000010
000000100
000001000
000010000
,
000000000
000000000
001100000
000000000
001000000
100000000
010000000
000010000
,
000000000
000000000
000100100
000000000
000001000
000000100
000001000
000000100
,
000000000
000000000
001011000
000000000
100000000
010000000
100000000
001000000
,
000000000
000000000
000000011
000000000
100000001
010000010
001000100
000101000
,
000000000
000010000
000100000
001000000
000000000
000000000
100100000
001000000
,
100000000
000000000
010000000
001000000
001000000
000010000
000010000
000000000
,
000000200
000001300
000020000
001030000
,
002000000
003010000
000002000
000003010
,
000000010
000000100
000000010
000000100
000000000
001000000
000000000
000010000
,
000101000
001000100
010000010
100000001
000000000
000000000
100000000
010000000
,
001010000
001100000
001010000
001100000
000000000
010100000
000000000
101000000
,
000000000
010100000
000000000
000020000
000000000
100000000
010030000
001000000
,
000000010
000000100
000010000
000000000
000010000
100000000
001000000
000000000
,
100000000
010000000
001000000
000000000
000010000
000100000
001000000
000000000
,
100000000
001000000
100000000
000000000
010000000
000100000
000001000
000100000
,
202020000
000000000
000000000
000000000
,
000000000
000000000
000000000
000000000
,
303030000
000000000
000000000
000000000
;

//---------------pnm-nine - ----------------
#NOTES:
     pnm-nine:
     :
     Hard:
     10:
     0.814731,1.071494,1.328566,0.410451,0.032404,528.000000,390.000000,123.000000,38.000000,0.000000,20.000000,0.814731,1.071494,1.328566,0.410451,0.032404,528.000000,390.000000,123.000000,38.000000,0.000000,20.000000:
000000000
000000000
000000000
000000000
,
000000001
000000010
000000100
000000010
000000001
000000010
000101000
010000000
,
100000000
010000000
001000000
010000000
100000000
010000000
000101000
000000010
,
000000001
000000010
000000100
000000010
000000001
000000010
000101000
010000000
,
100000000
000000000
001010001
000000000
110100000
110100000
000000000
200000000
,
001000000
000000000
000010000
000000000
000000100
000000000
000001000
000000000
000010000
000000000
000100000
000000000
301000000
000010000
001000000
000010000
,
101000000
000000000
010000000
000000000
001000000
000000000
000010000
000000000
000000001
000000000
000000010
000000000
010000000
000100000
010000000
000100000
,
001011000
010000000
001011000
000000010
001000100
010000000
000010000
020000000
,
000000000
000000000
030100000
000000000
001000000
000000000
010000000
000000000
100000000
000000000
000000010
000000001
010000000
000000000
000100000
000000000
,
010100000
100000000
010000000
001000000
000000100
000010000
010000000
002000000
,
000000000
003010100
000000010
000000100
000100010
010100000
101000000
010000000
,
000100100
000000001
000000010
000010000
000001000
000010000
000100000
000000000
,
020000000
001000000
000100000
030000010
000000202
000000000
000000000
000000000
,
000010303
000000000
011000000
000000000
100000000
010000000
000100000
000000010
,
000000000
000010000
010000000
000100000
000001000
000000100
000000010
000000100
,
000100010
000000000
011000000
000000000
100100000
010000000
010000000
010000000
,
101000000
000000000
000000010
000000100
000000010
000000100
100000000
010000000
,
000100000
000000000
000000100
000001000
100000000
000000000
000000001
000000100
,
000001000
000000000
000000100
000000010
000000100
000000000
000000100
000001000
,
000010000
000000100
000001000
010000100
001000000
010000000
000100000
010000100
,
000000001
000000000
000000010
000000000
000000001
000000000
000101000
000000000
010000000
000000000
001000000
000100000
010000000
000000000
100000000
000000000
,
001010000
000101000
000000011
000000100
010100000
000010010
000010100
001000000
,
010100000
001010000
000100010
010000100
001000010
010000100
100010000
001100000
,
000000000
000000100
000000010
010000000
001000000
101000000
101000000
202000000
,
000000000
000000000
303100000
000010000
000001000
000000100
000000010
000000001
,
001010000
000000000
000000010
000010000
000000100
000100000
000000100
001010000
,
000000000
000101010
000000000
000001100
000000000
000101010
000000000
101000000
,
000100000
000010000
000100000
001000000
010000000
001000000
100000000
001000000
,
000000001
000000101
000000001
000000000
101100000
000000000
101000000
110000000
,
201010000
000000000
000000000
000000000
300010000
000100000
001000000
010000000
,
101020000
000000000
000000000
000000000
000031000
001000100
010000010
000000001
,
000100020
000000000
000000000
000000000
000100030
000010000
010001000
010100000
,
010000200
000000000
000000000
000000000
100000300
010000000
001000000
000100000
,
100000000
000000000
000000010
000000101
000000000
000000101
000000010
000010000
,
000100000
010000000
001000100
000000000
000000001
000000010
000000011
000000000
,
000000100
000001000
010100000
001000000
010000000
100000000
001000000
000100000
,
000000100
000100000
000000100
000001000
000000010
000000100
000001000
000200000
,
001000000
010000000
001000000
010000000
001000000
010000000
001300000
010000000
,
101100000
202000200
000000000
303000300
,
000001000
000000100
000000010
000001000
010000000
001000000
000010100
000101000
,
000000000
010100000
010000000
000010000
000000010
010000000
000000000
000000101
,
000000000
101100000
000000000
000001010
000000000
110000000
000000000
000001010
,
010000000
000100100
100000000
010000000
000100000
010000000
000000101
000000202
,
000000000
000010303
001000000
010000000
000100000
010000100
100000001
010000010
,
000000000
010100000
100010000
000000000
000000010
000000100
000101000
100001000
,
000000000
000000101
000000010
000000100
000000010
000200010
000300000
012000000
,
003000000
000000000
000000101
000000000
100000000
010000000
000100000
000220000
,
000000000
000330000
001010000
010000000
100000000
010000000
001000000
020200000
,
000000000
030300000
000001010
000000000
100000000
010000000
000100000
000000022
,
000000000
000000033
001010000
000000000
000000100
000010000
001000000
202000000
,
000000000
000000000
303010000
000000000
000001010
000010100
000101000
001010000
,
000000000
000101000
010000100
000000002
000000000
000000000
000010003
000101000
,
100010000
010000000
000100000
000000101
000000000
000101000
010100000
020200000
,
000000000
000000000
030300000
101000000
,
202020000
000000000
000000000
000000000
303030000
000000000
100000001
010000000
,
000000100
000100000
000010000
101000000
000000000
110000000
000000000
100000000
,
010000000
100000000
000000100
000000001
000000000
000000000
000000100
000001000
,
000010000
010000000
000010000
010100000
000000000
000010100
000000000
101000000
,
000000000
010100000
000000000
001010000
000000000
100010000
010000000
002000000
,
000100000
000100000
003100000
000000010
000000100
000001000
000000100
010100000
,
000000000
010000100
100000000
010000100
000000000
000100000
010000000
100000000
,
010000000
001000000
000100000
100000000
000100000
000001000
000000000
220002000
,
000000000
000000000
000000000
000000000
,
000000000
000000000
000000000
000000000
,
330003000
000000000
000000000
000000000
;
