#TITLE:レトロスペクト路;
#SUBTITLE:;
#ARTIST:Des-ROW・組 スペシアルz;
#TITLETRANSLIT:Retrospect Ro;
#SUBTITLETRANSLIT:;
#ARTISTTRANSLIT:Des-ROW GUMI Special z;
#GENRE:;
#CREDIT:caramelangel714;
#BANNER:Retrospect Ro.png;
#BACKGROUND:Retrospect Ro-bg.png;
#LYRICSPATH:;
#CDTITLE:;
#MUSIC:Retrospect Ro.mp3;
#OFFSET:-0.920000;
#SAMPLESTART:64.880013;
#SAMPLELENGTH:12.000000;
#SELECTABLE:YES;
#BPMS:0.000000=165.000000
;
#STOPS:
;
#BGCHANGES:;
#KEYSOUNDS:;
#ATTACKS:;

//---------------dance-single - ----------------
#NOTES:
     dance-single:
     :
     Hard:
     9:
     0.590822,0.625631,0.360012,0.219520,0.149273,471.000000,430.000000,41.000000,25.000000,0.000000,0.000000,0.590822,0.625631,0.360012,0.219520,0.149273,471.000000,430.000000,41.000000,25.000000,0.000000,0.000000:
1010
0000
0100
0000
0001
0001
0000
1000
,
0000
0100
0000
0010
0000
0001
0000
0002
,
1000
0000
1003
0000
1000
0100
0010
0001
,
0000
0100
0010
0100
0001
0100
0001
0010
,
0110
0000
0110
0000
0001
0001
0000
1000
,
0000
0010
0000
0100
0000
0001
0000
2000
,
0001
0000
3001
0000
1000
0100
1000
0001
,
0000
0100
0100
0010
0100
0010
0001
0100
,
0101
0000
0101
0000
0010
0010
0000
1000
,
0000
0100
0000
1000
0000
0100
0000
0020
,
0000
1000
1000
1000
,
2000
0030
0002
3000
,
1003
0000
1010
0000
0100
0100
0000
0010
,
0000
0100
0000
1000
0000
0100
0000
2000
,
0001
0000
3001
0000
0100
0010
0100
0010
,
0000
1000
0001
1000
0100
0010
0100
0010
,
0110
0000
0000
0000
1000
1000
0000
0000
,
0101
0000
0000
0000
0001
0001
0000
0000
,
1000
0010
0000
0100
0001
0100
0000
0010
,
1000
0010
0000
0100
0100
1100
0000
0000
,
1000
0000
0010
0000
0100
0000
0000
0010
1000
0000
0010
0000
0100
0000
1000
0000
,
0010
0000
0100
0000
0001
0000
0000
1000
0010
0000
0100
0000
0010
0000
0100
0000
,
0001
0000
0010
0000
0100
0000
0000
0010
0100
0000
0010
0000
1000
0000
0010
0000
,
0100
0000
0010
0000
0100
0000
0000
1000
0001
0000
0100
0000
0010
0000
0100
0000
,
0001
0000
0010
0000
0100
0000
0000
1000
0001
0000
0100
0000
0001
0000
0010
0000
,
0001
0000
0100
0000
0010
0000
0000
1000
0010
0000
0100
0000
0010
0000
0001
0000
,
1000
0010
1000
0100
0001
0100
0001
0100
,
0101
0000
0000
1010
0000
0000
1001
0000
0000
0000
1000
0000
0010
0000
1000
0000
,
0010
0000
0100
0010
0100
0000
1000
0000
0010
0000
1000
0000
0100
0000
0010
0000
,
0100
0010
0100
0010
0100
1000
0001
0000
,
0100
0000
0001
0100
0001
0000
1000
0000
0010
0000
0100
0000
0010
0000
0001
0000
,
1000
0010
0100
0010
0100
0001
0100
0000
,
1000
0000
0001
0100
0001
0000
1000
0000
1000
0000
0001
0000
0100
0000
0010
0000
,
0100
0001
0100
0010
1000
0010
0100
0000
,
0001
0000
1000
0100
1000
0000
0100
0000
0010
0000
0001
0000
1000
0000
0010
0000
,
0100
0001
0100
0001
0010
0100
1000
0000
,
1001
0000
1010
0010
1000
0000
0001
1000
,
0000
0100
0000
0010
2000
0000
3001
0000
,
0011
0000
1001
0000
1000
0010
1000
0010
,
0000
0100
0000
0010
0002
0000
1003
1000
,
0110
0010
0100
0010
0100
0001
1000
0010
,
0000
0100
0000
1000
0020
0000
0130
0100
,
0101
0001
0100
0001
0100
0001
0100
0010
,
0000
1000
0000
0010
0200
0000
0301
0000
,
0102
0000
1000
0000
1003
0000
1000
0010
,
0000
0110
0000
1010
0000
0110
0000
0002
,
1000
0000
0100
0000
1003
0000
0010
0100
,
0000
0110
0000
0110
0000
1001
0000
2000
,
0001
0000
3001
0000
0100
0010
0000
2010
,
0000
0000
3001
0000
0100
0010
0000
0020
,
0000
0000
0000
0000
0200
0000
0030
0301
,
0000
0001
0000
0010
0000
0100
0000
2000
,
0100
0000
0010
0000
3001
0000
1000
0010
,
0000
0110
0000
0101
0000
0011
0000
0002
,
0010
0000
0100
0000
0013
0000
1000
0010
,
0000
1100
0000
0110
0000
0011
0000
0002
,
1000
0000
1003
0000
1000
0010
0000
2000
,
0100
0000
3010
0000
0001
1000
0000
0020
,
0000
0000
0000
0000
0200
0000
0030
0301
,
0000
0010
0000
0100
0000
1000
0000
0000
,
1010
0000
0000
0000
1001
1000
0000
0000
,
0101
0000
0000
0000
1001
0001
0000
0000
,
0010
0100
0000
1000
0010
0100
0000
0001
,
0100
0010
0000
1000
1000
1100
0000
0000
,
1000
0000
0010
0100
0000
0001
0100
0000
0010
0100
0000
1000
,
0001
0000
0010
0100
0000
0000
0100
0010
0001
0100
0010
1000
,
0010
0000
0100
0001
0000
0010
1000
0000
0100
0001
0000
0010
,
1000
0000
0010
0100
0000
0001
0100
0000
0010
1000
0000
0010
,
0100
0000
0001
0100
0001
0000
0100
0000
0010
0000
1000
0000
0010
0000
0100
0000
,
0001
0100
0010
0000
1000
0010
0100
0000
,
0001
0000
0100
0010
0100
0000
1000
0000
0010
0000
0100
0000
0001
0000
0000
0000
,
0110
0000
0000
0101
0000
0000
0200
0000
0000
0000
0301
0000
1000
0000
0000
0000
,
1001
0000
0000
0000
1000
0010
1000
0000
0010
0000
0100
0000
0010
0000
1000
0001
,
1000
0000
0010
0000
1000
0000
0010
0000
1000
0100
1000
0000
0000
0000
0000
0000
,
2002
0000
0000
0000
,
3003
0000
0000
0000
;

//---------------dance-single - ----------------
#NOTES:
     dance-single:
     :
     Beginner:
     2:
     0.183142,0.263424,0.122931,0.122931,0.000000,146.000000,132.000000,14.000000,14.000000,0.000000,0.000000,0.183142,0.263424,0.122931,0.122931,0.000000,146.000000,132.000000,14.000000,14.000000,0.000000,0.000000:
0000
0000
0000
0000
,
0000
0000
0000
0000
,
0000
0000
0000
0000
,
0000
0000
0000
0000
,
1000
0000
0010
0000
,
0100
0010
0100
0000
,
0001
0000
0100
0000
,
0010
0100
0010
0000
,
1000
0000
0010
0000
,
0100
0001
0100
0001
,
0100
0000
0000
0000
,
0010
0000
1000
0000
,
1000
0000
0001
0000
,
0100
0001
0100
0001
,
0100
0000
0010
0000
,
0100
0000
0010
0000
,
0110
0000
0000
0000
,
0110
0000
0000
0000
,
1001
0000
1001
0000
,
1001
0000
0000
0000
,
2000
0000
3001
0000
,
0002
0000
1003
0000
,
2000
0000
3010
0000
,
0020
0000
1030
0000
,
0200
0000
0310
0000
,
0020
0000
0130
0000
,
0100
0000
0010
0000
,
0100
0001
0100
0001
,
0100
0000
0000
0000
,
0010
0000
0100
0000
,
0010
0000
1000
0000
,
0010
0000
1000
0000
,
0001
0000
0000
0000
,
0010
0000
0000
0000
,
0100
0000
0001
0000
,
0100
0000
0010
0000
,
1000
0000
1001
0000
,
0001
1000
0001
0000
,
0010
0000
0110
0000
,
0100
0010
0100
0000
,
1000
0000
1001
0000
,
1000
0001
1000
0000
,
0010
0000
0110
0000
,
0100
0010
0100
0000
,
2000
0000
0000
3000
,
0001
0000
0010
0000
,
0220
0000
0000
0330
,
1000
0000
0010
0000
,
1000
0000
0001
0000
,
0100
0000
0010
0000
,
0100
0000
0000
0000
,
0001
0000
0010
0000
,
2002
0000
0000
3003
,
0100
0000
0010
0000
,
0002
0000
0000
0003
,
1000
0000
0010
0000
,
0100
0000
0001
0000
,
0100
0000
0010
0000
,
0100
0000
1000
0000
,
0100
0000
0010
0000
,
1001
0000
0000
0000
,
1001
0000
0000
0000
,
0010
0000
0010
0000
,
0100
0000
0100
0000
,
0001
0000
0000
0000
,
1000
0000
0001
0000
,
0001
0000
0000
0000
,
0100
0000
0010
0000
,
0010
0000
0000
0000
,
0010
0000
0100
0000
,
0100
0000
0000
0000
,
1000
0000
1000
0000
,
0001
0000
0000
0000
,
0000
0000
0000
0000
,
0220
0000
0000
0000
,
0330
0000
0000
0000
;

//---------------dance-single - ----------------
#NOTES:
     dance-single:
     :
     Easy:
     5:
     0.297292,0.395135,0.228300,0.114150,0.000000,237.000000,211.000000,26.000000,13.000000,0.000000,0.000000,0.297292,0.395135,0.228300,0.114150,0.000000,237.000000,211.000000,26.000000,13.000000,0.000000,0.000000:
0000
0000
0000
0000
,
0000
0000
0000
0000
,
0000
0000
0000
0000
,
0000
0000
0000
0000
,
1000
0010
0100
0001
,
0001
0000
1000
0100
,
0020
0000
0000
0000
,
1030
1000
1000
1000
,
0001
0100
0010
0000
,
1000
0100
0010
0001
,
0002
0000
0000
0000
,
2003
0000
3200
0000
,
0301
0000
0001
0000
,
1000
0010
0100
0001
,
0002
0000
0000
0000
,
1003
1000
1000
1000
,
1010
0000
1000
0000
,
1010
0000
1000
0000
,
1000
0000
0001
0000
,
0100
0001
0010
0000
,
1000
0010
1000
0010
,
0100
0001
0100
0001
,
0010
0100
0010
0100
,
0001
0100
0001
0100
,
0001
1000
0001
1000
,
0010
0100
1000
0100
,
0010
1000
0001
0100
,
0010
0010
0020
0000
,
1030
0000
1000
0000
1000
0001
1000
0000
,
0100
0010
0100
0010
,
0001
0000
0001
0000
0001
1000
0001
0000
,
0100
0010
0100
0010
,
1000
0010
1000
0010
,
0100
0001
0100
0001
,
0010
0100
0100
0100
,
0010
1000
1000
1000
,
1001
0110
1001
0000
,
1000
0010
0110
0000
,
0110
1001
0110
0000
,
0001
0100
1001
0000
,
1001
0110
1001
0000
,
0100
0010
0110
0000
,
0110
1001
0110
0000
,
1000
0100
1001
0000
,
0002
0000
0000
0003
,
1000
0000
0100
0010
,
2000
0000
0000
3000
,
0010
0000
0100
0010
,
0100
0000
0000
0000
0100
0000
0000
0010
,
0000
0000
0000
0000
0010
0000
0000
0100
,
0000
0000
1000
0000
,
0001
0010
0100
1000
,
2002
0000
3003
0100
,
0010
0100
0010
1000
,
0100
0100
0010
0000
,
0100
0001
0100
1000
,
1010
0000
0100
0010
,
0100
0000
0001
0010
,
0200
0000
0301
0000
,
1000
0100
0010
0001
,
1001
0000
0001
0000
,
1001
0000
0001
0000
,
1000
0000
1000
0000
,
0010
0000
0100
0000
,
1000
0010
1000
0010
,
1000
0010
1000
0010
,
0100
0001
0100
0001
,
0100
0001
0100
0001
,
1000
0010
0000
0100
,
0010
0100
0000
0001
,
1000
0001
0000
1000
,
0110
0110
1001
0000
,
0000
0000
0000
0000
,
0000
0000
0000
0000
,
2020
0000
0000
0000
,
3030
0000
0000
0000
;

//---------------dance-single - ----------------
#NOTES:
     dance-single:
     :
     Medium:
     7:
     0.467891,0.526847,0.289766,0.184397,0.017562,373.000000,340.000000,33.000000,21.000000,0.000000,0.000000,0.467891,0.526847,0.289766,0.184397,0.017562,373.000000,340.000000,33.000000,21.000000,0.000000,0.000000:
1000
0100
1000
0100
,
0001
0100
0001
0100
,
1000
0010
1000
0010
,
0001
0010
0001
0010
,
1000
0100
0010
0001
,
0001
0010
0100
1000
,
1000
0000
0100
0000
1000
0001
1000
0000
,
0010
0000
0100
0000
0001
0100
0001
0000
,
1000
0000
0020
0000
1030
1000
0000
0001
,
0000
0001
0000
0100
0000
0010
0000
2000
,
0000
0000
0000
0000
,
0020
3000
0200
0030
,
0301
0000
0001
0000
1000
0100
0010
0000
,
1000
0000
0001
0000
0100
0010
0100
0010
,
0100
0100
0100
0100
,
0001
0100
0010
0100
0010
0000
1000
0100
,
1000
0000
0000
0000
0001
0001
0000
0000
,
0010
0000
0000
0000
1000
1000
0000
0000
,
1000
0001
0000
0000
0001
1000
0000
0000
,
0010
0100
0000
0000
0100
0010
0000
0000
,
1000
0010
1000
0000
0001
0100
0001
0000
,
0010
0100
0010
0000
1000
0100
0010
0100
,
1000
0010
1000
0000
0001
0100
0001
0000
,
0010
0100
0010
0000
1000
0100
0010
0100
,
1000
0001
1000
0000
0010
0100
0010
0000
,
0001
0100
0001
0000
0010
0100
0010
1000
,
0100
0010
0100
0000
0001
1000
0001
0000
,
1010
1010
1010
1010
,
1000
0000
0001
0100
0001
0000
1000
0010
,
1000
0000
0100
0001
0100
0000
0010
0100
,
0010
0000
1000
0010
1000
0000
0100
0001
,
0100
0100
0100
0101
,
0010
0000
1000
0100
1000
0000
0001
0100
,
0001
0000
0010
0100
0010
0000
1000
0010
,
1000
0000
0100
0001
0100
0000
0010
0100
,
0010
0010
0010
1010
,
0110
0000
0101
0000
0011
0000
1000
0010
,
0000
0100
0000
0010
2000
0000
3001
0000
,
1010
0000
1100
0000
1001
0000
1000
0001
,
0000
0100
0000
0010
2000
0000
3001
0000
,
0101
0000
0110
0000
1001
0000
1000
0010
,
0000
0010
0000
1000
0200
0000
0310
0000
,
1100
0000
0110
0000
0011
0000
1000
0010
,
0000
0100
0000
0010
2000
0000
3100
0000
,
0002
0000
0000
0000
0000
0000
1003
1000
,
0000
0100
0000
0010
0000
0001
0000
0002
,
1000
0000
1000
0000
1003
0000
0100
0010
,
0000
0110
0000
0110
0000
1001
0000
1001
,
0000
0000
0100
0000
0010
0100
0000
0101
,
0000
0000
0010
0000
1000
0200
0000
0302
,
0000
0000
0000
0000
2003
0000
0000
0001
,
3000
0010
0000
0100
0000
1000
0000
2000
,
0001
0000
0001
0000
3001
0000
0100
0010
,
0000
0110
0000
1001
0000
1010
0000
2000
,
0010
0000
0010
0000
3010
0000
0100
0010
,
0000
0001
0000
0010
0000
0100
0000
2000
,
0000
0000
3100
0000
0010
0100
0000
0002
,
0000
0000
1003
0000
1000
0010
0000
0200
,
0000
0000
0000
0000
0302
0000
0000
1003
,
0000
0100
0000
0010
0000
0001
0000
0000
,
1001
0000
0000
0000
1000
1000
0000
0000
,
1001
0000
0000
0000
0001
0001
0000
0000
,
1000
0010
0000
0000
0100
0001
0000
0000
,
0010
0100
0000
0000
0100
0001
0000
0000
,
1000
0000
0000
0010
0000
0100
0001
0000
0000
0010
0000
0000
,
0100
0000
0000
0010
0000
1000
0001
0000
0000
0100
0000
0000
,
0010
0000
0000
0100
0000
0010
0100
0000
0000
1000
0000
0000
,
0001
0000
0000
0100
0000
0010
0100
0000
0000
0001
0000
0000
,
1000
0010
1000
0000
0100
0001
0100
0000
,
0010
0100
0010
0000
1000
0010
1000
0000
,
0100
0001
0100
0001
0100
0010
1000
0100
,
0010
0100
0010
0000
1000
0010
1000
0000
,
1010
0000
0001
1000
0000
0000
1001
0000
,
0110
0000
0001
0100
0000
0000
0110
0000
,
2002
0000
0000
0000
,
3003
0000
0000
0000
;

//---------------pnm-nine - ----------------
#NOTES:
     pnm-nine:
     :
     Hard:
     11:
     0.994738,1.115819,2.045923,0.395135,0.364403,793.000000,510.000000,233.000000,45.000000,0.000000,82.000000,0.994738,1.115819,2.045923,0.395135,0.364403,793.000000,510.000000,233.000000,45.000000,0.000000,82.000000:
001000000
000000000
000002020
000000000
010003030
001000000
010000000
101000000
,
000000000
101000000
000000000
000000101
000000000
000000101
000000000
202000000
,
000000010
000000000
000000010
000001000
000000100
000000010
000000100
303001000
,
000000000
010010000
010010000
000001000
000010000
000100000
001000000
010000000
,
100010000
000000000
002002000
000000000
003003010
000000010
000000010
100100000
,
000000000
100100000
000000000
000001001
000000000
000001001
000000000
200200000
,
000010000
000000000
000010000
000000000
000001000
000000100
000000001
300310000
,
000000000
001000000
010000000
100000000
010000000
001000000
000100000
001010000
,
001011000
000000000
202000000
000000000
303000100
000000100
000101000
000101000
,
000000000
001001000
000000000
000100100
000000000
001001000
000000000
200000000
,
000010000
001000000
000010000
001000000
000010000
001000000
000010000
001000000
,
000020000
001000000
301000000
001000000
202000000
000030000
000000000
000000000
,
303010000
000000000
001010000
000101000
001010000
000101000
000101000
000101000
,
000000000
011001000
000000000
011000000
000000000
011000000
000000000
000202000
,
010000000
100000000
010000000
100000000
010000000
100000000
010000000
100000000
,
000303000
010000000
100000000
001000000
000010000
000001000
000000011
000000000
,
101010100
000000000
000000000
000000000
001010101
001010101
000000000
000000000
,
010101010
000000000
000000000
000000000
010101010
010101010
000000000
000000000
,
100000000
001000000
100000000
000000000
101000000
000000000
101000000
000000000
000100000
000010000
000100000
000000000
000110000
000000000
000110000
000000000
,
000000001
000001000
000000001
000000000
000001001
000000000
000001001
000000000
001101000
000000000
001101000
000000000
000000000
000000000
000000000
000000000
,
100000000
000000000
001000000
000000000
100000000
000000000
000000000
000000001
000010100
000000000
101000000
000000000
010100000
000000000
101000000
000000000
,
000100000
000000000
010000000
000000000
000100000
000000000
000000000
000010000
011000000
000000000
010000000
000000000
001000000
000000000
000010000
000000000
,
010001000
000000000
010001000
000000000
010001000
000000000
000000000
000000100
001001000
000000000
001001000
000000000
001100000
000000000
000101000
000000000
,
101000000
000000000
101000000
000000000
101000000
000000000
000000000
000000001
000100100
000000000
000100100
000000000
010100000
000000000
010100000
000000000
,
010010000
000000000
010010000
000000000
010010000
000000000
000000000
100000000
010100000
000000000
001001000
000000000
000101000
000000000
000101000
000000000
,
000000010
000000000
000010000
000000000
000000010
000000000
000000000
000100000
001000100
000000000
100100000
000000000
010001000
000000000
010001000
000000000
,
100100000
000000000
100100000
000000000
100000000
000100000
100000000
000000000
001001000
000000000
001001000
000000000
001000000
000001000
001000000
000000000
,
101010000
000000000
000000000
010101000
000000000
000000000
101010000
000000000
000000000
000000000
000001101
000000000
000001101
000000000
000001101
000000000
,
001010000
000000000
000010000
000100000
001000000
000000000
100100000
000000000
010000000
000000000
010000000
000010000
010000000
000000000
001010000
000000000
,
100100000
000000000
010000000
001000000
000100100
000000000
010100000
000000000
010010000
000000000
010000000
001000000
010010000
000000000
100100000
000000000
,
101000000
000000000
000010000
001000000
000010000
000000000
001010000
000000000
000010100
000000000
000000001
000000100
000000001
000000000
000000101
000000000
,
101010000
000000000
010000000
000100000
010000000
000000000
000001000
000100000
000001000
000000000
100000000
000100000
000000000
100000000
000100000
000000000
,
000001010
000000000
000000100
000010000
000000100
000000000
000010100
000000000
010010000
000000000
000100100
000000000
010010000
000000000
000100100
000000000
,
010010000
000000000
001000000
000010000
001000000
000000000
001010000
000000000
011000000
000000000
000011000
000000000
011000000
000000000
000011000
000000000
,
101000000
000000000
010000000
000100000
010000000
000000000
010100000
000000000
000010000
001000000
000010000
000000000
000010000
001000000
000010000
000000000
,
100100000
000000000
010010000
000000000
100100000
000000000
010010000
000000000
000101000
000000000
100000000
000100000
000000000
000000100
000010000
000000000
,
110000000
000000000
110000000
010100000
000000001
000000000
000010000
000100000
,
000000000
000101000
000000000
000100000
000002020
000000000
001003030
000000000
,
100100000
000000000
000110000
000000000
000000100
000010000
000000100
000010000
,
000000000
001010000
000000000
101000000
202000000
000000000
303010000
000100000
,
001010000
001010000
001010000
001010000
010100000
010100000
010100000
100010000
,
000000000
100100000
000000000
100100000
000020000
000000000
010030000
010000000
,
010100000
001010000
000101000
000010100
000001010
000000101
000001010
001010100
,
000000000
001001001
000000000
001010000
002020000
000000000
003030100
000000000
,
020200010
000000000
000000010
000000000
000000010
000000000
030300010
001010000
,
000000000
000001010
000000000
000101000
000000000
001010000
000000000
002020000
,
000000001
000000000
000000001
000000000
003030001
000000000
000000001
001001000
,
000000000
001100000
000000000
001001000
000000000
001100000
000000000
100020000
,
000000000
000000000
100030000
000000000
010000100
000100001
000000000
000010002
,
000000000
000000000
000010003
000000000
010010000
001001000
000000000
000020200
,
000000000
000000000
000030000
000000000
002000300
000000000
003000100
000010100
,
000000000
000010100
000000000
000101000
000000000
001010000
000000000
202020000
,
000000100
000000000
000000100
000000000
303030100
000000000
001001000
001001000
,
000000000
001010000
000000000
001001000
000000000
001010000
000000000
000010020
,
000001000
000000000
000001000
000000000
000001030
000000000
010000000
000101000
,
000000000
000010100
000000000
000001010
000000000
000000101
000000000
000002010
,
000000001
000000000
000003001
000000000
011000000
011000000
000000000
000000202
,
000100000
000000000
000100000
000000000
000100303
001000000
000000000
020000000
,
000000100
000000000
000000100
030000000
000110100
000000000
000000000
011010000
,
000000000
011010000
000000000
000100110
000000000
000101010
000000000
000000000
,
101010100
000000000
000000000
000000000
001010101
001010101
000000000
000000000
,
010101010
000000000
000000000
000000000
010101010
010101010
000000000
000000000
,
100000000
001000000
100000000
000000000
101000000
000000000
101000000
000000000
000100000
000010000
000100000
000000000
000110000
000000000
000110000
000000000
,
000000001
000001000
000000001
000000000
000001001
000000000
000001001
000000000
001101000
000000000
001101000
000000000
000000000
000000000
000000000
000000000
,
100000000
000100000
000001000
000100000
100000000
000100000
000001000
000000010
000001000
000100000
000001000
000000010
,
000100000
001000000
010100000
001000000
000100000
001000000
010100000
000010001
000000100
000010001
001000000
000010001
,
000000100
010000000
001000000
000010000
001000000
010000000
001000000
000010000
100000000
001000000
000100000
001000000
,
100000000
001000000
000001000
000000001
000010000
001000000
000001000
000000010
010000000
001000000
000100000
000010000
,
010101000
000000000
000000100
001000000
000010100
000000000
001010000
000000000
100100000
000000000
001000000
000010000
001001000
000000000
010010000
000000000
,
010100000
000000000
001000000
000001000
000100010
000000000
001010000
000000000
000100000
000000000
010000000
000100000
010001000
000000000
001010000
000000000
,
100000000
011000000
100000000
011000000
000000001
000001100
000000001
000001100
,
101010000
000000000
000000000
101010000
000000000
000000000
020200000
000000000
000000000
000000000
030301000
000000000
000010000
000000000
000001000
000000000
,
001001000
000000000
000000000
000000000
100000000
001000000
000100000
000010000
000100000
000010000
000100000
001000000
100000000
001000000
000010000
001000000
,
000010000
000000100
000000001
000000100
000001000
000000100
000001000
010000000
000100000
010000000
000100000
010000000
000100000
001000000
000100000
001000000
,
000220200
000000000
000000000
000330300
;

//---------------pnm-five - ----------------
#NOTES:
     pnm-five:
     :
     Hard:
     9:
     0.748876,0.954911,1.220529,0.333670,0.210739,597.000000,448.000000,139.000000,38.000000,0.000000,17.000000,0.748876,0.954911,1.220529,0.333670,0.210739,597.000000,448.000000,139.000000,38.000000,0.000000,17.000000:
00100
00000
00002
00000
01003
00100
01000
10100
,
00000
10100
00000
00110
00000
00110
00000
20200
,
00000
00000
00000
00000
00000
00000
00000
30300
,
00001
01000
00001
00000
00001
00010
00100
01000
,
10001
00000
00200
00000
10300
10000
00000
10010
,
00000
10010
00000
01010
00000
00110
00000
20020
,
00000
00000
00000
00000
00000
00000
00000
30030
,
01000
00100
01000
10000
01000
00100
00010
00101
,
00101
00000
20200
00000
30301
00001
00000
00010
,
00000
00100
00000
00010
00000
00100
00000
20000
,
00100
00100
00100
00100
,
00102
00000
30100
00000
20200
00003
00000
00000
,
30301
00000
00101
00010
00101
00010
01000
00010
,
00000
01100
00000
01100
00000
01100
00000
00020
,
01000
10000
01000
10000
01000
10000
01000
10000
,
00030
01000
10000
00100
00001
00100
01000
00000
,
10101
00000
00000
00000
00101
00101
00000
00000
,
01010
00000
00000
00000
01010
01010
00000
00000
,
10000
00100
10000
00000
10100
00000
10100
00000
00010
00001
00010
00000
00011
00000
00011
00000
,
01000
00100
01000
00000
01100
00000
01100
00000
10010
00000
10010
00000
00000
00000
00000
00000
,
10000
00000
00100
00000
10000
00000
10000
00100
00001
00000
10000
00000
00010
00000
10000
01000
,
00010
00000
01000
00000
00010
00000
10000
00001
01000
00000
01000
00000
00100
00000
00001
00000
,
01000
00000
01000
00000
01000
00000
10000
01000
00100
00000
00100
00000
00110
00000
00010
00100
,
01000
00000
10100
00000
10100
00000
10000
00100
00010
00000
00010
00000
01010
00000
01010
00000
,
01001
00000
01001
00000
01001
00000
01000
00100
00010
00000
00100
00000
00010
00000
10000
01000
,
00010
00000
00001
00000
01000
00000
00001
00010
00100
00000
10010
00000
01000
00000
01000
00000
,
10010
00000
10010
00000
10000
00010
10000
00000
00101
00000
00101
00000
10000
00100
10000
00000
,
10101
00000
00000
01010
00000
00000
10101
00000
00000
00000
10000
00000
00100
00000
10000
00000
,
00101
00000
00001
00010
00100
00000
10010
00000
01000
00000
01000
00001
01000
00000
00101
00000
,
10010
01000
00010
01010
01001
01000
01001
10010
,
10100
00001
00010
00100
00001
10000
00100
01000
,
10101
00000
01000
00010
01000
00000
01010
00000
10000
00000
00010
00000
10000
00000
00010
00000
,
10001
00000
10000
00010
10000
00000
01001
00000
01001
00000
00010
00000
01001
00000
00010
00000
,
01001
00100
00100
10000
01000
00001
01000
00001
,
10100
00000
01000
00000
01000
00000
01010
00000
00001
00000
00100
00000
00001
00100
00001
00000
,
10000
00001
00010
01000
00010
01000
00010
00001
,
11000
00000
01000
00001
01000
00000
00001
00010
,
00000
00010
00000
00010
20000
00000
30100
00000
,
10010
00000
00011
00000
10000
00001
10000
00001
,
00000
00101
00000
10100
20200
00000
30301
00010
,
00101
00101
00101
00101
01010
01010
01010
10001
,
00000
10010
00000
10010
00002
00000
00003
01000
,
01000
00100
00010
00001
00010
00100
10000
00101
,
00000
00100
00000
00101
00202
00000
00303
00000
,
02020
00000
00000
00000
00000
03030
01010
00101
,
00000
10100
00000
01010
00000
00101
00000
00202
,
00000
00000
00000
00000
00303
00000
00000
00100
,
00000
00110
00000
00100
00000
00110
00000
10002
,
00000
00000
10003
00000
01000
00010
00000
20001
,
00000
00000
30001
00000
01001
00100
00000
00002
,
00000
00000
00003
00000
00200
00000
00300
10001
,
00000
01001
00000
01010
00000
00101
00000
20202
,
00000
00000
00000
00000
30303
00000
00100
00100
,
00000
00101
00000
00100
00000
00101
00000
00002
,
10000
00000
10000
00000
10003
00000
01000
00010
,
00000
10001
00000
01010
00000
00100
00000
20200
,
00000
00000
30301
00000
01100
01100
00000
20000
,
00010
00000
30010
00000
00010
00100
00000
02000
,
00000
00000
00000
03000
00011
00000
00000
01101
,
00000
01101
00000
00010
00000
00010
00000
00000
,
10101
00000
00000
00000
00101
00101
00000
00000
,
01010
00000
00000
00000
01010
01010
00000
00000
,
10000
00100
10000
00000
10100
00000
10100
00000
00010
00001
00010
00000
00011
00000
00011
00000
,
01000
00010
01000
00000
01010
00000
01010
00000
00110
00000
00110
00000
00000
00000
00000
00000
,
10000
00000
10000
00010
00000
00010
10000
00000
01000
00010
00000
10000
,
00010
00000
00010
00100
00000
10000
00100
00001
10000
00001
00100
00001
,
10000
00000
00100
00001
00000
01000
00100
00000
10000
00100
00000
00100
,
10000
00000
00100
10000
00000
00100
01000
00000
01000
00100
00000
00001
,
01010
00000
00001
00100
00001
00000
00101
00000
10010
00000
01000
00000
00100
00000
01000
00000
,
01010
00100
00010
00101
00010
01000
01000
00001
,
10000
01000
10000
01000
00001
00100
00001
00100
,
10101
00000
00000
10101
00000
00000
02001
00000
00000
00000
03001
00000
00001
00000
00010
00000
,
10100
00000
00000
00000
10000
00100
00010
00001
10000
00000
00010
00000
10000
00000
00010
00000
,
10000
00000
00010
00000
10000
00000
00010
00000
00010
01000
00010
01000
00010
01000
00010
00000
,
20002
00000
00000
00000
,
30003
00000
00000
00000
;

//---------------pnm-five - ----------------
#NOTES:
     pnm-five:
     :
     Beginner:
     2:
     0.233318,0.329280,0.272204,0.140493,0.000000,186.000000,153.000000,31.000000,16.000000,0.000000,3.000000,0.233318,0.329280,0.272204,0.140493,0.000000,186.000000,153.000000,31.000000,16.000000,0.000000,3.000000:
00000
00100
00000
10000
,
00000
00010
01000
00010
,
00000
10000
00000
00010
,
00000
01000
00000
00100
,
00000
10000
00000
00001
,
00000
01000
00100
00001
,
00000
10000
00000
00010
,
00000
10000
00000
00010
,
00000
00100
00000
00100
,
00000
01000
00100
01000
,
20000
00000
00000
30000
,
00002
00000
00000
00003
,
01000
00000
00100
00000
,
01000
00100
01000
00100
,
20200
00000
00000
00000
,
30301
00000
00001
00000
,
10001
00000
00000
00000
,
10001
00000
00000
00000
,
10001
00000
10001
00000
,
10001
00000
10001
00000
,
00100
00000
01000
00000
,
00100
00000
01000
00000
,
00010
00000
10000
00000
,
00010
00000
10000
00000
,
00100
00000
01000
00000
,
00100
00000
01000
00000
,
10001
00000
10001
00000
,
10000
00010
10000
00010
,
00100
00100
00100
00000
,
01000
01000
01000
00000
,
00010
01000
00010
01000
,
00100
00000
00100
00000
,
10000
00010
10000
00000
,
00001
01000
00001
00000
,
00100
00000
10000
00000
,
01010
01010
01010
00000
,
10000
00010
10000
00000
,
00010
00000
00010
00000
,
00001
10000
00001
00000
,
00100
00000
00100
00000
,
00100
00100
00100
00000
,
01010
00000
01010
00000
,
10000
00100
00001
00000
,
10001
00000
01010
00000
,
20002
00000
00000
30003
,
00000
00000
00000
00000
,
20200
00000
00000
30300
,
00000
00000
00000
00000
,
00101
00000
01010
00000
,
10100
00000
01010
00000
,
00001
00000
10000
00000
,
10000
00100
00001
00000
,
02020
00000
00000
03030
,
00000
00000
00000
00000
,
20202
00000
00000
30303
,
00000
00000
00000
00000
,
10000
00000
00010
00000
,
10000
00000
00010
00000
,
01000
00100
00001
00000
,
00001
01000
00010
00000
,
10001
00000
00000
00000
,
10001
00000
00000
00000
,
10001
00000
10001
00000
,
10001
00000
10001
00000
,
10000
00010
10000
00010
,
00100
00000
00100
00000
,
00001
10000
00001
10000
,
00100
00000
00100
00000
,
10000
00000
10000
00000
,
00001
00000
00001
00000
,
00100
00000
00100
00000
,
10000
00100
10000
00100
,
00000
00000
00000
00000
,
00000
00000
00000
00000
,
20202
00000
00000
00000
,
30303
00000
00000
00000
;

//---------------pnm-nine - ----------------
#NOTES:
     pnm-nine:
     :
     Beginner:
     2:
     0.249625,0.395135,0.333670,0.149273,0.000000,199.000000,154.000000,38.000000,17.000000,0.000000,7.000000,0.249625,0.395135,0.333670,0.149273,0.000000,199.000000,154.000000,38.000000,17.000000,0.000000,7.000000:
000000000
001000000
000000000
100000000
,
000000000
000100000
000000010
000100000
,
000000000
000000001
000000000
000100000
,
000000000
000001000
000000000
001000000
,
000000000
000000100
000000000
000010000
,
000000000
010000000
001000000
000010000
,
000000000
100000000
000000000
000100000
,
000000000
000000010
000000100
000100000
,
000000000
001000000
000000000
000000100
,
000000000
010000000
001000000
000001000
,
200000000
000000000
000000000
300000000
,
000020000
000000000
000000000
000030000
,
000000001
000000000
000000100
000000000
,
000000010
000001000
000000010
000001000
,
202000000
000000000
000000000
000000000
,
303010000
000000000
000010000
000000000
,
000101000
000000000
000000000
000000000
,
000101000
000000000
000000000
000000000
,
000101000
000000000
000101000
000000000
,
001010000
000000000
001010000
000000000
,
000000001
000000000
000001000
000000000
,
001000000
000000000
010000000
000000000
,
000100000
000000000
000000010
000000000
,
000000100
000000000
000001000
000000000
,
001000000
000000000
100000000
000000000
,
001000000
000000000
000000010
000000000
,
001010100
000000000
001010100
000000000
,
000000100
000010000
000100000
000000100
,
001000000
001000000
001000000
000000000
,
000000010
000000010
000000010
000000000
,
000000100
000010000
000000100
000010000
,
001000000
000000000
000000001
000000000
,
100000000
001000000
100000000
000000000
,
000010000
000001000
000010000
000000000
,
000000100
000000000
000010000
000000000
,
000001010
000001010
000001010
000000000
,
000000010
000001000
000100000
000000000
,
000101000
000000000
000101000
000000000
,
000010000
000000001
000010000
000000000
,
000000100
000000000
000000010
000000000
,
001000100
001000100
001000100
000000000
,
010100000
000000000
010100000
000000000
,
100000000
001000000
000010000
000000000
,
000010001
000000000
000100010
000000000
,
000020200
000000000
000000000
000030300
,
000000000
000000000
000000000
000000000
,
000002020
000000000
000000000
000003030
,
000000000
000000000
000000000
000000000
,
000010100
000000000
000000101
000000000
,
101010000
000000000
010101000
000000000
,
000010001
000000000
100010000
000000000
,
100000000
001000000
000010000
000000000
,
000000022
000000000
000000000
000000033
,
000000000
000000000
000000000
000000000
,
202020000
000000000
000000000
303030000
,
000000000
000000000
000000000
000000000
,
000000100
000000000
000010000
000000000
,
000000100
000000000
000010000
000000000
,
000000001
000000100
000010000
000000000
,
000010000
000000001
000100000
000000000
,
001000100
000000000
000000000
000000000
,
001000100
000000000
000000000
000000000
,
001000100
000000000
001000100
000000000
,
010000010
000000000
010000010
000000000
,
000000010
000100000
000000010
000100000
,
001000000
000000000
001000000
000000000
,
000010000
000000001
000010000
000000001
,
000000100
000000000
000000100
000000000
,
000001000
000000000
001000000
000000000
,
000010000
000000000
000010000
000000000
,
000000010
000000000
000000010
000000000
,
100000000
001000000
100000000
001000000
,
000000000
000000000
000000000
000000000
,
000000000
000000000
000000000
000000000
,
202020002
000000000
000000000
000000000
,
303030003
000000000
000000000
000000000
;

//---------------pnm-five - ----------------
#NOTES:
     pnm-five:
     :
     Medium:
     7:
     0.513049,0.625631,0.667340,0.289766,0.008781,409.000000,332.000000,76.000000,33.000000,0.000000,3.000000,0.513049,0.625631,0.667340,0.289766,0.008781,409.000000,332.000000,76.000000,33.000000,0.000000,3.000000:
00000
00000
10000
00000
00010
00010
00000
10010
,
00000
10010
00000
10100
00000
00101
00000
20000
,
00000
00000
00000
00000
00000
30000
00000
00000
,
10000
00010
10000
00000
00001
00100
00001
00100
,
00001
00000
01010
00000
00100
00100
00000
10010
,
00000
10010
00000
01010
00000
01010
00000
02020
,
00000
00000
00000
00000
00000
03030
00000
00000
,
10000
00010
10000
00000
00001
00100
00001
00100
,
00001
00000
01010
00000
10100
10100
00000
00010
,
00000
01000
00000
00100
00000
10000
00000
00002
,
00000
00000
00000
00000
,
00203
00000
20300
00000
,
30001
00000
10001
00000
00100
00100
00000
10000
,
00000
01000
00000
00100
00000
00010
00000
20002
,
00000
00000
00000
00000
00000
30003
00000
00000
,
10000
00100
10000
00100
10000
00000
10100
00000
,
01100
00000
00000
00000
01010
01010
00000
00000
,
01100
00000
00000
00000
01010
01010
00000
00000
,
00001
10000
00001
10000
00010
01000
00010
01000
,
00100
10000
00100
10000
00100
00100
00000
00000
,
10000
00100
10000
00000
00100
01000
00100
00000
,
00010
01000
00010
00000
00100
01000
00100
01000
,
00100
00001
00100
00000
10000
00010
10000
00000
,
00100
10000
00100
00000
00001
00100
00001
00100
,
01000
00010
01000
00000
00010
01000
00010
00000
,
10000
00100
10000
00000
10000
00100
10000
00100
,
10000
00001
10000
00000
00001
10000
00001
00000
,
01000
00010
01000
00010
01000
00010
01000
00010
,
01010
00000
10001
10001
10000
00100
00001
00100
,
10000
00100
10000
00000
00001
00100
00001
00000
,
00100
00000
00100
00000
10000
00100
01000
00100
,
10001
01010
10001
00000
10010
00000
10001
00000
,
00100
00010
00100
01000
00100
00000
00100
00000
,
10000
01000
00100
01000
10000
00000
10000
00000
,
00001
00100
00001
00100
10000
00100
10000
00100
,
01010
00000
01010
00000
10000
00010
10000
00010
,
10010
00000
00001
00010
00100
00000
10000
00010
,
00000
01010
00000
01000
02000
00000
03001
00000
,
00101
00000
00101
00000
10000
01000
10000
01000
,
00000
00101
00000
00100
00200
00000
10300
00000
,
10000
00010
10000
00000
00100
00010
00100
00010
,
00000
00110
00000
01010
00020
00000
01030
00000
,
10000
00010
00001
00010
10000
01000
00001
00010
,
00000
01010
00000
10100
20200
00000
30301
00000
,
00202
00000
00000
00000
00000
00000
10303
10000
,
00000
00100
00000
00001
00000
00100
00000
20000
,
00000
00000
00000
00000
30000
00000
00100
00100
,
00000
10000
00000
00010
00000
00001
00000
20002
,
00000
00000
00000
30003
10000
00010
00000
20002
,
00000
00000
30003
00000
01000
00100
00000
00020
,
00000
00000
00000
00000
00230
00000
00300
10000
,
00000
00100
00000
10000
00000
00100
00000
20200
,
00000
00000
00000
00000
30300
00000
00001
00100
,
00000
01000
00000
10000
00000
01000
00000
00202
,
00000
00000
00000
00000
00303
00000
10000
00100
,
00000
00010
00000
00100
00000
01000
00000
20000
,
00000
00000
30001
00000
01000
00100
00000
00200
,
00000
00000
00301
00000
01100
01100
00000
20000
,
00000
00000
00000
00000
30020
00000
00030
10000
,
00000
00100
00000
00001
00000
00100
00000
00000
,
01010
00000
00000
00000
01010
01010
00000
00000
,
01010
00000
00000
00000
01010
01010
00000
00000
,
10000
00100
10000
00000
10000
00100
10000
00000
,
00100
00010
00100
00000
00100
00010
00000
00000
,
10100
01010
00101
01010
,
10100
00000
00000
01010
00000
00000
00101
00000
10000
00100
00000
00000
,
01010
01010
10001
10001
,
01010
01010
01100
01100
,
10000
00100
10000
00000
01010
00000
01010
00000
,
00001
00100
00001
00000
00101
00000
00101
00000
,
01000
00100
01000
00000
00001
00100
00001
00000
,
01000
00000
00000
01000
00000
00000
01000
00000
00000
00000
00000
00000
10001
00000
00000
00000
,
00000
01000
00000
01000
,
00000
01000
00000
01000
,
20202
00000
00000
00000
,
30303
00000
00000
00000
;

//---------------pnm-nine - ----------------
#NOTES:
     pnm-nine:
     :
     Medium:
     7:
     0.618418,0.757343,1.141502,0.351231,0.008781,493.000000,339.000000,130.000000,40.000000,0.000000,28.000000,0.618418,0.757343,1.141502,0.351231,0.008781,493.000000,339.000000,130.000000,40.000000,0.000000,28.000000:
000000000
000000000
100000000
000000000
000000010
000000010
000000000
000000101
,
000000000
000000101
000000000
000010100
000000000
001010000
000000000
200000000
,
000100000
000000000
000000000
000000000
000100000
300000000
000000000
000000000
,
000000001
000000010
000000001
000000000
000010000
000001000
000010000
000001000
,
000010000
000000000
000101000
000000000
000000010
000000010
000000000
000101000
,
000000000
000101000
000000000
010100000
000000000
010100000
000000000
000020202
,
000000000
000000000
000000000
000000000
000000000
000030303
000000000
000000000
,
000000100
000010000
000000100
000000000
000010000
000000100
000010000
000000100
,
000010000
000000000
000000101
000000000
000010100
000010100
000000000
000000010
,
000000000
000001000
000000000
000100000
000000000
000000100
000000000
000020000
,
000000000
000000100
000000000
000000100
,
002030000
000000100
203000000
000000100
,
300010000
000000000
000010001
000000000
000000010
000000010
000000000
101000000
,
000000000
010100000
000000000
001010000
000000000
000101000
000000000
200020200
,
000000000
000000000
000000000
000000000
000000000
300030300
000000000
000000000
,
000000001
000000010
000000001
000000010
000000001
000000010
000000001
000000000
,
010001000
000000000
000000000
000000000
010100000
010100000
000000000
000000000
,
010001000
000000000
000000000
000000000
010100000
010100000
000000000
000000000
,
000010000
000000100
000000001
000000100
000010000
010000000
000100000
000000100
,
001000000
100000100
001000000
100000100
001000000
001000000
000000000
000000000
,
100010000
001000100
100010000
000000000
000000100
000000100
000000100
000000000
,
000000001
000000100
000000001
000000000
001000000
000010000
001000000
000010000
,
001000000
000010000
001000000
000000000
000000001
000000100
000000001
000000000
,
001010000
100000100
001010000
000000000
000010000
000001000
000010000
000001000
,
010000010
000101000
010000010
000000000
000000100
000000010
000000001
000000000
,
000001000
001000000
000100000
000000000
000010100
000010100
000010100
000010100
,
000100000
000010000
000100000
000000000
000010000
001000000
000010000
000000000
,
000000001
000000100
000000001
000000100
000000001
000000100
000000001
000000100
,
010100000
000000000
000011000
000011000
101010000
001000000
000010000
000000100
,
100000000
001000000
000001000
000000000
000010100
000010100
000010100
000000000
,
001000100
000000000
001000100
000000000
000000001
000001000
001000000
000001000
,
100010000
010100000
100010000
000000000
000010010
000000000
100010000
000000000
,
000000010
000000100
000001000
000000100
000000010
000000000
001010000
000000000
,
000000100
000010000
000000100
000000010
000001000
000000000
000001000
000000000
,
000010000
001000100
000010000
001000100
100000000
001000100
100000000
001000100
,
010100000
000000000
010100000
000000000
000000001
000000010
000000001
000000100
,
001000100
000000000
000010100
000101000
001010000
000000000
000000100
000100000
,
000000000
010101000
000000000
000000010
020000000
000000000
030010000
000000000
,
001010001
000000000
001010001
000000000
100000000
010000000
000000100
000000001
,
000000000
001010100
000000000
001010000
002000200
000000000
103000300
000000000
,
100000000
000000001
100000000
000000000
000000010
000000100
000000010
000000100
,
000000000
001100000
000000000
010100000
000200000
000000000
010300000
000000000
,
100000000
000100000
000010000
000100000
100000000
000100000
000010000
000100000
,
000000000
000010101
000000000
101010000
202000000
000000000
303010000
000000000
,
002020200
000000000
000000000
000000000
000000000
000000000
103030300
100000000
,
000000000
001000100
000000000
000010001
000000000
001000100
000000000
200020200
,
000000000
000000000
000000000
000000000
300030300
000000000
001001000
001001000
,
000000000
000000001
000000000
000000100
000000000
000010000
000000000
200020000
,
000000000
000000000
000000000
300030000
100000000
001000000
000000000
200020000
,
000000000
000000000
300030000
000000000
000000001
000001000
000000000
000200000
,
000000000
000000000
000000000
000000000
002300000
000000000
003000000
100000000
,
000000000
001000000
000000000
000000001
000000000
001000000
000000000
202020000
,
000000000
000000000
000000000
000000000
303030000
000000000
000010000
000000100
,
000000000
000000001
000000000
000000010
000000000
010000000
000000000
002020000
,
000000000
000000000
000000000
000000000
003030000
000000000
100000000
001000000
,
000000000
000100000
000000000
001000010
000000000
010000100
000000000
200000000
,
000000000
000000000
301000000
000000000
010000000
000000001
000000000
002000000
,
000000000
000000000
003010100
000000000
011000000
011000000
000000000
200000000
,
000000000
000000000
000000000
000000000
300200000
000000000
000300000
000000001
,
000000000
001000100
000000000
000010000
000000000
001000100
000000000
000000000
,
010101000
000000000
000000000
000000000
010101000
010101000
000000000
000000000
,
010101000
000000000
000000000
000000000
010101000
010101000
000000000
000000000
,
100010000
001000100
100010000
000000000
000000101
000001010
000000101
000000000
,
000001000
000010000
000001000
000000000
000001000
000001000
000000000
000000000
,
101000000
010100000
001010000
000101000
,
000010100
000000000
000000000
000001010
000000000
000000000
000000101
000000000
000000001
000000100
000000000
000000000
,
010100010
010100010
101010000
101010000
,
000000011
000000011
011000000
011000000
,
000001000
000000100
000001000
000000000
000101000
000000000
000101000
000000000
,
000010000
000001000
000010000
000000000
000011000
000000000
000011000
000000000
,
000000100
000001000
000000100
000000000
000010000
000001000
000010000
000000000
,
010000010
000000000
000000000
010000010
000000000
000000000
010000010
000000000
000000000
000000000
000000000
000000000
001100010
000000000
000000000
000000000
,
000000000
000000010
000000000
010000000
,
000000000
000000010
000000000
010000000
,
002020002
000000000
000000000
000000000
,
003030003
000000000
000000000
000000000
;

//---------------pnm-nine - ----------------
#NOTES:
     pnm-nine:
     :
     Easy:
     4:
     0.302310,0.493919,0.456601,0.316108,0.000000,241.000000,185.000000,52.000000,36.000000,0.000000,10.000000,0.302310,0.493919,0.456601,0.316108,0.000000,241.000000,185.000000,52.000000,36.000000,0.000000,10.000000:
000000000
010000000
000000000
010000000
,
000000000
000010000
001000000
000100000
,
001000000
000000000
000000000
000000000
,
100000000
001000000
000100000
000010000
,
000000100
001000000
000100000
001000000
,
000001000
000000000
010000000
000000000
,
000000100
000000000
000000000
000000000
,
000100000
000000000
100000000
000000000
,
001000000
000001000
000000010
000100000
,
000001000
000000000
000001000
000000000
,
002000000
000000000
000000000
000000000
,
003200000
000000000
000320000
000000000
,
100030000
000000000
100000000
000000000
,
100000000
001000000
100000000
001000000
,
200000000
000000000
000000000
000000000
,
300000000
000000000
000000000
000000000
,
001001000
000000000
000110000
000000000
,
001001000
000000000
000110000
000000000
,
100100000
000000000
100100000
000000000
,
100100000
000000000
100100000
000000000
,
000000100
000100000
000000100
000100000
,
000000100
000100000
000000100
000100000
,
000010000
001000000
000010000
001000000
,
000010000
001000000
000010000
001000000
,
000000010
000000100
000000010
000000100
,
100000000
010000000
100000000
010000000
,
101000000
010100000
101000000
010100000
,
000202020
000000000
000000000
000303030
,
000101000
000010000
001000000
000010000
,
001100000
001100000
001100000
000000000
,
000011000
000000000
000101000
000000000
,
010100000
010100000
020200000
000000000
,
030301000
000000000
000001000
000000000
,
001000000
000000000
001000000
000000000
,
000010000
001000000
000010000
001000000
,
000010000
100000000
000100000
100000000
,
001001000
000100100
000001010
000000000
,
101000000
000000000
000000202
000000000
,
001000303
100000000
001000000
000000000
,
101000000
000000000
002020000
000000000
,
003030100
000001000
000000100
000000000
,
001010000
000000000
000202000
000000000
,
010303000
000100000
010000000
000000000
,
100100000
000000000
002002000
000000000
,
003003002
000000000
000000000
000000000
,
020000003
000000000
000000000
000000000
,
030200000
000000000
000000000
000000000
,
020300000
000000000
000000000
000000000
,
030001000
000000000
000001000
000000000
,
001000000
000000000
001000000
000000000
,
200000000
000000000
300002000
000000000
,
010003000
000000000
010000000
000000000
,
020202000
000000000
000000000
000000000
,
030303020
000000000
000200030
000000000
,
000302000
000000000
000000000
000000000
,
020003000
000000000
030200000
000000000
,
000320000
000000000
100030000
000000000
,
100100000
000000000
001010000
000000000
,
000200000
000000000
000300100
000000000
,
100000000
001000000
000100000
000010000
,
001001000
000000000
001001000
000000000
,
001001000
000000000
001001000
000000000
,
101000000
000000000
101000000
000000000
,
101000000
000000000
101000000
000000000
,
000010000
000100000
000010000
000100000
,
000010000
000100000
000001000
000010000
,
000000100
000010000
000000100
000010000
,
000000100
000001000
000100000
001000000
,
110000000
000100000
010000000
000100000
,
110000000
000100000
010000000
000100000
,
000101000
000010000
000001000
000010000
,
001001000
000000000
000000000
001001000
000000000
000000000
001001000
000000000
,
101010000
000000000
000000000
000000000
,
000000000
000000000
000000000
000000000
,
020202000
000000000
000000000
000000000
,
030303000
000000000
000000000
000000000
;

//---------------pnm-five - ----------------
#NOTES:
     pnm-five:
     :
     Easy:
     4:
     0.267187,0.460991,0.289766,0.237081,0.000000,213.000000,175.000000,33.000000,27.000000,0.000000,6.000000,0.267187,0.460991,0.289766,0.237081,0.000000,213.000000,175.000000,33.000000,27.000000,0.000000,6.000000:
// measure 0
00000
01000
00000
01000
,  // measure 1
00000
00001
00100
00010
,  // measure 2
00100
00000
00000
00000
,  // measure 3
00000
00100
00010
00001
,  // measure 4
10000
00100
00010
00100
,  // measure 5
00010
00000
01000
00000
,  // measure 6
00100
00000
00000
00000
,  // measure 7
00000
00100
10000
01000
,  // measure 8
00100
00000
00000
00000
,  // measure 9
00010
00000
10000
00000
,  // measure 10
00200
00000
00000
00000
,  // measure 11
00320
00000
00032
00000
,  // measure 12
10003
00000
10000
00000
,  // measure 13
10000
00100
10000
00100
,  // measure 14
20000
00000
00000
00000
,  // measure 15
30000
00000
00000
00000
,  // measure 16
00100
00000
00010
00000
,  // measure 17
00100
00000
00010
00000
,  // measure 18
10010
00000
10010
00000
,  // measure 19
10010
00000
10010
00000
,  // measure 20
00000
01000
00000
01000
,  // measure 21
00000
01000
00000
01000
,  // measure 22
00000
00100
00000
00100
,  // measure 23
00000
00100
00000
00100
,  // measure 24
00000
00001
00000
00100
,  // measure 25
00000
01000
00000
01000
,  // measure 26
10100
01010
10100
01010
,  // measure 27
00020
00000
00000
00030
,  // measure 28
00010
00001
00100
00001
,  // measure 29
00110
00110
00110
00000
,  // measure 30
00001
00000
00010
00000
,  // measure 31
01010
01010
02020
03030
,  // measure 32
00100
10000
00100
10000
,  // measure 33
00100
00010
00100
00010
,  // measure 34
00001
00100
00001
00100
,  // measure 35
00001
10000
00010
10000
,  // measure 36
00100
00010
01000
00000
,  // measure 37
10100
00000
00020
00000
,  // measure 38
00130
10000
00100
00000
,  // measure 39
10100
00000
00202
00000
,  // measure 40
10303
00100
10000
00000
,  // measure 41
00101
00000
00020
00000
,  // measure 42
01030
00010
01000
00000
,  // measure 43
10010
00000
00200
00000
,  // measure 44
20300
00000
00000
30000
,  // measure 45
02000
00000
00000
00000
,  // measure 46
03020
00000
00000
00000
,  // measure 47
02030
00000
00000
00000
,  // measure 48
03001
00010
00001
00010
,  // measure 49
00100
00000
00100
00000
,  // measure 50
20000
00000
30010
00000
,  // measure 51
01000
00000
01000
00000
,  // measure 52
00020
00000
00000
00000
,  // measure 53
00230
00000
00320
00000
,  // measure 54
20030
00000
30000
00000
,  // measure 55
02000
00000
03020
00000
,  // measure 56
00032
00000
10003
00000
,  // measure 57
10010
00000
00101
00000
,  // measure 58
00020
00000
00030
00000
,  // measure 59
10000
00100
00010
00001
,  // measure 60
10100
00000
10100
00000
,  // measure 61
10100
00000
10100
00000
,  // measure 62
10101
00000
10101
00000
,  // measure 63
10101
00000
10101
00000
,  // measure 64
00001
00010
00001
00010
,  // measure 65
00001
00010
01000
00001
,  // measure 66
01000
00001
01000
00001
,  // measure 67
01000
00100
00010
00100
,  // measure 68
11000
00010
01000
00010
,  // measure 69
11000
00010
01000
00010
,  // measure 70
00010
00001
00001
00001
,  // measure 71
00100
00000
00000
00100
00000
00000
00100
00000
,  // measure 72
10101
00000
00000
00000
,  // measure 73
00000
00000
00000
00000
,  // measure 74
02020
00000
00000
00000
,  // measure 75
03030
00000
00000
00000
;
